#TITLE:Innocent;
#SUBTITLE:;
#ARTIST:m1dy;
#TITLETRANSLIT:;
#SUBTITLETRANSLIT:;
#ARTISTTRANSLIT:;
#CRChallenge:;
#BANNER:innocent.jpg;
#BACKGROUND:innocent-bg.jpg;
#LYRICSPATH:;
#CDTITLE:;
#MUSIC:innocent.ogg;
#OFFSET:0.000;
#SAMPLESTART:23.073;
#SAMPLELENGTH:12.000;
#SELECTABLE:YES;
#BPMS:0.000=175.000,4.000=262.500,52.000=175.000,148.000=262.500,196.000=175.000,292.000=262.500,340.000=175.000;
#STOPS:;
#BGCHANGES:;
#NOTES:
     dance-single:
     Renard:
     Medium:
     9:
     0.722,0.739,0.259,0.139,0.656:
0000
0000
0000
0000
,
1000
0000
0000
0001
0000
0000
0100
0000
0000
0010
0000
0000
1000
0000
0000
0100
,
0000
0000
0010
0000
0000
0001
0000
0000
0010
0000
0000
0100
0000
0000
1000
0000
,
0000
0010
0000
0000
0100
0000
0000
0001
0000
0000
0010
0000
0000
0100
0000
0000
,
0010
0000
0000
0001
0000
0000
0100
0000
0000
0010
0000
0000
1000
0000
0000
0100
,
0000
0000
0010
0000
0000
0001
0000
0000
0010
0000
0000
0100
0000
0000
1000
0000
,
0000
0010
0000
0000
0100
0000
0000
0001
0000
0000
1000
0000
0000
0100
0000
0000
,
0010
0000
0000
0001
0000
0000
0010
0000
0000
0100
0000
0000
1000
0000
0000
0010
,
0000
0000
0100
0000
0000
0001
0000
0000
0010
0000
0000
0100
0000
0000
1000
0000
,
0000
0001
0000
0000
0100
0000
0000
0010
0000
0000
1000
0000
0000
0100
0000
0000
,
0010
0000
0000
0100
0000
0000
1000
0000
0000
0001
0000
0000
0100
0000
0000
0010
,
0000
0000
1000
0000
0000
0100
0000
0000
0010
0000
0000
0001
0000
0000
0010
0000
,
0000
0100
0000
0000
1000
0000
0000
0001
0000
0000
0100
0000
0000
0010
0000
0000
,
1000
0001
0100
0000
0010
1000
0000
0001
,
0100
0001
0010
0100
1000
0100
1000
0100
,
1000
0010
0100
0000
0001
0100
0000
0010
,
1000
0100
0010
0100
1000
0001
0010
0100
,
1000
0000
0000
0000
0000
0000
0001
0000
0000
0000
0000
0000
0100
0010
0100
0000
,
0010
0000
0000
0000
0000
0000
1000
0000
0000
0000
0000
0000
0100
0010
0100
0000
,
0010
0000
0000
0001
0000
0000
1000
0000
,
0010
0100
0010
0000
0000
0000
0100
0010
0100
0000
0000
0000
1001
0000
0000
0000
,
0001
0100
1000
0100
0000
0000
1100
0000
,
0100
0001
0010
1000
0000
0000
1010
0000
,
0010
0001
1000
0010
0000
0000
0011
0000
,
0010
1000
0100
0001
0000
0000
0101
0000
,
0100
1000
0010
0100
0000
0000
0101
0000
,
0001
0100
1000
0001
0000
0000
0011
0000
,
0010
1000
0100
0001
0000
0000
0101
0000
,
2M22
0M00
0M00
3M33
,
0001
1000
0100
0010
0000
0010
0001
0000
,
0010
0100
1000
0010
0000
0010
0100
0000
,
0100
0001
0010
0100
0000
0100
0001
0000
,
0001
0100
1000
0010
0000
0010
0100
0000
,
0001
0010
0100
1000
0000
0000
1010
0000
,
1000
0100
0010
0001
0000
0000
0101
0000
,
0001
0010
0100
1000
0000
0000
1001
0000
,
2M22
0M00
0M00
3M33
,
1000
0000
0000
0100
0000
0000
0010
0000
0000
0001
0000
0000
0100
0000
0000
0010
,
0000
0000
1000
0000
0000
0100
0000
0000
0010
0000
0000
0001
0000
0000
0100
0000
,
0000
0010
0000
0000
1000
0000
0000
0100
0000
0000
0010
0000
0000
0001
0000
0000
,
1000
0000
0000
0100
0000
0000
0010
0000
0000
0001
0000
0000
0100
0000
0000
0010
,
0000
0000
1000
0000
0000
0100
0000
0000
0010
0000
0000
0001
0000
0000
0100
0000
,
0000
0010
0000
0000
1000
0000
0000
0100
0000
0000
0010
0000
0000
0001
0000
0000
,
0001
0000
0000
0010
0000
0000
0100
0000
0000
1000
0000
0000
0010
0000
0000
0100
,
0000
0000
0001
0000
0000
0010
0000
0000
0100
0000
0000
1000
0000
0000
0010
0000
,
0000
0100
0000
0000
0001
0000
0000
0010
0000
0000
0100
0000
0000
1000
0000
0000
,
0001
0000
0000
0010
0000
0000
0100
0000
0000
1000
0000
0000
0010
0000
0000
0100
,
0000
0000
0001
0000
0000
0010
0000
0000
0100
0000
0000
1000
0000
0000
0010
0000
,
0000
0000
0100
0000
0000
0001
0000
0000
0100
0000
0000
0000
0000
0000
0000
0000
0000
0100
0000
0000
0010
0000
0000
0000
0000
0000
1000
0000
0000
0000
0000
0000
,
01M0
0000
000M
0100
00M0
0000
010M
0000
00M0
0000
100M
0000
01M0
1000
010M
0000
,
10M0
0000
000M
1000
00M0
0000
100M
0000
00M0
0000
010M
0000
10M0
0100
100M
0000
,
01M0
0000
000M
0100
00M0
0000
010M
0000
00M0
0000
100M
0000
01M0
1000
010M
0000
,
10M0
0000
000M
1000
00M0
0000
100M
0000
00M0
0000
010M
0000
10M0
0100
1000
0000
,
0001
0000
0000
0100
0000
0000
0110
0000
0000
0000
0010
0000
1000
0000
0100
0000
,
0010
0000
0000
0011
0000
0000
0011
0000
0000
0000
0010
0000
0100
0000
1000
0000
,
0001
0000
0000
0110
0000
0000
0110
0000
0000
0000
0010
0000
1000
0000
0100
0000
,
0010
0001
0010
0001
0000
0000
1000
0100
1000
0100
0000
0000
0010
0000
0010
0000
,
0001
0010
1000
0010
1000
0000
1010
0000
,
0010
0001
0100
1000
0100
0000
1100
0000
,
0100
0001
0010
0100
1000
0000
2200
0000
,
00M2
00M0
00M0
33M3
,
1000
0100
0001
0100
0000
0000
0101
0000
,
0100
1000
0010
0100
0001
0000
0101
0000
,
0001
0100
1000
0001
0000
0000
0011
0000
,
2M22
0M00
0M00
3M33
,
1000
0000
0000
1000
0001
0000
0100
0000
0000
0100
0010
0000
1000
0000
0100
0000
,
0010
0000
0000
0010
0001
0000
0010
0000
0000
0010
0100
0000
1000
0000
0010
0000
,
0100
0000
0000
0100
0001
0000
0100
0000
0000
0100
0010
0000
1000
0000
0100
0000
,
0010
0000
0000
0010
0001
0000
1000
0000
0000
1000
0010
0000
0100
0000
0001
0000
,
0010
0000
0000
0010
0100
0000
1000
0000
0000
1000
0010
0000
0100
0000
0001
0000
,
0010
0000
0000
0010
0100
0000
1000
0000
0000
1000
0010
0000
0100
0000
0001
0000
,
0010
0000
0000
0010
0001
0000
1000
0000
0000
1000
0010
0000
2002
0000
0000
0000
,
0M20
0M00
0M00
3M33
,
1000
0000
0000
0100
0000
0000
0010
0000
0000
0001
0000
0000
0100
0000
0000
0010
,
0000
0000
1000
0000
0000
0100
0000
0000
0010
0000
0000
0001
0000
0000
0100
0000
,
0000
0010
0000
0000
1000
0000
0000
0100
0000
0000
0010
0000
0000
0001
0000
0000
,
1000
0000
0000
0100
0000
0000
0010
0000
0000
0001
0000
0000
0100
0000
0000
0010
,
0000
0000
1000
0000
0000
0100
0000
0000
0010
0000
0000
0001
0000
0000
0100
0000
,
0000
0010
0000
0000
1000
0000
0000
0100
0000
0000
0010
0000
0000
0001
0000
0000
,
0001
0000
0000
0010
0000
0000
0100
0000
0000
1000
0000
0000
0010
0000
0000
0100
,
0000
0000
0001
0000
0000
0010
0000
0000
0100
0000
0000
1000
0000
0000
0010
0000
,
0000
0100
0000
0000
0001
0000
0000
0010
0000
0000
0100
0000
0000
1000
0000
0000
,
0001
0000
0000
0010
0000
0000
0100
0000
0000
1000
0000
0000
0010
0000
0000
0100
,
0000
0000
0001
0000
0000
0010
0000
0000
0100
0000
0000
1000
0000
0000
0010
0000
,
0000
0000
0100
0000
0000
0001
0000
0000
1000
0000
0000
0000
0000
0000
0000
0000
0000
0100
0000
0000
0010
0000
0000
0000
0000
0000
0001
0000
0000
1000
0000
0000
,
0001
0100
0001
0000
0000
0000
1000
0100
1000
0000
0000
0000
0001
0000
0010
0000
,
0100
1000
0100
0000
0000
0000
1000
0001
1000
0000
0000
0000
0001
0000
0100
0000
,
0010
1000
0010
0000
0000
0000
0100
0001
0100
0000
0000
0000
0001
0000
0010
0000
,
0100
1000
0100
1000
0000
0000
0001
1000
0001
1000
0000
0000
0101
0000
1001
0000
;
#NOTES:
     dance-single:
     Renard:
     Easy:
     7:
     0.442,0.533,0.111,0.018,0.148:
0000
0000
0000
0000
,
1000
0000
0000
0000
0000
0000
0001
0000
0000
1000
0000
0000
0001
0000
0000
0000
,
0000
0000
1000
0000
0000
0010
0000
0000
1000
0000
0000
0000
0000
0000
0001
0000
,
0000
0100
0000
0000
0001
0000
0000
0000
0000
0000
0010
0000
0000
0001
0000
0000
,
0010
0000
0000
0000
0000
0000
0100
0000
0000
0010
0000
0000
0100
0000
0000
0000
,
0000
0000
1000
0000
0000
0100
0000
0000
1000
0000
0000
0000
0000
0000
0001
0000
,
0000
0100
0000
0000
0001
0000
0000
0000
0000
0000
1000
0000
0000
0100
0000
0000
,
1000
0000
0000
0000
0000
0000
0001
0000
0000
0010
0000
0000
0001
0000
0000
0000
,
0000
0000
1000
0000
0000
0010
0000
0000
1000
0000
0000
0000
0000
0000
0001
0000
,
0000
0100
0000
0000
0001
0000
0000
0000
0000
0000
1000
0000
0000
0100
0000
0000
,
1000
0000
0000
0000
0000
0000
0001
0000
0000
0010
0000
0000
0001
0000
0000
0000
,
0000
0000
1000
0000
0000
0010
0000
0000
1000
0000
0000
0000
0000
0000
0001
0000
,
0000
0100
0000
0000
0001
0000
0000
0000
0000
0000
1000
0000
0000
0100
0000
0000
,
1000
0000
1000
0000
0001
0100
0000
0001
,
0000
0010
0100
1000
,
0001
0000
0100
0000
0010
1000
0000
0001
,
0000
0100
0001
0010
,
0100
0000
0100
0000
1000
0000
0100
0010
,
0001
0000
0010
0000
0001
0000
0010
0100
,
1000
0000
1000
0001
0100
0010
0100
0010
,
1000
0000
1000
0010
0000
0010
0100
0000
,
0101
0000
0100
0010
1000
0000
0000
0000
,
0100
1000
0100
0010
,
0011
0000
0010
0100
1000
0000
0000
0000
,
0010
0100
0001
1000
,
1100
0000
1000
0001
0100
0000
0000
0000
,
0001
1000
0010
0100
,
0101
0000
0001
0100
0010
0000
1001
0000
,
0220
0000
0000
0330
,
0010
0000
1000
0100
1000
0000
0000
0000
,
0010
1000
0100
1000
,
0010
0000
0100
0001
0100
0000
0000
0000
,
0010
0100
0001
1000
,
0100
0000
0010
0100
0010
0000
0000
0000
,
0100
1000
0010
0100
,
0001
0000
1000
0100
1000
0000
0001
0000
,
1001
0000
0000
0000
,
1000
0000
0000
0000
0000
0000
0001
0000
0000
0100
0000
0000
0001
0000
0000
0000
,
0000
0000
1000
0000
0000
0100
0000
0000
1000
0000
0000
0000
0000
0000
0001
0000
,
0000
0010
0000
0000
0001
0000
0000
0000
0000
0000
1000
0000
0000
0000
0000
0000
,
0001
0000
0000
0100
0000
0000
0010
0000
,
0000
1000
0000
0000
0100
0000
0000
0010
,
0000
0000
0001
0000
0000
1000
0000
0000
,
0010
0000
0000
0000
0000
0000
0100
0000
0000
0010
0000
0000
0100
0000
0000
0000
,
0000
0000
0001
0000
0000
0100
0000
0000
0001
0000
0000
0000
0000
0000
1000
0000
,
0000
0100
0000
0000
1000
0000
0000
0000
0000
0000
0001
0000
0000
0010
0000
0000
,
0001
0000
0000
0010
0000
0000
0100
0000
,
0000
1000
0000
0000
0001
0000
0000
0100
,
0000
0000
0010
0000
0000
1000
0000
0000
,
0100
0000
0000
0100
0000
0000
0000
0000
,
1000
0000
0000
1000
0000
0000
0000
0000
,
0001
0000
0000
0001
0000
0000
0000
0000
,
0100
0000
0000
0100
0000
0000
0000
0000
,
0010
0000
0000
1000
0000
0000
0010
1000
,
0001
0000
0000
0100
0000
0000
0001
0010
,
0100
0000
0000
1000
0000
0000
0001
0000
,
0110
0000
0000
1001
0000
0000
0110
0000
,
0010
0000
1000
0000
0010
0000
1000
0010
,
0100
0001
0100
0000
,
0001
0010
0001
0001
,
1001
0000
0000
0000
,
0010
0000
0100
0000
0001
0000
1000
0100
,
1000
0001
0010
0100
,
1000
0000
0001
0000
0100
0000
0001
1000
,
0001
0000
0000
0000
,
0100
0000
0010
0000
1000
0000
0100
0010
,
0100
0010
0001
1000
,
0010
0000
0100
0000
0001
0000
1000
0100
,
1000
0001
0010
0100
,
1000
0000
0001
0000
0100
0000
0010
0100
,
0010
0100
0001
0010
,
0100
1000
0001
0010
,
0110
0000
0000
0000
,
1000
0000
0000
0001
0000
0000
0100
0000
,
0000
0000
0001
0000
0000
1000
0000
0000
0001
0000
0000
0000
0000
0000
1000
0000
,
0000
0000
0000
0000
0100
0000
0000
0000
0000
0000
0010
0000
0000
0001
0000
0000
,
0010
0000
0000
0100
0000
0000
1000
0000
,
0000
0001
0000
0000
0100
0000
0000
0010
,
0000
0000
0000
0000
1000
0000
0000
0010
0000
0000
1000
0000
0000
0010
0000
0000
,
1000
0000
0000
0100
0000
0000
0010
0000
,
0000
0000
0001
0000
0000
0010
0000
0000
0001
0000
0000
0000
0000
0000
0010
0000
,
0000
0000
0100
0000
0000
1000
0000
0000
,
0001
0000
0000
0000
0000
0000
0100
0000
0000
0010
0000
0000
0100
0000
0000
0000
,
0000
0000
0010
0000
0000
1000
0000
0000
0010
0000
0000
0000
0000
0000
1000
0000
,
0000
0001
0000
0000
1000
0000
0000
0001
0000
0000
1000
0000
0000
0000
0000
0000
,
0001
0000
0000
0001
0000
0000
0100
0000
,
0010
0000
0000
0010
0000
0000
1000
0000
,
0100
0000
0000
0100
0000
0000
0010
0000
,
0001
0000
0000
1000
0000
0000
0010
0100
;
#NOTES:
     dance-single:
     Renard:
     Beginner:
     3:
     0.313,0.328,0.046,0.009,0.000:
0000
0000
0000
0000
,
1000
0000
0000
1000
0000
0000
0001
0000
,
0000
0001
0000
0000
0100
0000
0000
0100
,
0000
0000
0010
0000
0000
0010
0000
0000
,
0100
0000
0000
0100
0000
0000
0001
0000
,
0000
0001
0000
0000
1000
0000
0000
1000
,
0000
0000
0001
0000
0000
1000
0000
0000
,
0001
0000
0000
0001
0000
0000
1000
0000
,
0000
1000
0000
0000
0010
0000
0000
0010
,
0000
0000
0100
0000
0000
0100
0000
0000
,
0001
0000
0000
1000
0000
0000
0001
0000
,
0000
0100
0000
0000
0010
0000
0000
1000
,
0000
0000
0100
0000
0000
0010
0000
0000
,
0001
0000
0001
0000
0010
0000
0000
0010
,
0000
0000
0000
0000
,
0100
0000
0100
0000
1000
0000
0000
1000
,
0000
0000
0000
0000
,
0001
0000
0001
0000
,
0100
0000
0100
0000
,
0010
0000
0010
0000
,
1000
0000
0000
1000
0000
0000
1000
0000
,
0010
0000
0000
0010
0000
0000
0010
0000
,
0100
0000
0000
0100
0000
0000
0100
0000
,
0001
0000
0000
0001
0000
0000
0001
0000
,
1000
0000
0000
1000
0000
0000
1000
0000
,
0001
0000
0000
0001
0000
0000
0001
0000
,
1000
0000
0000
1000
0000
0000
1000
0000
,
0010
0000
0000
0010
0000
0000
0100
0000
,
0110
0000
0000
0000
,
0010
0000
0000
0010
0000
0000
0010
0000
,
0100
0000
0000
0100
0000
0000
0100
0000
,
0001
0000
0000
0001
0000
0000
0001
0000
,
1000
0000
0000
1000
0000
0000
1000
0000
,
0100
0000
0000
0010
0000
0000
0001
0000
,
0010
0000
0000
0100
0000
0000
1000
0000
,
0001
0000
0000
1000
0000
0000
0001
0000
,
1001
0000
0000
0000
,
0001
0000
0000
0001
0000
0000
0001
0000
,
0000
0001
0000
0000
1000
0000
0000
1000
,
0000
0000
1000
0000
0000
1000
0000
0000
,
0001
0000
0000
1000
0000
0000
0001
0000
,
0000
1000
0000
0000
0001
0000
0000
1000
,
0000
0000
0001
0000
0000
1000
0000
0000
,
0010
0000
0000
0010
0000
0000
0010
0000
,
0000
0010
0000
0000
0100
0000
0000
0100
,
0000
0000
0100
0000
0000
0100
0000
0000
,
0001
0000
0000
0001
0000
0000
1000
0000
,
0000
1000
0000
0000
0001
0000
0000
1000
,
0000
0000
0001
0000
0000
1000
0000
0000
,
0010
0000
0010
0000
,
0010
0000
0010
0000
,
0100
0000
0100
0000
,
0100
0000
0100
0001
,
1000
0000
0000
1000
0000
0000
0001
0000
,
0100
0000
0000
0100
0000
0000
0100
0000
,
0001
0000
0000
0001
0000
0000
0001
0000
,
0020
0000
0000
0000
,
0031
0000
0000
0001
0000
0000
1000
0000
,
0001
0000
0000
0001
0000
0000
1000
0000
,
1000
0000
0000
1000
0000
0000
0001
0000
,
1001
0000
0000
0000
,
0010
0000
0000
0010
0000
0000
0100
0000
,
0100
0000
0000
0100
0000
0000
0010
0000
,
1000
0000
0000
1000
0000
0000
0010
0000
,
1010
0000
0000
0000
,
1000
0000
0000
0001
0000
0000
1000
0000
,
0001
0000
0000
0100
0000
0000
0001
0000
,
1000
0000
0000
0100
0000
0000
1000
0000
,
0001
0000
0000
0010
0000
0000
0001
0000
,
1000
0000
0000
0010
0000
0000
1000
0000
,
0001
0000
0000
0100
0000
0000
0001
0000
,
1000
0000
0000
0100
0000
0000
1000
0000
,
1001
0000
0000
0000
,
0001
0000
0000
0100
0000
0000
0001
0000
,
0000
1000
0000
0000
0100
0000
0000
0010
,
0000
0000
0001
0000
0000
0100
0000
0000
,
0010
0000
0000
1000
0000
0000
0100
0000
,
0000
0010
0000
0000
0001
0000
0000
0010
,
0000
0000
0100
0000
0000
1000
0000
0000
,
0001
0000
0000
0010
0000
0000
0100
0000
,
0000
1000
0000
0000
0001
0000
0000
0100
,
0000
0000
0010
0000
0000
1000
0000
0000
,
0100
0000
0000
1000
0000
0000
0001
0000
,
0000
0010
0000
0000
0001
0000
0000
1000
,
0000
0000
0010
0000
0000
0100
0000
0000
,
0001
0000
0000
0100
0000
0000
0001
0000
,
1000
0000
0000
0100
0000
0000
1000
0000
,
0001
0000
0000
0010
0000
0000
0001
0000
,
1000
0000
0000
0010
0000
0000
0100
0010
;
#NOTES:
     dance-single:
     Renard:
     Hard:
     13:
     1.000,1.000,0.942,0.000,1.000:
0000
0000
0000
0000
,
1001
0000
0000
0001
0000
0000
0100
0000
0000
0010
0000
0000
1001
0000
0000
0100
,
0000
0000
0010
0000
0000
0001
0000
0000
0110
0000
0000
0100
0000
0000
1000
0000
,
0000
0010
0000
0000
0110
0000
0000
0001
0000
0000
0010
0000
0000
0100
0000
0000
,
0110
0000
0000
0001
0000
0000
0100
0000
0000
0010
0000
0000
1010
0000
0000
0100
,
0000
0000
0010
0000
0000
0001
0000
0000
0011
0000
0000
0100
0000
0000
1000
0000
,
0000
0010
0000
0000
0110
0000
0000
0001
0000
0000
1000
0000
0000
0100
0000
0000
,
0110
0000
0000
0001
0000
0000
0010
0000
0000
0100
0000
0000
1010
0000
0000
0010
,
0000
0000
0100
0000
0000
0001
0000
0000
0110
0000
0000
0100
0000
0000
1000
0000
,
0000
0001
0000
0000
0110
0000
0000
0010
0000
0000
1000
0000
0000
0100
0000
0000
,
0110
0000
0000
0100
0000
0000
1000
0000
0000
0001
0000
0000
0110
0000
0000
0010
,
0000
0000
1000
0000
0000
0100
0000
0000
0110
0000
0000
0001
0000
0000
0010
0000
,
0000
0100
0000
0000
1001
0000
0000
0001
0000
0000
0100
0000
0000
0010
0000
0000
,
1000
0010
1000
0000
0001
1000
0000
1011
,
0000
0001
1000
0100
0010
0001
0010
0100
,
1000
0001
0100
0000
0010
1000
0000
1011
,
0000
0001
1000
0100
0010
0100
1000
0001
,
1000
0100
0010
0001
1000
0000
0001
0010
0100
1000
0001
0000
1000
0100
0010
0001
,
1000
0100
0010
0001
1000
0000
0001
0010
0100
1000
0001
0000
1000
0100
0010
0001
,
0010
0100
1000
0001
1000
0000
0001
0010
0100
1000
0001
0000
1000
0100
0010
0001
,
1000
1000
0001
0100
0010
0000
1000
1000
0001
0100
0010
0000
1001
0000
0000
0000
,
0001
0100
0001
0100
0010
0000
0100
0001
0100
0001
0010
0000
0001
0100
0001
0000
,
0100
0001
0100
0001
0010
0000
0001
0100
0001
0100
0010
0000
0100
0001
0100
0001
,
1000
0100
1000
0100
0010
0000
0100
1000
0100
1000
0010
0000
1000
0100
1000
0000
,
0100
1000
0100
1000
0010
0000
1000
0100
1000
0100
0010
0000
0100
1000
0001
0000
,
1000
0010
1000
0010
0100
0000
0010
1000
0010
1000
0100
0000
1000
0010
1000
0000
,
0010
1000
0010
1000
0100
0000
1000
0010
1000
0010
0100
0000
0010
1000
0010
1000
,
0001
0010
0001
0010
0100
0000
0010
0001
0010
0001
0100
0000
0001
0000
0000
0000
,
1011
0000
0000
1001
,
0001
0100
0010
0100
0001
0000
0100
0001
0010
0001
0010
0000
0001
0100
0010
0000
,
0100
0001
0010
0001
0100
0000
0010
0100
0001
0010
0001
0000
0100
0000
0010
0000
,
1000
0100
0010
0100
1000
0000
0010
1000
0100
1000
0010
0000
1000
0000
0010
0000
,
0100
0010
1000
0100
0010
0000
0100
1000
0010
0100
0010
0000
1000
0000
0010
0000
,
1000
0001
0100
0010
1000
0000
0001
0100
0010
1000
0001
0000
1000
0010
0100
0000
,
0010
1000
0001
0100
0010
0000
0100
0001
1000
0010
0100
0000
0001
0100
0010
0000
,
1000
0010
0100
0001
1000
0000
0001
0100
0010
1000
0001
0000
1000
0100
0010
0000
,
1011
0000
0000
0000
,
1100
0000
0000
1100
0000
0000
1100
0000
0000
1100
0000
0000
0011
0000
0000
0011
,
0000
0000
0011
0000
0000
0011
0000
0000
0101
0000
0000
0101
0000
0000
0101
0000
,
0000
0101
0000
0000
1010
0000
0000
1010
0000
0000
1010
0000
0000
1010
0000
0000
,
0100
0000
0000
0001
0000
0000
0100
0000
0000
0000
0000
0000
0010
0000
0000
1000
0000
0000
0010
0000
0000
0000
0000
0000
0100
0000
0000
0001
0000
0000
0100
0000
,
0000
0000
0000
0000
0001
0000
0000
1000
0000
0000
0001
0000
0000
0000
0000
0000
1000
0000
0000
0100
0000
0000
1000
0000
0000
0000
0000
0000
0001
0000
0000
0100
,
0000
0000
0001
0000
0000
0000
0000
0000
1000
0000
0000
0001
0000
0000
1000
0000
0000
0000
0000
0000
0001
0000
0000
1000
0000
0000
0100
0000
0000
0010
0000
0000
,
0011
0000
0000
0011
0000
0000
0011
0000
0000
0011
0000
0000
1100
0000
0000
1100
,
0000
0000
1100
0000
0000
1100
0000
0000
1010
0000
0000
1010
0000
0000
1010
0000
,
0000
1010
0000
0000
0101
0000
0000
0101
0000
0000
0101
0000
0000
0101
0000
0000
,
0010
0000
0000
1000
0000
0000
0010
0000
0000
0000
0000
0000
0100
0000
0000
0001
0000
0000
0100
0000
0000
0000
0000
0000
0010
0000
0000
1000
0000
0000
0010
0000
,
0000
0000
0000
0000
1000
0000
0000
0001
0000
0000
1000
0000
0000
0000
0000
0000
0001
0000
0000
0010
0000
0000
0001
0000
0000
0000
0000
0000
1000
0000
0000
0010
,
0000
0000
1000
0000
0000
0000
0000
0000
0001
0000
0000
1000
0000
0000
0001
0000
0000
0000
0000
0000
1000
0000
0000
0001
0000
0000
0010
0000
0000
0100
0000
0000
,
1000
0000
0000
1000
0000
0000
1000
0000
0000
0000
0001
0000
0010
0100
1000
0001
,
0010
0000
0000
0010
0000
0000
0010
0000
0000
0000
0001
0000
1000
0100
0010
0001
,
1000
0000
0000
1000
0000
0000
1000
0000
0000
0000
0001
0000
0010
0100
1000
0001
,
0010
0000
0000
0010
0000
0000
0010
0000
0000
0000
0001
0000
1000
0100
0010
0001
,
0011
0000
0000
0011
0000
0000
0011
0000
0000
0000
1100
0000
0100
1000
0001
0010
,
0011
0000
0000
0011
0000
0000
0011
0000
0000
0000
1100
0000
0100
1000
0001
0010
,
0011
0000
0000
0011
0000
0000
0011
0000
0000
0000
1100
0000
0100
1000
0001
0000
,
1000
0001
0001
0100
0001
0000
1000
0001
0001
0100
0001
0000
1001
0000
0000
0000
,
0001
0100
1000
0100
0001
0010
1000
0010
,
0001
0100
1000
0100
0001
0010
0010
0010
,
0001
0100
1000
0100
0001
0010
0100
1000
,
1011
0000
0000
0000
,
1000
0100
0001
0100
1000
0010
0001
0010
,
1000
0100
0001
0100
1000
0010
0010
0010
,
1000
0100
0001
0100
1000
0010
0100
0001
,
1011
0000
0000
0000
,
0001
0100
0001
0100
0001
0000
1000
0010
1000
0010
1000
0000
0001
0000
1000
0000
,
0001
0010
0001
0010
0001
0000
1000
0100
1000
0100
1000
0000
0001
0000
1000
0000
,
0010
0100
0010
0100
0010
0000
1000
0010
1000
0010
1000
0000
0010
0000
0100
0000
,
0001
0010
0001
0010
0001
0000
1000
0100
1000
0100
1000
0000
0100
0000
1000
0000
,
0001
0010
0001
0010
0001
0000
1000
0001
1000
0001
1000
0000
0001
0000
0100
0000
,
0010
1000
0010
1000
0010
0000
1000
0001
1000
0001
1000
0000
0100
0000
1000
0000
,
0010
0100
0010
0100
0010
0000
0100
0001
0100
0001
0100
0000
0001
0000
1000
0000
,
1011
0000
0000
0000
,
1000
0000
0000
0100
0000
0000
0010
0000
0000
0001
0000
0000
0010
0000
0000
0100
0000
0000
1000
0000
0000
0001
0000
0000
0010
0000
0000
0100
0000
0000
1000
0000
,
0000
0100
0000
0000
0010
0000
0000
0001
0000
0000
1000
0000
0000
0100
0000
0000
0010
0000
0000
0001
0000
0000
1000
0000
0000
0100
0000
0000
0010
0000
0000
0001
,
0000
0000
1000
0000
0000
0100
0000
0000
0010
0000
0000
0001
0000
0000
0010
0000
0000
0100
0000
0000
1000
0000
0000
0001
0000
0000
0010
0000
0000
0100
0000
0000
,
1100
0000
0000
1100
0000
0000
1100
0000
0000
0011
0000
0000
0011
0000
0000
0011
,
0000
0000
0101
0000
0000
0101
0000
0000
1010
0000
0000
1010
0000
0000
1010
0000
,
0000
0101
0000
0000
0101
0000
0000
0101
0000
0000
1001
0000
0000
1001
0000
0000
,
0001
0000
0000
0010
0000
0000
0100
0000
0000
1000
0000
0000
0100
0000
0000
0010
0000
0000
0001
0000
0000
1000
0000
0000
0100
0000
0000
0010
0000
0000
0001
0000
,
0000
0010
0000
0000
0100
0000
0000
1000
0000
0000
0001
0000
0000
0010
0000
0000
0100
0000
0000
1000
0000
0000
0001
0000
0000
0010
0000
0000
0100
0000
0000
1000
,
0000
0000
0001
0000
0000
0010
0000
0000
0100
0000
0000
1000
0000
0000
0100
0000
0000
0010
0000
0000
0001
0000
0000
1000
0000
0000
0100
0000
0000
0010
0000
0000
,
0011
0000
0000
0011
0000
0000
0011
0000
0000
1100
0000
0000
1100
0000
0000
1100
,
0000
0000
1010
0000
0000
1010
0000
0000
0101
0000
0000
0101
0000
0000
0101
0000
,
0000
1010
0000
0000
1010
0000
0000
1010
0000
0000
1001
0000
0000
1001
0000
0000
,
0001
0100
0010
1000
0100
0100
1000
0010
0100
0001
0010
0010
0001
1000
0001
0000
,
1000
0010
0100
0001
0010
0010
0001
0100
0010
1000
0100
0100
1000
0001
1000
0000
,
0001
0100
0010
1000
0100
0100
1000
0010
0100
0001
0010
0010
0001
1000
0001
0000
,
1000
0010
0100
0001
0010
0010
0001
0100
0010
1000
0100
0100
1000
0001
1000
0000
;
