#TITLE:Infinite Blue;
#SUBTITLE:;
#ARTIST:MGD-Crew feat. Pinky Larude and MC BBQ;
#TITLETRANSLIT:;
#SUBTITLETRANSLIT:;
#ARTISTTRANSLIT:;
#CRChallenge:;
#BANNER:blue.jpg;
#BACKGROUND:blue-bg.jpg;
#LYRICSPATH:;
#CDTITLE:;
#MUSIC:blue.ogg;
#OFFSET:0.000;
#SAMPLESTART:34.618;
#SAMPLELENGTH:12.000;
#SELECTABLE:YES;
#BPMS:0.000=180.147,8.000=90.074,40.000=180.147,172.000=90.074,186.750=180.147;
#STOPS:;
#BGCHANGES:;
#NOTES:
     dance-single:
     Renard:
     Medium:
     8:
     0.755,0.964,0.288,0.050,0.551:
0000
0000
0000
0000
,
0000
0000
0000
0000
,
1000
0100
1000
0100
0010
0100
0010
0100
0010
0001
0100
0010
1000
0100
0010
0001
,
0100
0001
0100
0001
0100
0010
0100
0010
1000
0100
0010
0001
0100
0010
1000
0100
,
0010
0100
0010
0100
1000
0100
1000
0100
1000
0010
0100
0001
0010
0100
1000
0001
,
0100
0010
0100
0010
1000
0010
1000
0010
0100
0001
0010
0100
1000
0001
0100
0010
,
1000
0100
1000
0100
0010
0100
0010
0100
0010
0001
0100
0010
1000
0100
0010
0001
,
1000
0001
1000
0001
0100
0001
0100
0001
0100
0010
1000
0100
0010
0001
1000
0100
,
1000
0100
1000
0100
1000
0010
1000
0010
0100
0001
0010
0100
1000
0001
0100
0010
,
1000
0010
1000
0010
0100
0001
0100
0001
0010
0000
0100
0000
1000
0000
0001
0000
,
0100
0000
0101
0000
0100
0010
1000
0100
,
1000
0000
1100
0000
1000
0001
0100
0010
,
1000
0000
1010
0000
1000
0010
0100
0001
,
0010
0000
0011
0000
0010
0100
1000
0001
,
0100
0000
0101
0000
0001
0100
0010
1000
,
0100
0000
1100
0000
1000
0100
0010
0001
,
1000
1000
0001
0001
0100
0100
0010
0010
,
1000
0100
0010
0001
1000
0000
1001
0000
,
0001
0100
0001
0000
0100
0010
0100
0000
,
0010
1000
0100
0010
0001
1000
0100
0000
,
1000
0000
1100
0000
1000
0010
0100
0001
,
0010
0000
0011
0000
0010
0100
1000
0001
,
0100
0001
0100
0000
0010
0100
0010
0000
,
1000
0100
1000
0000
0001
0100
0010
1000
,
0100
0010
0001
0000
1000
0010
0100
0000
,
0001
0100
0010
1000
0100
1000
1001
0000
,
1000
0100
1001
0000
1000
0001
0100
0010
,
1000
0010
1001
0000
1000
0001
0010
0100
,
1000
0001
0101
0000
0001
1000
0010
0100
,
0001
1000
1100
0000
1000
0001
0010
0100
,
1000
0001
1000
0001
0100
0010
0100
0010
,
1000
0010
1000
0010
0100
0001
0100
0001
,
1100
0000
0100
1100
0000
1000
1100
0000
,
1000
0100
0010
0001
1000
0010
0100
0001
,
0100
0010
0000
0000
1001
1001
0000
0110
,
0000
0010
1000
0100
0010
0001
1000
0100
,
0010
0000
0010
0001
0010
0100
1000
0001
,
0100
0010
1000
0001
0010
0100
1000
0010
,
0100
0010
0000
0000
1001
1001
0000
0110
,
0000
0010
0001
0010
0100
1000
0001
0100
,
0010
1000
0001
0100
0000
0100
0010
1000
,
0100
0010
0001
0010
0100
1000
0001
0100
,
0020
0000
2030
3200
,
0310
0001
0010
0100
1000
0100
0010
0001
0010
0010
0100
0100
1000
1000
0100
1000
,
0001
0001
0100
0010
1000
0001
0100
0010
1000
1000
0010
0010
0100
0100
0001
0100
,
0010
1000
1000
0100
0010
0001
0010
0100
1000
1000
0001
0001
0010
0100
1000
0010
,
0100
0001
0100
0010
1000
0100
0010
0002
0000
0000
0000
0003
0000
0000
0000
0000
;
#NOTES:
     dance-single:
     Renard:
     Easy:
     5:
     0.395,0.497,0.125,0.338,0.006:
0000
0000
0000
0000
,
0000
0000
0000
0000
,
2000
0010
0100
0001
,
3020
0000
0230
0000
,
0302
0000
0010
1000
,
0203
0000
0320
0000
,
1000
0000
0200
0030
0001
0000
0020
0300
,
2000
3000
0200
0300
2000
3000
0200
0300
,
2030
0000
3200
0000
,
0320
0000
0032
0000
,
1003
1000
0001
0001
,
1000
0010
0100
0001
,
1000
1000
0001
0001
,
1000
0010
0100
0001
,
1000
0000
1000
0001
0100
0000
0100
0000
,
0001
0000
0001
1000
0100
0000
0100
0000
,
1000
0100
1000
0100
1000
0001
1000
0001
,
0010
0001
1000
0010
0100
0000
0001
0000
,
1000
1000
0001
0001
,
0100
0100
0010
1000
,
0001
0000
0001
0100
,
0010
0000
0000
0000
0010
1000
0001
0100
,
0001
0000
0000
0000
0001
0100
0010
1000
,
0001
0000
0000
0000
0001
1000
0100
1000
,
0001
0000
0000
0000
0001
1000
0001
0000
,
0010
0000
0010
0000
0001
0000
1000
0010
,
1000
0000
0000
0000
0001
0100
0001
0000
,
1000
0000
0000
0000
0100
1000
0100
0000
,
1000
0000
0000
0000
0001
0010
0001
0000
,
1000
0000
0000
0000
0010
1000
0010
0000
,
0100
0000
0000
0000
0100
0000
0001
0010
,
0001
0000
0000
0000
0001
0000
1000
0100
,
1000
0000
0000
1001
0000
0000
0110
0000
,
0000
0000
0010
1000
0001
0100
0010
0000
,
1000
0010
0000
0000
0100
0001
0000
1001
,
0000
1000
0100
0010
,
0001
0000
0001
0010
0000
0110
0000
1001
,
0000
1000
0010
0100
,
1001
0000
0000
0000
0110
0000
0000
1010
,
0000
0100
0001
1000
,
0100
0000
0100
1000
0000
1100
0000
1001
,
0000
1000
0001
0100
,
0020
0000
1000
0100
,
2030
3020
0230
0302
,
2003
3200
0320
0032
,
1003
0100
0010
0001
0001
0010
0100
1000
,
1000
0000
0100
0000
0010
0000
0002
2000
0000
0000
0000
3003
0000
0000
0000
0000
;
#NOTES:
     dance-single:
     Renard:
     Beginner:
     3:
     0.222,0.291,0.038,0.025,0.000:
0000
0000
0000
0000
,
0000
0000
0000
0000
,
0000
0000
0000
0000
,
0000
0000
0000
0000
,
0000
0000
0000
0000
,
0000
0000
0000
0000
,
1000
1000
0100
0100
,
0010
0010
0001
0001
,
0001
0000
1000
0000
,
0010
0000
0100
0001
,
1000
0001
0000
0001
,
0000
0100
0000
0010
,
1000
0001
0000
0001
,
0000
0100
0000
0010
,
0100
0001
0000
0001
,
0000
1000
0000
0010
,
0100
0100
0100
0100
,
0001
0001
0001
0000
,
1000
0000
0001
0000
,
0100
0000
0010
1000
,
0001
0000
0001
0000
,
0001
0000
1000
0100
,
0010
0000
0010
0001
,
1000
0000
1000
0001
,
0100
0000
0100
0000
,
0100
0000
0100
0001
,
1000
0000
1000
0001
,
0010
0000
0010
0100
,
1000
0000
1000
0001
,
0010
0000
0010
0001
,
1000
0000
1000
0010
,
0100
0000
0100
0001
,
0010
0000
1001
0000
,
0010
0010
0001
0000
,
1000
0000
0001
0000
,
0100
0010
1000
0010
,
0100
0100
0001
0000
,
1000
1000
0100
0000
,
0010
0000
1001
0000
,
0110
0000
0010
1000
,
0001
0000
0001
0100
,
0010
0000
0010
1000
,
0001
0000
1000
0001
,
0100
0100
0010
0010
,
0100
0100
0010
0010
,
2000
0100
0010
0001
,
3002
0000
1003
0000
;
