#TITLE:Infinite Blue EX;
#SUBTITLE:;
#ARTIST:MGD-Crew feat. Pinky Larude and MC BBQ;
#TITLETRANSLIT:;
#SUBTITLETRANSLIT:;
#ARTISTTRANSLIT:;
#CRChallenge:;
#BANNER:blue.jpg;
#BACKGROUND:blue-bg.jpg;
#LYRICSPATH:;
#CDTITLE:;
#MUSIC:blue.ogg;
#OFFSET:0.000;
#SAMPLESTART:53.033;
#SAMPLELENGTH:12.000;
#SELECTABLE:NO;
#BPMS:0.000=190.000;
#STOPS:;
#BGCHANGES:;
#NOTES:
     dance-single:
     Renard:
     Hard:
     11:
     0.762,0.985,0.069,0.367,1.000:
0000
0000
0000
0000
,
0000
0000
0000
0000
,
1011
0000
0000
0000
,
0000
0000
0000
0000
0000
0000
0000
0000
0000
0000
0000
0001
,
1000
0001
0000
0000
0000
0000
0000
0000
0000
0000
0000
0000
,
0000
0000
0000
0000
0000
0000
0000
0000
0000
0000
0000
1000
,
0001
1000
0000
0001
0000
0000
0001
0000
0000
1000
0000
0000
,
0001
0000
0000
0001
0000
0000
0001
0000
0000
1000
0000
0001
,
1000
0001
0000
1000
0000
0000
1000
0000
0000
1000
0000
0000
,
0001
1000
0001
1000
0001
1000
0001
1000
0001
1000
0001
1000
,
0001
0010
0100
1000
0100
0010
0001
0100
0010
1000
0010
0100
,
0001
0010
0100
1000
0100
0010
0001
0100
0010
1000
0010
0100
,
0001
0010
0100
1000
0100
0010
0001
0100
0010
1000
0010
0100
,
0001
0010
0100
1000
0100
0010
0001
1000
0001
1000
0001
1000
,
0001
0100
0010
1000
0100
0010
0001
0100
0010
1000
0100
0010
,
0001
0100
0010
1000
0100
0010
0001
0100
0010
1000
0100
0010
,
0001
0010
0100
1000
0001
0100
0010
1000
0100
0010
0100
1000
,
0001
0010
0100
0010
0001
1000
0010
0100
0001
0010
0100
1000
,
0001
0100
0010
1000
0000
1000
0010
1000
0100
0010
0000
0010
,
0001
0010
0100
1000
0000
1000
0001
0100
0010
1000
0000
0010
,
1000
0100
0010
0001
0000
0010
0100
1000
0001
0100
0000
0010
,
1000
0100
0010
0001
0000
0001
0010
0100
1000
0001
0000
0100
,
0010
1000
0100
0010
0000
0010
0001
0010
0100
1000
0000
0001
,
0100
0010
1000
0100
0000
0100
0010
0100
1000
0010
0000
0100
,
0010
0100
0001
0100
0010
1000
0001
0010
0100
0010
0001
1000
,
0100
0000
0000
1000
0100
0010
0001
0010
0000
1100
0000
0100
,
2000
3001
0000
0000
,
0000
0000
0000
0000
,
0002
1003
0000
0000
,
0000
0000
0000
0000
,
2000
3001
0000
0000
,
0000
0000
0000
0000
,
0002
1003
0000
0000
,
0000
0000
0000
0000
,
1011
0000
0000
0000
,
0000
0000
0000
0000
0000
0000
0000
0000
0000
0000
0000
0001
,
1000
0001
0000
0000
0000
0000
0000
0000
0000
0000
0000
0000
,
0000
0000
0000
0000
0000
0000
0000
0000
0000
0000
0000
1000
,
0001
1000
0000
0001
0000
0000
0001
0000
0000
1000
0000
0000
,
0001
0000
0000
0001
0000
0000
0001
0000
0000
1000
0000
0001
,
1000
0001
0000
1000
0000
0000
1000
0000
0000
1000
0000
0000
,
2002
0000
3013
0000
,
0002
0000
0013
0100
1000
0010
0200
0000
0301
0100
0010
1000
,
0200
0000
1300
0010
0100
0001
0200
0000
0310
1000
0100
0010
,
0002
0000
0013
0100
1000
0100
0010
0001
0010
0100
1000
0001
,
2000
0000
3100
0010
0001
0010
0100
1000
0001
0100
0001
1000
,
0200
0000
1300
0001
0010
0100
0020
0000
0130
1000
0001
0010
,
0002
0000
0013
0100
1000
0100
0020
0000
0031
0010
0100
1000
,
0002
0000
0103
0010
1000
0010
0100
0001
0010
0100
1000
0100
,
0020
0000
0031
1000
0010
0100
0001
0010
0100
1000
0001
0100
,
0002
0000
0013
0100
1000
0010
0200
0000
0301
0100
0010
1000
,
0200
0000
1300
0010
0100
0001
0200
0000
0310
1000
0100
0010
,
0002
0000
0013
0100
1000
0100
0010
0001
0010
0100
1000
0001
,
2000
0000
3100
0010
0001
0010
0100
1000
0001
0100
0001
1000
,
0200
0000
1300
0001
0010
0100
0020
0000
0130
1000
0001
0010
,
0002
0000
0013
0100
1000
0100
0020
0000
0031
0010
0100
1000
,
0002
0000
0103
0010
1000
0010
0100
0001
0010
0100
1000
0100
,
0020
0000
0031
1000
0010
0100
0001
0010
0100
1000
0001
0100
,
0202
0000
0000
0000
,
0000
0000
0000
0000
,
0010
0000
0000
0000
,
0000
0000
0000
0000
,
1000
0000
1000
0000
,
0010
0000
0010
0000
,
1000
1000
0010
0010
,
1000
0000
0000
0010
0000
0000
1000
0010
1000
0313
0000
0000
,
1111
0000
0000
0000
;
