#TITLE:In the Presence of Enemies Part II;
#SUBTITLE:;
#ARTIST:Dream Theater;
#TITLETRANSLIT:;
#SUBTITLETRANSLIT:;
#ARTISTTRANSLIT:;
#CRChallenge:;
#BANNER:enemies.png;
#BACKGROUND:enemies-bg.png;
#LYRICSPATH:;
#CDTITLE:!cdtitle.png;
#MUSIC:enemies.ogg;
#OFFSET:-10.484;
#SAMPLESTART:116.151;
#SAMPLELENGTH:12.000;
#SELECTABLE:YES;
#BPMS:0.000=137.000,166.000=250.000,183.000=252.640,188.000=250.000,258.000=248.000,302.000=251.000,439.000=245.560,440.000=251.340,445.500=249.560,454.500=249.140;
#STOPS:;
#BGCHANGES:;
#NOTES:
     dance-single:
     Renard:
     Medium:
     10:
     0.673,0.739,0.279,0.095,0.029:
0001
0001
0010
0100
0001
0001
0010
0100
,
1000
0100
0000
1100
,
0000
0000
1000
1000
0010
0100
1000
1000
,
0010
0100
0010
0000
0010
0000
0000
0000
,
1001
0000
0001
0010
0100
0100
0001
0010
,
0100
0100
0010
0000
0100
0000
0000
0000
,
1001
0000
0100
0001
1000
1000
0010
0100
,
1000
1000
0010
0100
0010
0000
0100
0000
,
0000
0000
1001
0000
0001
0001
0010
1000
,
0001
0001
0100
1000
1000
0000
0100
0000
,
0000
0000
1001
0000
0010
1000
0010
0100
,
0001
0001
1000
0100
0010
0001
0001
0000
,
1000
0000
1001
0000
0000
0000
0001
0001
,
0010
0100
1000
1000
0010
0100
0010
0000
,
0100
0000
1001
0001
,
0010
0100
1000
0010
0100
0100
0010
1000
,
0100
0100
0000
1001
,
0001
0010
0100
0100
1000
0010
0100
0100
,
0100
0010
0000
1001
,
0000
0000
0001
0001
0010
0100
1000
1000
,
0010
0100
0010
0000
1000
0000
1001
0000
,
0000
0000
0001
0001
0100
0010
1000
1000
,
0100
0010
0001
0000
1000
0000
0001
0000
,
1001
0000
0001
0100
0010
0010
1000
0100
,
0010
0010
0001
1000
0010
0000
0100
0000
,
1001
0100
1001
0010
2100
0000
0000
0000
,
0002
0000
0200
0000
,
0020
3333
1001
0000
,
0002
0203
2300
3020
,
0032
0000
0000
0003
2002
0000
0000
0000
,
0020
0000
0230
0000
,
0010
3313
1001
0000
,
0002
0000
2003
0000
3100
0010
0010
0010
,
0011
0100
1010
0100
1001
0000
0100
0100
,
1010
0000
0100
0010
0100
0000
0010
0100
,
0011
0000
0100
0010
1000
0000
0100
0100
,
0011
0000
0100
0100
1010
0000
0100
0100
,
0011
1000
0101
1000
0110
0000
0100
0100
,
0011
0000
0100
0100
1010
0000
0100
0100
,
1001
0000
0000
0100
0000
0000
1010
0000
0000
0000
0000
0000
0100
0000
0000
0000
0100
0000
0001
0000
0010
0000
0100
0000
,
1000
0000
1000
0010
0100
0001
0100
0000
0100
0010
1000
0100
,
0010
0001
0010
0000
0100
1000
0000
0001
,
0000
0100
0010
0000
1000
0000
0100
0000
,
1000
0010
0000
0100
0000
0001
0010
0000
,
0100
0000
1000
0000
0001
0100
0000
0010
,
0000
1000
0100
0000
0010
0000
0001
0000
,
0010
0100
0000
1000
0000
0001
0100
0000
,
0010
1000
0100
0010
0001
0010
0100
1000
,
0001
0100
0010
1000
0100
0010
0001
0010
,
0100
1000
0001
0100
0010
1000
0001
1000
,
0100
0010
0001
1000
0001
0010
0100
1000
,
0001
0010
0001
1000
0100
0010
0001
1000
,
0100
1000
0001
0100
0001
1000
0100
0010
,
0001
1000
0100
1000
0001
0010
0100
1000
,
0100
0010
0001
0010
0001
0010
0100
1000
,
0100
1000
0100
1000
0001
0010
0100
1000
,
0100
0010
0001
0100
0001
0100
0001
0100
,
0010
1000
0010
0100
0001
0100
0010
1000
,
0010
1000
0010
1000
0001
1000
0100
1000
,
0001
0010
0100
1000
0100
0010
0001
0010
,
0001
0010
0100
1000
0100
1000
0100
1000
,
0001
0010
0100
1000
0100
0010
0001
0100
,
0001
0100
0001
0100
0010
1000
0010
0000
,
1001
0000
0001
1000
0000
1010
0000
0001
,
0100
0000
1001
0000
0001
0100
0000
0010
,
0000
1000
0100
0000
0010
0000
0001
0000
,
1000
0010
0000
0100
0000
0001
0100
0000
,
0010
0000
1000
0100
0000
0010
0000
0001
,
0010
0000
0100
0000
1000
0000
0001
0100
,
0000
0010
1000
0000
0100
0000
0010
0000
,
0001
0010
0000
0100
0000
1000
0001
0000
,
0100
0000
0010
0000
1000
0001
0000
0100
,
0000
0010
1000
0000
0100
0000
0010
0001
,
0000
0010
0000
0100
1000
0000
0001
0000
,
0100
0000
0100
0010
0000
1000
0000
1000
,
0100
0000
0010
0000
0001
0010
0100
1000
,
0001
0100
0010
0000
0010
0000
1000
0100
,
0010
0001
0010
0100
1000
0001
0100
0000
,
0010
0000
1000
0100
0010
0001
0010
0100
,
1000
0000
0001
0000
0100
0010
1000
0100
,
0010
0001
0010
0100
1000
0001
1000
0001
,
1000
0100
0010
0001
0010
0100
1000
0000
,
0001
0000
0100
0010
1000
0100
0010
0001
,
0010
0100
1000
0000
1000
0000
0010
0100
,
0001
0010
0100
1000
0100
0000
0010
0000
,
0001
0000
1000
0100
0000
0010
0000
0001
,
1000
0100
0010
0000
0001
0010
0000
0011
,
0000
0010
0100
0000
1000
0000
1010
0000
,
0100
0010
0000
0100
0001
0000
0010
0100
,
1000
0000
0100
1000
0000
1001
0000
1000
,
0010
0000
0110
0000
0101
0000
0000
0110
,
0000
0000
1100
0000
0000
0110
0000
0000
,
0010
0100
0000
0100
0001
0000
0010
0000
,
0100
1000
0000
1000
0010
0000
0100
0000
,
0010
1000
0000
1000
0100
0000
0010
0000
,
0001
1000
0000
1000
0010
0000
0100
0000
,
0001
0010
0000
0010
0100
0000
1000
0000
,
0010
0000
0100
0000
0001
0100
0010
1000
,
0000
0001
0100
0010
1000
0100
0010
0001
,
0010
0100
1000
0001
0000
0100
0010
1000
,
0100
0000
1100
0000
1000
0100
0010
0001
,
0000
1000
0010
0100
0001
0010
0100
1000
,
0001
0000
0001
0100
0010
1000
0100
0000
,
0100
0010
0000
0010
0001
0000
0001
0010
,
0000
0010
0100
1000
0001
0010
0100
0000
,
0100
1000
0000
1000
0010
0000
0010
0100
,
0000
0100
0001
0100
0010
1000
0001
0100
,
0010
1000
0000
1000
0010
0100
0001
0010
,
0100
1000
0001
0010
0100
1000
0000
1000
,
0001
0100
0010
0000
1010
0000
1000
0010
,
0100
0001
0000
0010
0100
1000
0001
0100
,
0010
1000
0100
0000
0100
0010
0001
0010
,
0100
0000
0100
1000
0000
1000
0010
0000
,
0010
0100
0000
0100
0001
0010
0100
1000
,
0100
0000
0100
0010
0000
0010
0001
0000
,
0001
0010
0000
0010
0100
1000
0001
0100
,
0010
1000
0100
0010
0001
0000
0000
0000
;
#NOTES:
     dance-single:
     Copied from Renard:
     Hard:
     11:
     0.707,0.739,0.336,0.095,0.063:
0001
0001
0010
0100
0001
0001
0010
0100
,
1000
0100
0000
1100
,
0000
0000
1000
1000
0010
0100
1000
1000
,
0010
0100
0010
0000
0010
0000
0000
0000
,
1001
0000
0001
0010
0100
0100
0001
0010
,
0100
0100
0010
0000
0100
0000
0000
0000
,
1001
0000
0100
0001
1000
1000
0010
0100
,
1000
1000
0010
0100
0010
0000
0100
0000
,
0000
0000
1001
0000
0001
0001
0010
1000
,
0001
0001
0100
1000
1000
0000
0100
0000
,
0000
0000
1001
0000
0010
1000
0010
0100
,
0001
0001
1000
0100
0010
0001
0001
0000
,
1000
0000
1001
0000
0000
0000
0001
0001
,
0010
0100
1000
1000
0010
0100
0010
0000
,
0100
0000
1001
0001
,
0010
0100
1000
0010
0100
0100
0010
1000
,
0100
0100
0000
1001
,
0001
0010
0100
0100
1000
0010
0100
0100
,
0100
0010
0000
1001
,
0000
0000
0001
0001
0010
0100
1000
1000
,
0010
0100
0010
0000
1000
0000
1001
0000
,
0000
0000
0001
0001
0100
0010
1000
1000
,
0100
0010
0001
0000
1000
0000
0001
0000
,
1001
0000
0001
0100
0010
0010
1000
0100
,
0010
0010
0001
1000
0010
0000
0100
0000
,
1001
0100
1001
0010
2100
0000
0000
0000
,
0002
0000
0200
0000
,
0020
3333
1111
0000
,
0002
0203
2300
3020
,
0032
0000
0000
0003
2002
0000
0000
0000
,
0020
0000
0230
0000
,
0010
3313
1111
0000
,
0002
0000
2003
0000
3100
0010
0010
0010
,
0011
0100
1010
0100
1001
0000
0100
0100
,
1010
0000
0100
0010
0100
0000
0010
0100
,
0011
0000
0100
0010
1000
0000
0100
0100
,
0011
0000
0100
0100
1010
0000
0100
0100
,
0011
1000
0101
1000
0110
0000
0100
0100
,
0011
0000
0100
0100
1010
0000
0100
0100
,
1001
0000
0000
0100
0000
0000
1010
0000
0000
0000
0000
0000
0100
0000
0000
0000
0100
0000
0001
0000
0010
0000
0100
0000
,
1000
0000
1000
0010
0100
0001
0100
0000
0100
0010
1000
0100
,
0010
0001
0010
0000
0100
1000
0000
0001
,
0000
0000
0100
0010
0100
0000
0000
0000
0010
0000
1000
0000
0100
0000
0000
0000
,
1000
0000
0010
0000
0000
0000
0100
0000
0000
0000
0001
0010
0001
0000
0000
0000
,
0010
0100
1000
0000
0001
0100
0000
0010
,
0000
0000
1000
0100
1000
0000
0000
0000
0100
0000
0010
0000
0001
0000
0000
0000
,
0010
0000
0100
0000
0000
0000
1000
0000
0000
0000
0001
0100
0001
0000
0100
0000
,
0010
1000
0100
0010
0001
0010
0100
1000
,
0001
0100
0010
1000
0100
0010
0001
0010
,
0100
1000
0001
0100
0010
1000
0001
1000
,
0100
0010
0001
1000
0001
0010
0100
1000
,
0001
0010
0001
1000
0100
0010
0001
1000
,
0100
1000
0001
0100
0001
1000
0100
0010
,
0001
1000
0100
1000
0001
0100
0001
0100
,
0001
0100
1000
0100
1000
0100
0010
0001
,
0010
0001
0010
0001
0010
0001
0010
1000
,
0010
1000
0100
1000
0100
1000
0100
1000
,
0100
0001
0100
0001
0100
0010
0001
0010
,
0100
1000
0010
0100
0001
0010
0100
1000
,
0010
1000
0010
1000
0010
1000
0010
0001
,
0010
0001
0010
0100
0010
0100
0010
0100
,
1000
0100
1000
0100
0001
0100
0010
1000
,
0100
1000
0100
1000
0100
0010
0001
0000
,
1001
0000
0001
1000
0000
1010
0000
0001
,
0100
0000
1001
0000
0001
0100
0000
0010
,
0000
1000
0100
0000
0010
0000
0001
0000
,
1000
0010
0000
0100
0000
0001
0100
0000
,
0010
0000
1000
0100
0000
0010
0000
0001
,
0010
0000
0100
0000
1000
0000
0001
0100
,
0000
0010
1000
0000
0100
0000
0010
0000
,
0001
0010
0000
0100
0000
1000
0001
0000
,
0100
0000
0010
0000
1000
0001
0000
0100
,
0000
0010
1000
0000
0100
0000
0010
0001
,
0000
0010
0000
0100
1000
0000
0001
0000
,
0100
0000
0100
0010
0000
1000
0000
1000
,
0100
0000
0010
0000
0001
0010
0100
1000
,
0001
0100
0010
0000
0110
0000
1000
0100
,
0010
0001
0010
0100
1000
0001
0100
0000
,
0110
0000
1000
0100
0010
0001
0010
0100
,
1000
0000
1001
0000
0100
0010
1000
0100
,
0010
0001
0010
0100
1000
0001
1000
0001
,
1000
0100
0010
0001
0010
0100
1000
0000
,
1001
0000
0100
0010
1000
0100
0010
0001
,
0010
0100
1000
0000
1001
0000
0010
0100
,
0001
0010
0100
1000
0100
0000
0110
0000
,
0011
0000
1000
0100
0000
0010
0000
0001
,
1000
0100
0010
0000
0001
0010
0000
0011
,
0000
0000
0001
0010
0100
0000
0000
0000
1010
0000
0000
0000
1010
0000
0000
0000
,
0100
0000
0010
0000
0000
0000
0100
0000
0000
0000
0001
0010
0100
0000
0000
0000
,
1000
0000
0000
0000
0100
0000
1000
0000
0000
0000
1001
0000
0000
0000
1000
0010
,
0100
0000
0110
0000
0101
0000
0000
0110
,
0000
0000
0010
1000
0001
0000
0000
0000
0000
0000
0110
0000
0000
0000
0000
0000
,
0010
0000
0000
0100
0001
0000
0010
0000
,
0100
0000
0000
1000
0010
0000
0100
0000
,
0010
0000
0000
0000
0000
0000
1000
0100
1000
0000
0000
0000
0000
0000
0000
0000
,
1001
0000
0000
0000
0000
0000
1000
0010
1000
0000
0000
0000
0001
0000
0000
0000
,
0001
0000
0000
0010
0100
0000
1000
0000
,
0001
0000
0000
0000
0000
0000
0001
0100
0001
0000
0100
0000
0010
0000
1000
0000
,
0000
0001
0100
0010
1000
0100
0010
0001
,
0010
0100
1000
0001
0000
0100
0010
1000
,
0100
0000
1100
0000
1000
0100
0010
0001
,
0000
1000
0010
0100
0001
0010
0100
1000
,
0001
0000
0001
0100
0010
1000
0001
0100
,
0010
1000
0100
0010
0001
0010
1000
0010
,
0001
0010
0100
1000
0010
0001
0010
0100
,
1000
0100
0001
0010
0100
1000
0100
0001
,
0100
1000
0001
0100
0010
1000
0001
0100
,
0010
1000
0000
1000
0010
0100
0001
0010
,
0100
1000
0001
0010
0100
1000
0000
1000
,
0001
0100
0010
0000
1010
0000
1000
0010
,
0100
0001
0000
0010
0100
1000
0001
0100
,
0010
1000
0100
0000
0100
0010
0001
0010
,
0100
1000
0001
0100
1000
0100
0001
0010
,
0100
1000
0010
0001
0010
0100
1000
0100
,
0001
0010
0100
1000
0100
0001
0100
1000
,
0010
0100
0001
0010
0100
1000
0001
0100
,
0010
1000
0100
0010
0011
0000
0000
0000
;
#NOTES:
     dance-single:
     Renard:
     Easy:
     7:
     0.416,0.480,0.076,0.101,0.000:
1000
0000
0000
0000
0001
0000
0000
0100
,
0010
0100
0000
1001
,
0000
1000
0000
0100
,
0000
0010
0001
0000
1000
0000
0000
0000
,
1001
0001
0000
1000
,
0000
0010
0100
0000
0001
0000
0000
0000
,
1001
0000
1000
0000
,
0100
0000
0000
0010
0001
0000
1000
0000
,
0000
1001
0001
0000
,
1000
0000
0000
0010
0100
0000
0010
0000
,
0000
1001
0000
1000
,
0000
0000
0001
0000
0000
0100
0010
0000
,
1000
0000
0010
1000
0001
0000
1000
0000
,
0100
0010
0001
0000
0000
0010
0100
0000
,
0000
1000
0001
0100
,
0010
0000
1000
0000
0010
0000
0000
0100
,
0001
1000
0100
0001
,
0100
0000
1000
0000
0001
0000
0000
0100
,
0010
1000
0000
1001
,
0000
0000
0001
0000
1000
0000
0100
0010
,
0001
1000
0000
0000
0001
0000
0000
0000
,
1000
0000
0010
0000
0100
0000
0001
0100
,
0010
0100
0010
0000
0100
0000
0001
0000
,
0000
1000
0100
0010
,
0001
0000
0000
1000
0010
0000
0100
0000
,
0001
1000
0001
1000
0020
0000
0000
0000
,
0230
0000
0302
0000
,
2003
3200
0320
0000
,
0001
0001
0032
1000
,
2000
3003
1001
0000
,
2000
0000
3020
0000
,
0230
0001
0302
0000
,
2003
3200
0320
0032
,
1003
0000
1001
0000
,
0110
0000
0010
0100
0001
0000
0000
0000
,
0100
0000
0010
1000
0010
0000
0000
0000
,
1000
0100
0010
0001
1000
0000
1001
0000
,
0101
0000
0000
0000
0001
0000
0100
0010
,
1000
0000
0010
0100
0001
0000
1000
0100
,
0010
0001
1000
0000
1001
0000
0000
0000
,
0001
0000
0100
0000
,
0010
1000
0100
0000
1000
0000
0000
0001
,
0000
0100
0010
1000
,
0100
0000
0000
0010
0000
0000
0001
0000
,
0010
0000
0100
0000
1000
0000
0000
0001
,
0000
0100
0010
1000
,
0100
0000
0000
0010
0000
0000
0001
0000
,
0010
0000
0100
0000
1000
0000
0000
0001
,
0000
0100
0010
1000
,
0100
0000
0000
0010
0000
0000
0001
0000
,
0010
0000
0100
0000
1000
0000
0000
0001
,
0000
0100
0010
1000
,
0100
0000
0010
0000
0001
0000
1000
0001
,
1000
0000
0001
0000
1000
0000
0000
0010
,
0000
0100
0001
0100
,
0000
0010
0000
0000
1000
0000
0100
0000
,
0010
0000
0001
0000
0000
0010
0000
0000
,
0100
0000
1000
0000
0010
0000
0000
0100
,
0000
0000
0001
0000
0000
0100
0000
0000
,
0010
0000
0000
1000
0000
0000
0100
0000
,
0010
0000
0001
0000
0000
0010
0000
0000
,
0100
1000
0001
0100
,
0000
0010
0000
0000
1000
0000
0100
0000
,
0010
0000
0000
0001
0000
0010
0000
0100
,
1000
0000
0001
0000
1000
0000
0000
0001
,
0000
0100
0010
1000
,
0000
0010
0000
1000
0000
0100
0000
0000
,
0010
0000
0001
0000
0000
0010
0000
0000
,
0100
0000
1000
0000
0001
0000
0000
0100
,
0000
0000
0010
0000
0000
1000
0000
0000
,
0100
0000
0000
0100
1000
0000
0001
0000
,
0100
0000
0010
0000
0000
1000
0000
0010
,
0000
1000
0010
0000
1000
0000
0001
0000
,
0000
0100
0000
0000
0001
0000
1000
0000
,
0100
0000
0010
0001
0000
1000
0000
0100
,
0010
0000
0001
0000
1000
0000
0000
0001
,
0000
0100
0000
0010
0100
0000
0010
0000
,
0000
1000
0000
0100
0000
0000
0010
0000
,
0001
0000
1000
0010
0000
1000
0000
0000
,
0000
0001
0100
0000
0010
0000
0000
1000
,
0000
0000
0010
0000
0000
0100
0000
0000
,
0001
1000
0000
0100
0000
0000
1000
0000
,
0001
0000
0100
0000
0000
0001
0000
1000
,
0000
0000
0100
0000
0010
0000
0001
0010
,
0000
0100
0000
0000
0000
1000
0001
0000
,
0100
0000
0000
0010
0000
1000
0000
0000
,
0010
0000
0100
0000
0001
0000
0000
1000
,
0000
0100
1000
0001
,
0000
0010
0000
0000
0001
0000
1000
0000
,
0010
0000
0100
0000
0000
0001
0000
0000
,
0100
0000
0000
0000
0010
0000
0000
1000
,
0000
0000
0100
0000
0000
0010
0000
0000
,
0001
0000
0000
0001
1000
0000
0000
0000
,
0010
0000
0000
0010
0100
0000
0000
0000
,
0001
0000
0000
0001
1000
0000
0100
0000
,
0010
0000
0000
0010
0001
0000
1000
0000
,
0010
0100
0001
0100
,
0010
0000
1000
0000
0001
0010
0001
0010
,
0000
0001
0010
0100
,
1000
0100
1000
0100
0000
0000
1000
0000
,
0010
0000
0100
0000
0001
0100
0001
0100
,
0000
0010
1000
0100
,
0010
0000
0010
0001
0000
0010
0100
0000
,
0100
1000
0000
1000
0010
0000
0010
0100
,
0000
0100
0001
0100
0001
0000
0100
0000
,
0100
0010
0000
0010
1000
0000
1000
0001
,
0000
0001
0100
0000
0100
0000
0010
0000
,
0000
1000
0000
0010
,
0100
0000
0001
0100
0001
0100
0000
0000
,
0010
1000
0010
0000
1000
0000
0100
0000
,
0000
0010
0000
0000
0001
0000
1000
0000
,
0010
0100
0000
0000
,
0001
0000
0001
1000
0000
1000
0010
0000
,
0010
0100
0000
0100
0001
0100
0010
1000
,
0010
0000
0010
0100
0000
0100
0001
0000
,
0001
0100
0000
0100
0010
1000
0001
0100
,
0010
1000
0001
0100
0010
0000
0000
0000
;
#NOTES:
     dance-single:
     Renard:
     Beginner:
     4:
     0.342,0.480,0.120,0.152,0.000:
1000
0000
0001
0000
,
0100
0100
0000
0010
,
0000
1000
0000
0001
,
0000
0010
0010
0000
,
0100
1000
0000
0001
,
0000
0100
0100
0000
,
0010
0000
1000
0000
,
0001
0000
0010
0010
,
0000
0100
0000
0000
,
0100
0000
1000
1000
,
0000
0001
0000
0100
,
0000
0010
0000
1000
,
0010
1000
0000
0001
,
0000
0200
0000
0320
,
0000
2030
0000
3010
,
0100
0000
0001
0000
,
1000
0100
0000
0010
,
0001
0000
1000
0010
,
0200
0000
0302
0000
,
2003
0000
3100
1000
,
0000
0001
0100
0010
,
0000
1000
0000
0010
,
0000
0100
0001
0000
,
0100
0000
0010
0000
,
1000
0000
0100
0010
,
0001
1000
0001
0000
2000
0000
0000
0000
,
3020
0000
2030
0000
,
0010
0010
3020
0000
,
0230
0302
0203
0302
,
0203
0000
0302
0000
,
0023
0000
0032
0000
,
0023
0001
0032
0000
,
0023
0230
2300
0001
,
0002
3003
1001
0000
,
0110
0000
1001
0000
,
0110
0010
1001
0000
,
1001
1000
1010
0010
,
0110
0000
0101
0000
,
1001
0001
1001
1000
,
1010
0010
0110
0000
,
0101
0000
1001
0000
,
1100
0000
1000
1000
,
1000
1000
0000
0000
,
0001
0001
0001
0001
,
0000
0000
0100
0100
,
0100
0100
0000
0000
,
0010
0010
0010
0010
,
0000
0000
1000
0010
,
1000
0010
1000
0010
,
0100
0010
0100
0010
,
0100
0010
0100
0001
,
0100
0001
0100
0001
,
1000
0100
0010
0001
,
0000
0001
0010
0000
,
0100
1000
0001
0100
,
0000
0010
1000
0000
,
0100
0010
0000
0001
,
0010
0000
0100
1000
,
0001
0100
0010
1000
,
0010
0000
0010
0100
,
0000
0100
0000
0001
,
1000
0100
0010
0001
,
0000
0010
0100
0000
,
1000
0000
0000
0000
,
0000
0000
0001
1000
,
0001
1000
1000
0010
,
0100
0010
0100
0010
,
0010
1000
0001
1000
,
0001
0001
0100
0000
,
0010
0000
1000
0000
,
0010
0100
0010
0100
,
0100
0001
1000
0001
,
1000
1000
1000
0010
,
0100
0010
0100
0100
,
0001
0000
1000
0000
,
0010
0000
1000
0100
,
0010
0001
0001
1000
,
0100
0010
0001
0001
,
0001
1000
0100
0010
,
0001
0001
1000
0100
,
0010
0001
0001
0001
,
0001
0100
0010
1000
,
1000
0001
0100
0010
,
1000
1000
1000
0001
,
0100
0010
1000
1000
,
0001
0000
0100
0000
,
0010
0000
1000
0000
,
0010
1000
0000
0010
,
0000
0100
0001
0000
,
0100
0010
0000
1000
,
0100
0000
0010
0000
,
0001
1000
0000
0100
,
1000
0001
0100
0010
,
1000
0000
0010
0000
,
0100
0001
1000
0000
,
0100
0000
1001
0000
,
1000
0000
1010
0000
,
0100
0001
1000
0000
,
1000
0000
0001
0001
,
0001
0000
0100
0000
,
0010
0010
1000
0000
,
0100
0000
0010
0010
,
0001
0000
1000
0010
,
0000
0100
0001
0000
,
0100
0010
1000
0100
,
0000
0010
0001
0000
,
1000
0010
0100
0001
,
0100
0010
1000
0010
,
0000
0010
0000
0100
,
0000
0001
0000
1000
,
0000
0100
0000
1000
,
0001
0100
0000
0000
,
0010
0000
0010
1000
,
0000
1000
0010
0000
,
0010
0100
0000
0100
,
0001
0000
1000
0100
,
0010
0001
1001
0000
;
