#TITLE:In Stereo;
#SUBTITLE:(Renard Glitch Step Remix);
#ARTIST:Fort Minor;
#TITLETRANSLIT:;
#SUBTITLETRANSLIT:;
#ARTISTTRANSLIT:;
#CRChallenge:Phantom;
#BANNER:IS.png;
#BACKGROUND:IS-bg.png;
#LYRICSPATH:;
#CDTITLE:;
#MUSIC:Renard - In Stereo (Renard Glitch Step Remix).ogg;
#OFFSET:0.000;
#SAMPLESTART:77.340;
#SAMPLELENGTH:11.000;
#SELECTABLE:YES;
#BPMS:0.000=90.000,68.000=180.000,163.000=359.999,166.500=180.000;
#STOPS:162.000=0.085
,162.250=0.085
,162.500=0.085
,162.750=0.085
,163.000=0.085
,166.500=0.165
;
#BGCHANGES:;
#NOTES:
     dance-single:
     Phantom:
     Medium:
     9:
     0.585,0.508,0.164,0.148,0.037:
0000
0000
0000
0000
,
1000
0100
1000
0100
1000
0100
1000
0100
,
1000
0001
0010
0001
0010
0001
0010
0001
,
0100
0010
1000
0010
1000
0010
1000
0010
,
1000
0001
0100
0001
0100
0001
0100
0001
,
0100
0010
1000
0100
0010
0001
0010
0100
,
1000
0010
0100
0001
0100
0010
1000
0001
,
0010
0001
1000
0100
1000
0001
0100
0001
,
0100
0010
0100
0010
0100
0001
1000
0001
,
1001
0010
0100
0001
1000
0100
0010
0000
,
0001
1000
0010
0100
0001
1000
0100
0000
,
1000
0001
0010
0001
0100
0010
1000
0000
,
0001
1000
0100
0010
0001
1000
0010
1000
,
2000
0000
0020
3030
0001
1000
0001
0010
,
0100
1000
0001
0100
0001
1000
0010
0100
,
0001
1000
0100
0010
0001
0100
0010
1000
,
0001
0010
0001
0100
0010
1000
0001
1000
,
2002
0000
0000
0000
0000
0000
0000
0000
0003
000M
000M
000M
000M
000M
000M
000M
,
300M
0001
1000
0000
0001
1000
0100
1000
,
0000
1000
0100
0010
0000
0001
0100
1000
,
0100
0000
0110
0000
0001
1000
0100
0000
,
0000
1000
0100
0010
0000
0001
0010
1000
,
0010
0001
0010
0000
0001
0100
0001
0000
,
0000
0100
0010
0000
1000
0001
1000
0200
,
0300
1000
0010
0000
1000
0001
0100
0000
,
0000
0001
0100
0010
2000
0000
3020
0030
,
1000
1000
0010
0010
1000
0000
0001
0000
,
0000
0001
0100
1000
0100
0000
0001
0010
,
0001
1000
0100
1000
0001
0000
0100
0000
,
0000
0001
0010
1000
0010
0000
0001
0000
,
1000
0010
1000
0100
0000
1000
0010
0100
,
0001
0000
1000
0000
0010
1000
0100
1000
,
0100
0010
0001
0010
0000
0000
1000
0100
,
0010
0001
0010
0100
1000
0100
0010
0001
,
0010
0100
1000
0100
0000
0001
0100
0010
,
1000
0010
0100
0001
0100
0010
1000
0010
,
0100
0001
0100
0010
0000
0000
2002
3003
,
1000
0100
1000
0001
0100
0001
1000
0100
,
1000
0000
0000
0100
0000
0000
1000
0000
0000
0000
0000
0000
1001
0000
0000
0000
,
0101
1100
1010
0011
,
0110
0000
0000
0000
1001
0000
0000
0000
1000
0001
1000
0001
2000
0000
0000
0000
,
0000
0000
0000
0000
0000
0000
0000
0000
0000
0000
0000
0000
0000
0000
0000
0000
0000
0000
0000
0000
3002
0003
0000
0000
0000
0000
0000
0000
0000
0000
0000
0000
,
1000
0100
0010
0001
0100
0010
1000
0100
,
0010
0001
0100
0010
1000
0100
0010
0001
,
0100
1000
0100
0001
0100
1000
0100
0001
,
0010
1000
0010
0001
0010
1000
0010
0001
,
1000
0001
1000
0010
1000
0100
1000
0010
,
0100
0001
0100
0010
1000
0100
0010
0001
,
0100
0001
0100
0010
0100
1000
0100
0010
,
0100
0001
1000
0001
0100
0010
0100
0010
,
1000
0010
0100
0001
0010
0001
1000
0100
,
1000
0100
0010
0100
1000
0100
0010
0100
,
1000
0001
1000
0001
0100
0001
1000
0001
,
0100
0001
0100
0001
0100
0001
0100
0001
,
0100
0010
1000
0010
1000
0010
1000
0010
,
1000
0100
1000
0100
1000
0100
1000
0100
,
1000
0001
0010
0001
0010
0001
0010
0001
,
0020
0000
0000
0000
0200
0000
0000
0330
,
1000
0001
0010
0001
0100
0000
0110
0000
,
0100
0000
0010
0100
0000
1010
0000
0001
,
0100
0001
0100
0000
0010
1000
0001
0100
,
0100
0000
0001
0010
0000
0000
1100
0000
,
1100
0000
0011
0000
0011
0000
0010
0001
,
0010
0001
1000
0100
2000
3000
0000
0000
,
0101
0000
1000
0000
0001
1000
0100
1000
,
0020
0000
0200
0330
,
1001
0000
1000
0000
0001
0100
0001
0100
,
0001
0000
0100
0010
0000
1000
0000
1000
,
0100
0000
1100
0000
0000
0001
0010
0100
,
2000
0000
0002
3003
,
0001
0100
0010
1000
0010
1000
0000
0000
,
1000
0010
0100
0000
0001
0100
0000
0000
,
0001
0000
0000
0000
1000
0000
0100
0000
1000
0000
0000
0000
0001
0100
0001
0100
;
#NOTES:
     dance-single:
     Phantom:
     Beginner:
     3:
     0.174,0.268,0.180,0.066,0.008:
0000
0000
0000
0000
,
1000
0000
0000
0000
,
0100
0000
0000
0000
,
0010
0000
0000
0000
,
0001
0000
0000
0000
,
0100
0000
0000
0000
,
0010
0000
0000
0000
,
1000
0000
0000
0000
,
0001
0000
0000
0000
,
1001
0000
1000
0000
,
0001
0000
1000
0000
,
0001
0000
0100
0000
,
0010
0000
1001
0000
,
2002
3003
0000
1000
,
1000
0001
0001
0100
,
0100
0010
0010
0100
,
0100
0001
1000
0001
,
1001
0000
1000
0000
,
0001
0000
1000
0000
,
0001
0000
1001
0000
,
0100
0000
0010
0000
,
0100
0000
0010
0000
,
1001
0000
0110
0000
,
1000
0000
0100
0000
,
0100
0000
0100
0000
,
1000
0000
1000
0000
,
1000
0000
0001
0000
,
0100
0000
0001
0000
,
0100
0000
0001
0000
,
0001
0000
1000
0000
,
1000
0000
0010
0000
,
0010
0000
0100
0000
,
0100
0000
0000
0000
,
0101
0000
0000
0000
,
0101
0000
0000
0000
,
1010
0000
0000
0000
,
1010
0000
0000
0000
,
1100
0000
0000
0000
,
1100
0000
0000
0000
,
0011
0000
0000
0000
,
0011
0000
0000
0000
0000
0000
0000
0000
2MM2
0MM0
0MM0
0MM0
0MM0
0000
0000
0000
,
0000
0000
0000
0000
0000
3MM3
0000
0000
,
0000
0000
0000
0000
,
1000
0000
0000
0000
,
0001
0000
0000
0000
,
0100
0000
0000
0000
,
0010
0000
0000
0000
,
1000
0000
0001
0000
,
1000
0000
0001
0000
,
0220
0000
0330
0000
,
1000
0000
0100
0000
,
1000
0000
0000
0000
,
0100
0000
0001
0000
,
0100
0000
0000
0000
,
0001
0000
1000
0000
,
0001
0000
0000
0000
,
0100
0000
0010
0000
,
0220
0000
0330
0000
,
1000
0000
0001
0000
,
1001
0000
0000
0000
,
0110
0000
0000
0000
,
1001
0000
0000
0000
,
0110
0000
0100
0000
,
0010
0000
0100
0000
,
0010
0000
1000
0000
,
0001
0000
1000
0000
,
0001
0000
1000
0000
,
0001
0000
0010
0000
,
0100
0000
1000
0000
,
0100
0000
0010
0000
,
0001
0000
0010
0000
,
0001
0000
1000
0000
,
0010
0000
0100
0100
;
#NOTES:
     dance-single:
     Phantom:
     Easy:
     7:
     0.388,0.388,0.074,0.057,0.000:
0000
0000
0000
0000
,
1000
0100
0010
0001
,
0010
0100
1000
0100
,
0010
0001
0010
0100
,
1000
0010
0100
0001
,
0100
0010
1000
0010
,
0100
0001
0100
0010
,
1000
0010
0100
0001
,
0100
0010
1000
0010
,
1001
0000
0000
0000
1000
0100
1000
0000
,
0001
0010
0001
0000
0100
0001
0100
0000
,
0010
1000
0010
0000
1000
0100
0010
0000
,
0001
0100
0010
0000
1010
0000
0000
0000
,
0202
0303
0000
1000
,
1000
0001
0001
0100
,
0100
0010
0010
0100
,
0100
0001
1000
0001
,
1001
0000
1000
0000
,
0001
1000
0001
0000
1000
0000
0000
0000
,
0100
0010
0100
0000
0010
0000
0000
0000
,
0010
0100
0010
0000
0100
0000
0000
0000
,
1000
0100
1000
0000
0100
0000
0000
0000
,
0001
0100
0001
0000
0100
0000
0000
0000
,
0001
0100
0010
0000
1000
0000
0000
0000
,
1000
0100
0010
0000
0001
0000
0000
0000
,
1000
1000
0010
0010
,
0100
0001
0100
0001
0100
0000
0001
0000
,
0000
1000
0001
1000
,
0100
1000
0100
1000
0100
0000
0010
0000
,
0000
0100
0010
0100
,
0010
0100
0010
0100
0000
0000
1000
0000
,
0100
0000
1000
0000
0100
0010
0001
0000
,
0100
0000
0001
0000
0100
0010
1000
0000
,
0001
0000
1000
0001
1000
0000
0100
0010
,
0100
0000
0001
1000
0000
0000
1000
0001
,
0100
0000
0001
1000
0100
0000
0100
0000
,
0100
0000
1000
0010
0000
0000
1000
0000
,
0001
0100
1000
0000
1000
0100
0001
0000
,
0001
0000
1000
0100
0000
0000
1000
0000
,
1000
0100
0001
0000
0001
0100
1000
0000
,
0001
0000
1000
0000
1100
1001
0201
0000
,
0000
0000
0000
0000
0000
0301
0000
0000
,
0001
0000
0100
0000
0010
1000
0010
0000
,
1000
0000
0001
0000
1000
0100
0000
0000
,
0100
0010
0100
0000
0100
1000
0000
0000
,
0100
0000
1000
0000
0100
1000
0100
0000
,
1000
0000
0001
0000
1000
0001
0100
0000
,
0000
0000
0001
0100
0000
0010
1000
0000
,
0010
1000
0010
0000
0100
0000
0001
0000
,
0002
0000
0020
0033
,
0010
0100
1000
0000
0100
0000
0010
0000
,
0001
0100
0010
0000
0100
0000
0010
0000
,
1000
0100
0010
0000
0100
0000
0100
0000
,
1100
0100
0010
0001
,
1000
0001
1000
0000
0100
0000
0010
0000
,
0100
0010
0100
0000
1000
0000
0100
0000
,
1000
0000
0010
0100
0001
0100
0010
0000
,
2000
0000
0000
0000
0200
0000
0000
3300
,
1100
0100
0010
0000
,
1000
0000
0010
0000
0100
0010
0000
1000
,
0001
0000
0100
0000
0001
1000
0000
0000
,
0010
0000
1000
0000
0100
1000
0000
0000
,
1000
0000
0010
0000
1000
0010
0000
0000
,
0100
0001
0100
0001
,
0100
0010
1000
0010
,
1000
0100
1000
0100
,
1000
0001
0010
0001
,
0010
0100
1000
0100
,
0010
0001
1000
0100
,
0010
0001
1000
0100
,
0010
0001
1000
0001
,
1000
0100
0010
0001
1000
0100
0010
0001
,
1000
0100
0010
0001
0100
0010
1000
1000
;
#NOTES:
     dance-single:
     Phantom:
     Hard:
     12:
     0.686,0.807,0.393,0.229,0.328:
0000
0000
0000
0000
,
1000
0100
0010
0001
0100
0010
1000
0100
,
0001
0100
1000
0100
0010
0001
0100
0010
,
1000
0010
0001
0010
0100
0001
1000
0100
,
0010
0001
1000
0010
0100
0001
1000
0100
,
0010
0100
1000
0010
0100
0001
0100
0010
,
0100
0001
1000
0100
0010
0001
0100
1000
,
0100
0001
0100
1000
0100
0010
0001
0010
,
1000
0010
0001
0010
1000
0100
0010
0001
,
0100
0010
1000
0100
1000
0100
1000
0001
,
0100
0010
1000
0010
0001
0010
0100
0001
,
1000
0100
0010
0001
1000
0010
0100
1000
,
0001
0010
0100
1000
0001
0010
1000
0001
,
2MM2
0MM0
0MM0
0M00
0M20
0M00
3M33
0000
1000
0001
0200
0300
0001
1000
0200
0300
,
0000
1000
0100
0010
0002
0000
1003
0000
0001
0000
0100
0010
1000
0001
0200
0300
,
0000
0001
0100
0100
0010
0200
0300
0000
0010
1000
0001
0100
0010
1000
0200
0300
,
0000
1000
0100
0010
0001
1000
0100
0010
0002
0003
0010
0100
1000
0001
1000
0000
,
1001
0000
1000
0000
0100
0000
0010
0001
0010
0000
0001
0000
0001
0000
0000
0000
,
0000
0000
0001
0000
0100
0000
0000
0000
0100
0000
0010
0000
1000
0010
1000
0010
,
1000
0010
0100
0001
0000
0010
0100
1000
,
0100
0000
0000
0000
0110
0000
0000
0000
0001
0000
0010
0000
0001
0010
0001
0010
,
0001
1000
0100
0010
0001
1000
0010
1000
,
0010
0001
0010
0001
0001
0010
1000
1000
,
0000
0100
0010
0010
0001
1000
0001
0200
,
0300
0000
0010
0000
0100
0000
0000
0000
0001
0000
1000
0000
0001
1000
0001
1000
,
0001
0000
0100
0010
1000
0000
0001
0100
,
0000
0000
0010
0000
1000
0000
1000
0000
0010
0000
0000
0000
0100
0010
0100
0010
,
0100
0001
0100
1000
0100
0000
0001
0010
,
0000
0000
0100
1000
0001
1000
0100
0001
,
0100
1000
0010
0001
0010
0000
1000
0000
,
0010
0000
1000
0000
0100
0000
0010
0000
0000
0000
0100
0000
0010
0001
0100
0001
,
0100
0001
1000
1000
0100
0010
0010
0001
,
1000
0000
0100
0000
0001
0000
0100
0000
0000
0000
0100
0000
1000
0100
1000
0100
,
0010
0001
0100
1000
0100
0001
0010
0001
,
0100
1000
0100
0101
0000
0001
0100
0010
,
1000
0100
0001
0100
1000
0010
1000
0100
,
0001
0000
0100
0000
1000
0000
1010
0000
0000
0000
0000
0000
M2M2
M0M0
M3M3
0000
,
1000
0100
1000
0001
0100
0001
1000
0100
,
1100
0000
0000
0011
0000
0000
1100
0000
0000
0000
0000
0000
1001
0000
0100
0000
,
0001
1000
1000
0001
0100
0100
0101
0000
,
1010
0000
0000
0000
0101
0000
0000
0000
1001
0011
1001
1010
2200
0000
0000
0000
,
0000
0000
0000
0000
0000
0000
0000
0000
0000
0000
0000
0000
0000
0000
0000
0000
0000
0000
0000
0000
0022
0033
3300
0000
0000
0000
0000
0000
0000
0000
0000
0000
,
1000
0000
0100
0000
0010
0000
0001
0000
0010
0001
0010
0001
0010
0001
0010
0001
,
0010
0000
1000
1100
0000
1100
0000
0000
,
0100
0000
0000
0000
0010
0000
0000
0000
0000
0000
0100
0000
1000
0100
1000
0100
,
1000
0000
0001
0000
0000
0010
0101
0000
,
1011
0000
1101
0000
0001
0100
0010
1000
,
0001
0000
0100
0110
0000
0110
0000
0000
,
1000
0000
0000
0000
0100
0000
0000
0000
0000
0000
0100
0000
0010
0100
0010
0100
,
0010
0000
0100
1000
0100
0001
0010
0000
,
2100
0000
0000
0000
0002
0000
0000
0000
3003
0000
0001
0000
1000
0001
1000
0001
,
1000
0000
0001
1010
0000
1010
0000
0000
,
1000
0000
0000
0000
0001
0000
0000
0000
0000
0000
0100
0000
0001
0100
0001
0100
,
0001
0000
0101
0000
1000
0010
1000
0010
,
1000
0000
0000
0000
1100
0000
0000
0000
0000
0000
0100
0000
0010
0001
0010
0001
,
0010
0000
0001
0011
0000
0011
0000
0000
,
0001
0000
0000
0000
1000
0000
0000
0000
0000
0000
1000
0000
0010
1000
0010
1000
,
0020
0000
0000
0000
0200
0000
0000
0330
,
0001
0100
0010
1000
0100
0010
0001
0100
0010
0000
0000
0000
0110
0000
0000
0000
,
0100
0000
0100
1100
0000
1100
0000
0001
,
0100
0000
0001
0000
0100
0000
0000
0000
0000
0000
1000
0000
0001
0010
0100
0010
,
0100
0000
0010
0001
0000
0000
1100
0000
,
0101
0011
1010
0000
,
1000
0100
0010
0001
0010
0100
1000
0100
0020
0000
0030
0000
0000
0000
0000
0000
,
0101
0000
0000
0000
0001
0000
0000
0000
0000
0000
0100
0000
0010
1000
0010
1000
,
0020
0000
2000
3030
,
0010
0000
0000
0000
1100
0000
0000
0000
0011
0000
0100
0000
0001
1000
0001
1000
,
0001
0000
0100
0110
0000
1010
0000
1010
,
0000
0000
0000
0000
1010
0000
0000
0000
0000
0000
1000
0000
0001
0100
0001
0100
,
0002
0000
2000
3003
,
1000
0100
1000
0100
1000
0100
1000
0100
0010
0001
0010
0001
0010
0001
0010
0001
,
0010
0001
0100
0010
0000
1010
0000
0020
,
0000
0030
0000
0000
2000
0000
3000
0000
0000
0000
1000
0000
0001
0100
0001
0100
;
