#TITLE:I'm an Idiot;
#SUBTITLE:;
#ARTIST:Venetian Snares;
#TITLETRANSLIT:;
#SUBTITLETRANSLIT:;
#ARTISTTRANSLIT:;
#CRChallenge:;
#BANNER:idiot-banner.avi;
#BACKGROUND:idiot-bg.png;
#LYRICSPATH:;
#CDTITLE:!cdtitle.png;
#MUSIC:idiot.ogg;
#OFFSET:0.074;
#SAMPLESTART:1.226;
#SAMPLELENGTH:11.920;
#SELECTABLE:YES;
#BPMS:0.000=195.837;
#STOPS:0.000=0.100
;
#BGCHANGES:;
#NOTES:
     dance-single:
     WinDEU:
     Challenge:
     100:
     1.000,1.000,0.574,1.000,1.000:
1000
0000
0100
0000
0010
0000
0010
0000
0001
1000
0010
0100
0010
0000
1000
0000
,
1000
0000
0100
1000
00MM
0000
0010
0100
0001
1000
0100
0000
1000
0001
1000
0001
,
1000
0000
0001
0000
0001
0000
0100
0001
0000
1000
0200
0000
2000
0000
0011
0000
,
3300
0000
0000
0000
1000
0000
0000
0000
0001
0000
0000
0000
0100
0001
0100
0000
0001
0000
0000
0000
0001
0000
0000
0000
1000
0000
0000
0000
0001
0000
0100
0000
,
0020
0000
1030
0100
0000
0010
0001
1000
0001
1000
0001
1000
0000
1001
0000
0002
,
0000
0013
0100
0010
0100
0010
0100
0000
1000
0000
0010
0100
0000
0001
2000
3100
,
0020
0000
0031
0100
0001
1000
0000
1100
0000
0100
0010
0001
1000
0020
0130
0000
,
0001
0000
0000
0100
0000
0000
0001
0000
0000
1000
0000
0000
0001
0000
0000
0100
0000
0000
0001
0000
0000
2000
0000
0000
0000
0000
0000
0000
3200
0000
0000
0000
0000
0000
0000
0320
0000
0000
0000
0000
0000
0000
0032
0000
0000
0000
0000
0000
,
0000
0103
0010
0000
1000
0010
0000
0100
0001
1000
0100
1000
0100
0000
0100
0000
,
0010
0000
0001
0000
0000
0000
0100
0000
0010
0000
0000
1000
0000
0000
0010
0000
1000
0000
0200
0000
0310
0000
0000
0000
0010
0000
0000
0000
0001
0000
0100
0000
,
0001
0000
1000
0100
0020
0032
0203
0320
1030
0M1M
1000
0M1M
1000
0100
0010
0001
,
0000
1000
0000
0000
0001
0000
0000
1000
0000
0001
0000
0000
0100
0000
0000
0001
0000
0000
0100
0000
0000
0020
0000
0000
2030
0000
0000
0000
0000
0000
020M
0000
0000
0000
0000
0000
00M0
0000
0000
0000
0000
0000
0011
0000
0000
0000
0000
0000
,
3300
0000
1100
0000
1001
0000
0101
0000
0220
0000
0330
0000
0010
1000
0010
0000
,
0100
0000
0100
0000
0001
0000
1000
0000
0001
0000
1000
0100
0010
0001
0100
0010
,
1000
0000
0000
0010
0000
0000
1000
0000
0000
0010
0000
0000
2000
0000
0000
3001
0000
0000
0000
0000
0000
0010
0000
0000
0100
0000
0000
0010
0000
0000
0100
0000
0000
1000
0000
0000
0001
0000
0000
0100
0000
0000
0001
0000
0100
0000
0001
0000
,
0100
0000
0000
0000
0000
0000
0000
0000
0000
0000
0000
0000
0010
0000
0000
0000
0000
0000
0000
0000
0000
0000
0000
0000
0000
0000
0000
0000
0000
0000
0000
0000
1000
0000
0000
0000
0000
0000
0000
0000
0000
0000
0000
0000
0000
0000
0000
0000
0010
0000
0000
0000
0000
0000
0000
0000
0000
0000
0000
0000
1000
0000
0000
0000
0000
0000
0000
0000
0000
0000
0000
0000
0100
0000
0000
0000
0000
0000
0000
0000
0000
0000
0000
0000
1000
0000
0000
0000
0000
0000
0000
0000
0000
0000
0000
0000
0000
0000
0000
0000
0000
0000
0001
0000
0000
0000
0000
0000
1000
0000
0000
0000
0000
0000
0000
0000
0000
0000
0000
0000
0001
0000
0000
0000
0000
0000
0000
0000
0000
0000
0000
0000
0000
0000
0000
0000
0000
0000
0000
0000
0000
0000
0000
0000
0100
0000
0000
0000
0000
0000
0000
0000
0000
0000
0000
0000
0000
0000
0000
0000
0000
0000
0000
0000
0000
0000
0000
0000
0001
0000
0000
0000
0000
0000
0000
0000
0000
0000
0000
0000
0000
0000
0000
0000
0000
0000
0000
0000
0000
0000
0000
0000
,
0100
0000
0000
0010
0000
0000
1000
0000
0001
0000
0000
0000
0010
0000
0000
0000
0100
0000
0010
0000
0001
0000
1000
0000
0000
0000
0001
0000
0000
0000
1000
0001
,
1000
0001
1000
0100
1000
0100
1000
0000
0001
0100
0001
0000
2000
3010
0000
0100
,
0001
0000
0100
0000
0000
0000
0001
0000
0000
0000
1000
0000
0100
0000
0010
0000
0001
0000
1000
0000
0000
0010
0000
0000
0100
0000
0000
0001
0000
0000
0100
0000
,
0000
0001
0000
0000
1000
0000
0000
0000
0100
0000
0000
0000
1000
0000
0000
0000
0100
0000
0000
1000
0000
0000
0100
0000
0010
0000
0000
0000
0001
0000
0000
MM00
,
0000
0001
1000
0001
0000
0200
0000
0000
0320
0000
0000
1030
0200
0000
2000
0000
,
0011
0000
3300
0000
1100
0000
0001
0000
0100
0001
0100
0000
0001
1000
0001
1000
,
0100
1000
0100
2000
0000
0000
3001
0000
1001
0000
0MM0
M00M
0020
0000
0000
0000
,
0130
0001
0000
0000
1000
0100
0010
0100
2000
0000
3001
0100
0010
0100
0001
1000
,
0001
1000
0001
1000
0001
0000
0MM0
M00M
0200
0000
0000
0000
0310
1000
0100
0010
,
0001
0010
0100
1000
0000
0001
0100
0020
0000
1030
0001
0010
0001
1000
0100
0010
,
0001
MM00
00MM
0000
2000
0000
0000
0000
3001
0100
0010
2000
0000
3002
0000
0023
,
0130
0000
1000
0000
0001
0000
0000
0000
1000
0001
0000
1000
0001
0000
0000
1000
0000
0000
0001
0000
0000
1000
0000
0001
0000
0100
0000
0001
0000
0100
0001
0000
,
0200
0000
0302
0000
1003
0100
0010
0000
0002
0000
0103
0000
0010
1000
0010
0000
,
0100
0002
1003
0000
0100
0000
0010
0000
0002
0000
1003
0000
0010
0100
0010
0100
,
0010
0000
0100
0000
0002
0000
0000
0000
1003
0000
0000
0000
0001
1000
0001
0000
1000
0000
0000
0000
0010
0000
0000
0000
2000
0000
3200
0000
0320
0000
0032
0000
,
1003
0000
0000
0000
0000
0000
0000
0000
0000
0000
0000
0000
0000
0000
0000
0000
0000
0000
0000
0000
0000
0000
0000
0000
0020
0000
0000
0000
0000
0000
0000
0000
0000
0000
0000
0000
0000
0000
0000
0000
0000
0000
0000
0000
0000
0000
0000
0000
0130
0000
0000
0000
0000
0000
0000
0000
0000
0000
0000
0000
0000
0000
0000
0000
0000
0000
0000
0000
0000
0000
0000
0000
0010
0000
0000
0000
0000
0000
0100
0000
0000
0000
0000
0000
0010
0000
0000
0000
0000
0000
0000
0000
0000
0000
0000
0000
0200
0000
0000
0000
0000
0000
0000
0000
0000
0000
0000
0000
0000
0000
0000
0000
0000
0000
0000
0000
0000
0000
0000
0000
0000
0000
0000
0000
0302
0000
0000
0000
0000
0000
0000
0000
0000
0000
0000
0000
0000
0000
0000
0000
0000
0000
0000
0000
0000
0000
0000
0000
0000
0000
0000
0000
0023
0000
0000
0000
0000
0000
0000
0000
0000
0000
0000
0000
0000
0000
0000
0000
0000
0000
0000
0000
0000
0000
0000
0000
0000
0000
0000
0000
0230
0000
0000
0000
0000
0000
0000
0000
0000
0000
0000
0000
,
0000
0000
0000
0000
0000
0000
0000
0000
0000
0000
0000
0000
0000
0000
0000
0000
0000
0000
0000
0000
0000
0000
0000
0000
0000
0000
0000
0000
2300
0000
0000
0000
0000
0000
0000
0000
0000
0000
0000
0000
0000
0000
0000
0000
0000
0000
0000
0000
0000
0000
0000
0000
0000
0000
0000
0000
0000
0000
0000
0000
0000
0000
0000
0000
0000
0000
3002
0000
0000
0000
0000
0000
0000
0000
0000
0000
0000
0000
0000
0000
0000
0000
0000
0000
0000
0000
0000
0000
0000
0000
0000
0000
0000
0000
0000
0000
0000
0000
0000
0000
0000
0000
0000
0000
0000
0203
0000
0000
0000
0000
0000
0000
0000
0000
0000
0000
0000
0000
0000
0000
0000
0000
0000
0000
0000
0000
0000
0000
0000
0000
0000
0000
0000
0000
0000
0000
0000
0000
0000
0000
0000
0000
0000
0000
0300
0000
0000
0000
0000
0000
0000
0000
0000
0000
0000
0000
M0MM
0000
0000
0000
0000
0000
0000
0000
0000
0000
0000
0000
0M00
0000
0000
0000
0000
0000
0000
0000
0000
0000
0000
0000
0002
0000
0000
0000
0000
0000
0000
0000
0000
0000
0000
0000
,
0000
0000
0000
0000
0000
0000
0000
0000
0000
0000
0000
0000
0000
0000
0000
0000
0000
0000
1000
0000
0000
0000
0000
1000
0000
0000
0000
0000
0000
0000
0000
0000
0000
0000
0000
0000
0000
0000
0000
0000
0000
0100
0000
0000
0000
0000
0100
0000
,
0000
0000
0000
0000
0100
0000
0003
0000
0000
0000
0000
0000
M000
00M0
0M00
000M
M000
0M00
00M0
000M
M000
00M0
0M00
000M
M000
00M0
0M00
000M
M000
0M00
000M
00M0
M000
00M0
000M
0M00
00M0
0000
0000
0000
0000
0000
0000
0000
0000
0000
0000
0000
,
1100
0000
0000
0000
1100
0000
0000
0000
0101
0000
0000
0000
0101
0000
0000
0000
1001
0000
0000
1001
0000
0000
0001
0000
0000
0100
0000
0000
0001
0000
0000
0000
,
1000
0000
0100
0000
0010
0000
0001
1000
0001
1000
0001
1000
0010
0000
0010
0100
,
0000
0000
0000
0000
0101
0000
0000
0000
0101
0000
0000
0101
0000
0000
0001
0000
0000
1000
0000
0000
0100
0000
0000
0000
0010
0000
0000
0000
0001
0000
MM00
0000
,
0001
1000
0020
0230
0302
2003
3200
0320
0031
0000
0001
1000
0000
0000
1100
0000
,
1100
0000
0000
1100
0000
0000
0100
0000
0000
1000
0000
0000
0001
0000
0000
0000
1000
0000
0MM0
0000
2000
0000
0000
0000
3200
0000
0000
0320
0000
0000
0032
0000
,
0000
0000
1003
0001
1000
0000
0000
0000
0001
0000
0000
0000
0001
0000
0100
0000
0000
0000
0000
0000
0101
0000
0000
0000
0101
0000
0000
0101
0000
0000
0001
0000
,
0000
1000
0000
0000
0100
0000
0000
0000
1000
0100
0000
0000
0010
0000
0000
0001
1000
0000
0010
0000
0000
0100
0000
0000
0010
0000
0000
2000
0000
0000
3000
0000
,
0001
0000
1000
0000
0001
0000
1000
0000
0001
0000
1000
0000
0001
0000
1000
0000
0001
0000
1000
0000
0002
0000
0000
0023
0000
0000
0230
0000
0000
2300
0000
0000
,
0000
0000
0000
0010
3000
0000
0100
0000
0000
0010
0000
0000
0100
0000
0000
0000
0010
0000
0000
0000
M00M
0000
0000
0000
1001
0000
0000
0000
1001
0000
0000
1001
,
0000
0000
0000
0000
0001
0000
0000
0000
1000
0000
0000
0000
0100
0000
0000
0000
0010
0000
0000
0000
0001
0000
0000
0000
1000
0000
0000
0000
0010
0000
0000
0000
0200
0000
0000
0000
0000
0000
0320
0000
0000
0000
0000
0000
0030
0000
2000
0000
0000
0000
0000
0000
0000
0000
3001
0000
1000
0000
0000
0000
0001
0000
0000
1000
,
0000
0000
0001
0000
0000
1000
0000
0000
0001
0000
0000
1000
0000
0000
0001
0000
0000
1000
0000
0000
0001
0000
0000
0000
0100
0000
0000
0000
0010
0000
0000
0000
1000
0000
0000
0000
0000
0000
0000
0000
1010
0000
0000
0000
0000
0000
1010
0000
0000
0000
0000
0000
0010
0000
0000
0000
1000
0000
0000
0000
0001
0000
0000
0000
,
0010
0000
0100
0000
1000
0000
0100
0000
0010
0000
0001
0000
1000
0000
0010
0000
0100
0000
0001
1000
0000
0001
1000
0000
0002
0000
0000
0100
0000
0000
0103
0000
,
0000
0010
1000
0000
0010
1000
0000
0000
0002
0000
0000
0000
0000
0000
0000
0000
0000
0000
0000
0000
0000
0000
0000
0000
0000
0000
0000
0000
0000
0000
0000
0000
,
0003
0000
0000
0000
1001
0000
1000
0001
1000
0001
1000
0000
0100
0000
0010
0001
,
0010
0001
1000
0001
1000
0001
2000
3020
0130
0001
0100
0000
0001
1000
0100
0000
,
0010
0000
0000
0001
0000
0000
0010
0000
0000
0001
0000
0000
0010
0000
0001
0000
1000
0000
0010
0000
0100
0000
0010
0000
0100
0000
0020
0000
0000
0000
0000
0000
,
0130
0000
0001
0000
0100
0000
0001
0000
1000
0000
0100
0000
1000
0000
0100
0000
1000
0000
0100
0000
1000
0000
0000
0000
0001
0000
0000
0100
0000
0000
0010
0000
,
0000
1000
0000
0000
0100
0000
0010
0000
0100
0000
0000
0000
0010
0000
0001
0000
0000
0000
1000
0000
0010
0000
0000
0000
0100
0000
0001
0000
0100
0000
0001
0000
,
1000
0000
0000
0000
0001
0000
0000
0000
0000
0000
0000
0000
0000
0000
1000
0000
0100
0000
0000
0000
0000
0000
0000
0000
0020
0000
0000
0000
0000
0000
0000
0000
0031
0000
0000
0000
0000
0000
1000
0000
0000
0000
0000
0000
0001
0000
0000
1000
0000
0000
0001
0000
0000
1000
0000
0000
0001
0000
0000
1000
0000
0000
0001
0000
,
0000
2000
0000
0000
0000
0000
0000
0000
0000
0000
0000
0000
3010
0000
0000
0000
0000
0000
0000
0000
0000
0100
0000
0000
0001
0000
0000
0000
0000
0000
0000
0000
1000
0000
0000
0000
0100
0000
0000
0000
1000
0000
0002
0000
0000
0000
0000
0000
1003
0000
0000
0000
0000
0000
0000
0000
0001
0000
1000
0000
0001
0000
1000
0000
,
0001
0000
0010
0000
0100
0000
0000
0000
1000
0000
0000
0001
0000
0000
1000
0000
0010
0000
0100
0000
0000
0000
0101
0000
0000
0000
0101
0000
0000
0000
0001
0000
,
0000
1000
0100
0010
0001
0010
0000
0001
0000
0100
0010
1000
0010
1000
0010
0100
,
0001
0000
0000
0000
1001
0000
0000
0000
1000
0000
0000
0100
0000
0000
1000
0000
0000
0100
0000
0000
1000
0000
0002
0000
0000
0000
0103
0000
0010
0000
1000
0000
,
0010
1000
0001
0010
0100
0010
0001
1000
0001
1000
0002
0000
1003
0000
0010
1000
,
0000
0010
0000
0100
0001
0100
0001
0100
0000
0001
1000
0100
0010
0001
0000
1000
,
0010
0100
0000
0001
0000
0101
0000
0002
1003
0000
0100
0000
0010
0000
0001
0000
,
0000
0011
0000
0000
0000
0000
0000
0000
1001
0000
0000
0000
1000
0000
0000
0001
0000
0000
1000
0000
0000
0001
0000
0000
2000
0000
0000
0000
0000
0000
3200
0000
0000
0000
0000
0000
0310
0000
0000
0001
0000
0000
MM00
0000
0000
0000
0000
0000
,
0001
0000
0000
0000
0000
0000
0000
0000
0000
0000
0000
0000
0200
0000
0000
0000
0000
0000
0000
0000
0000
0000
0000
0000
0000
0000
0000
0000
0000
0000
0000
0000
0000
0000
0000
0000
0000
0000
0000
0000
0000
0000
0000
0000
0000
0000
0000
0000
0310
0000
0000
0000
0000
0000
0000
0000
0000
0000
0000
0000
0000
0000
0000
0000
0000
0000
0000
0000
0000
0000
0000
0000
0000
0000
0000
0000
0000
0000
0000
0000
0000
0000
0000
0000
0000
0000
0000
0000
0000
0000
0000
0000
0000
0000
0000
0000
2000
0000
0000
0000
0000
0000
0000
0000
0000
0000
0000
0000
0000
0000
0000
0000
0000
0000
0000
0000
0000
0000
0000
0000
0000
0000
0000
0000
3001
0000
0000
0000
0000
0000
0000
0000
0000
0000
0000
0000
0000
0000
0000
0000
0000
0000
0000
0000
1000
0000
0000
0000
0000
0000
0001
0000
0000
0000
0000
0000
1000
0000
0000
0000
0000
0000
0000
0000
0000
0000
0000
0000
0001
0000
0000
0000
0000
0000
0000
0000
0000
0000
0000
0000
0000
0000
0000
0000
0000
0000
0000
0000
0000
0000
0000
0000
,
0100
0001
1000
0000
0100
0000
0010
0000
0001
0000
1000
0001
1000
0001
0100
0000
,
2002
0000
3003
0000
0001
1000
0010
0000
0100
0010
1000
0000
0100
0010
0100
0000
,
2000
0000
3002
0000
0203
0000
0310
1000
0010
1000
0001
0000
2002
0000
3003
0000
,
1001
0000
0000
0000
0000
0000
0000
0000
0000
0000
0000
0000
0000
0000
0000
0000
0000
0000
0000
0000
0000
0000
0000
0000
0000
0000
0000
0000
1000
0000
0000
0000
0000
0000
0000
0000
0000
0000
0000
0000
0000
0000
0000
0000
0000
0000
0000
0000
0001
0000
0000
0000
0000
0000
1000
0000
0000
0000
0000
0000
0001
0000
0000
0000
0000
0000
0000
0000
0000
0000
0000
0000
1000
0000
0000
0000
0000
0000
0000
0000
0000
0000
0000
0000
0000
0000
0000
0000
0000
0000
0000
0000
0000
0000
0000
0000
0010
0000
0000
0000
0000
0000
0000
0000
0000
0000
0000
0000
0100
0000
0000
0000
0000
0000
0000
0000
0000
0000
0000
0000
0001
0000
0000
0000
0000
0000
0000
0000
0000
0000
0000
0000
2000
0000
0000
0000
0000
0000
0000
0000
0000
0000
0000
0000
0000
0000
0000
0000
0000
0000
0000
0000
0000
0000
0000
0000
3000
0000
0000
0100
0000
0000
0000
0000
0000
0000
0000
0000
1000
0000
0000
0000
0000
0000
0000
0000
0000
0000
0000
0000
0000
0000
0000
0000
0000
0000
0000
0000
0000
0000
0000
0000
,
1000
0000
0000
0000
0000
0000
0000
0000
0001
0000
0000
1000
0000
0000
0001
0000
0000
0000
0000
0000
0100
0000
0000
0000
0001
0000
0000
0000
0000
0000
0000
0000
2200
0000
0000
0000
0000
0000
0000
0000
0000
0000
0000
0000
0000
0000
0000
0000
0000
0000
0000
0000
0000
0000
0000
0000
0000
0000
0000
0000
0000
0000
0000
0000
,
0000
0000
0000
3300
,
0001
0000
0100
0010
0100
0010
0100
0001
1000
0200
0000
0310
0001
0000
1000
0000
,
0010
0100
0000
0001
0000
1000
0000
0001
0010
0000
0100
0000
1000
0000
0010
0100
,
0000
0010
0000
1000
0000
0100
0010
0000
0001
0000
0100
0001
0000
2000
3100
0010
,
0000
0001
0000
1000
0020
0000
0030
0000
0101
0000
0000
0000
1001
0000
0000
0000
,
1100
0000
0000
0000
0000
0000
0000
0000
0110
0000
0000
0000
0000
0000
0000
0000
1001
0000
0000
0000
0000
0000
0000
0000
0001
1000
0001
1000
0001
0000
1000
0000
,
0000
0001
1000
0000
0001
0100
0000
0010
2000
0000
0000
0000
3100
0000
0000
0000
,
0110
0000
0000
0000
0011
0000
0000
0000
1001
0000
0001
2000
0000
0000
0000
3010
,
0100
0110
0101
1001
,
1100
0000
0000
1000
0100
0000
0000
0010
0001
0000
0000
0000
1001
0000
0000
0000
;
