#TITLE:I'm Alive;
#SUBTITLE:;
#ARTIST:Emoticon vs Nickelback;
#TITLETRANSLIT:;
#SUBTITLETRANSLIT:;
#ARTISTTRANSLIT:;
#CRChallenge:;
#BANNER:alive.png;
#BACKGROUND:alive-bg.png;
#LYRICSPATH:;
#CDTITLE:;
#MUSIC:alive.ogg;
#OFFSET:0.000;
#SAMPLESTART:21.943;
#SAMPLELENGTH:12.000;
#SELECTABLE:YES;
#BPMS:0.000=175.000;
#STOPS:;
#BGCHANGES:;
#NOTES:
     dance-single:
     Renard:
     Medium:
     9:
     0.664,0.675,0.623,0.133,0.254:
0000
0000
0000
0000
,
0000
0000
0000
0000
,
0000
0000
0000
0000
,
0000
0000
0000
0000
,
1000
0000
0101
0000
0000
0001
0010
0000
,
0100
0000
1100
0000
0000
1000
0010
0000
,
0100
0000
0101
0000
0000
1001
0000
0000
,
1100
0000
0000
0000
0011
0000
0000
0000
1000
0001
1000
0000
0110
0000
0000
0000
,
2000
0000
3001
0100
0010
0000
0010
2000
,
0000
0000
3100
0010
0002
0000
0013
0200
,
0000
0000
0000
0300
1000
0000
0010
0200
,
0000
0000
0000
0300
0001
0100
0010
1000
,
0200
0000
0320
0000
0031
1000
0010
0100
,
0000
0100
0001
0010
0002
0000
1003
0200
,
0000
0000
0000
0300
0010
0000
0001
2000
,
0001
0000
0000
0010
0000
0000
0100
0000
0000
3010
0000
0000
1001
0000
0000
0000
,
1000
0001
0100
0000
0110
0000
0010
1000
,
0000
0101
0000
0001
1000
0100
0010
0001
,
0000
0001
0010
0000
0110
0000
0100
1000
,
0000
0010
0100
0000
0101
0000
0110
0000
,
0010
0100
1000
0100
0010
0100
0001
0010
,
0000
0010
0100
0010
1000
0010
0100
0010
,
0000
0010
0001
0000
0011
0000
0010
0100
,
0000
0010
1000
0000
1010
0000
0110
0000
,
0010
0100
1000
0000
1010
0000
0010
0100
,
0000
0101
0000
0001
0100
1000
0100
0010
,
0000
0010
0100
0001
0010
0100
0010
1000
,
0000
1000
0010
0100
0010
0000
0011
0000
,
0110
0000
0100
1000
0010
0100
0001
0100
,
0000
0001
0100
0000
0110
0000
1000
0100
,
0000
0010
0100
0000
0101
0000
0001
0010
,
0000
1000
0010
0100
0010
0000
1001
0000
,
1000
0000
0001
0000
0100
0000
0000
0010
0000
0000
1000
0000
0000
0100
0000
0000
,
0010
0000
0001
0000
0010
0000
0000
0100
0000
0000
1000
0000
0000
0001
0000
0000
,
0010
0000
0001
0000
1000
0000
0000
0001
0000
0000
0100
0000
0000
0010
0000
0000
,
1000
0000
0010
0000
0100
0000
0000
0001
0000
0000
1000
0000
0000
0100
0000
0000
,
1000
0000
0010
0000
1000
0000
0000
0001
0000
0000
0100
0000
0000
0001
0000
0000
,
1000
0000
0010
0000
1000
0000
0000
0100
0000
0000
0010
0000
0000
0001
0000
0000
,
0010
0000
0100
0000
0010
0000
0000
0100
0000
0000
1000
0000
0000
0010
0000
0000
,
0100
0000
0001
0000
0100
0000
0000
0010
0000
0000
1000
0000
0000
0100
0000
0000
,
0010
0000
0001
0000
0010
0000
0000
0110
0000
0000
1001
0000
0000
0110
0000
0000
,
0001
0000
1000
0000
0010
0000
0000
0110
0000
0000
0101
0000
0000
0110
0000
0000
,
0010
0000
1000
0000
0100
0000
0000
1100
0000
0000
1001
0000
0000
1010
0000
0000
,
1000
0000
0100
0000
0010
0000
0000
0011
0000
0000
0110
0000
0000
0110
0000
0000
,
0100
0000
1000
0000
0010
0000
0000
0110
0000
0000
0101
0000
0000
0101
0000
0000
,
0001
0000
0100
0000
0010
0000
0000
1010
0000
0000
1100
0000
0000
1100
0000
0000
,
1000
0000
0100
0000
0010
0000
0000
0011
0000
0000
0110
0000
0000
0110
0000
0000
,
0100
0000
1000
0000
0010
0000
0000
0100
0000
0000
0001
0000
1001
0000
0000
0000
,
1000
0000
1000
0001
0000
0000
0100
0000
0010
0000
1000
0000
0100
0000
0010
0000
,
0001
0000
0001
1000
0000
0000
0010
0000
0100
0000
0001
0000
0010
0000
0100
0000
,
1000
0000
1000
0001
0000
0000
0100
0000
0010
0000
1000
0000
0100
0000
0010
0000
,
0001
0000
0001
1000
0000
0000
0001
0000
0010
0000
0100
0000
1000
0000
0010
0000
,
0100
0000
0100
0010
0000
0000
1000
0000
0100
0000
0010
0000
0001
0000
0010
0000
,
0100
0000
0100
1000
0000
0000
0010
0000
0100
0000
0001
0000
0010
0000
0001
0000
,
1000
0000
1000
0001
0000
0000
0100
0000
0010
0000
1000
0000
0100
0000
0010
0000
,
0001
0000
0001
1000
0000
0000
0001
0000
0100
0000
0010
0000
1000
0010
1000
0000
,
0010
0000
0000
0101
0000
0000
0100
0000
0010
0000
1000
0000
0100
0000
0010
0000
,
0001
0000
0000
1100
0000
0000
0001
0000
0010
0000
0100
0000
1000
0000
0001
0000
,
0100
0000
0000
1010
0000
0000
0100
0000
0001
0000
0010
0000
0100
0000
1000
0000
,
0001
0000
0000
0101
0000
0000
0001
0000
1000
0000
0100
0000
0010
0000
0001
0000
,
0010
0000
0000
0110
0000
0000
0100
0000
1000
0000
0010
0000
0100
0000
0001
0000
,
1000
0000
0000
1010
0000
0000
1000
0000
0100
0000
0010
0000
0001
0000
0010
0000
,
0001
0000
0000
1001
0000
0000
0001
0000
0100
0000
0010
0000
1000
0000
0100
0000
,
1100
0000
0000
1100
0000
0000
0011
0000
0000
0011
0000
0000
1001
0000
0000
0000
,
2000
0000
0000
3000
0001
0100
0010
2000
,
0000
0000
0000
3000
0100
0000
0010
0002
,
0000
0000
0000
0003
0010
0000
0100
2000
,
0000
0000
0000
3000
0001
0000
0100
0000
,
0010
0000
1000
0000
0100
0010
0001
0010
,
0000
0010
0100
0000
1000
0000
0001
0200
,
0000
0000
0000
0300
0010
0000
1000
0100
,
0010
0000
0000
0001
0000
0000
1100
0000
0000
0110
0000
0000
0011
0000
0000
0000
,
1000
0000
0000
0000
0011
0000
0000
0000
0000
0100
1000
0000
0010
0000
0100
0000
,
0001
0000
0101
0000
0001
1000
0100
0000
,
0010
0000
0001
0010
0000
0011
1100
0000
,
1010
0000
0000
0000
0100
0000
0001
0000
0000
0000
1000
0000
0001
0100
0000
0000
,
0010
0000
1001
1000
0000
0100
0010
0000
,
1001
0000
0000
0000
0010
0000
0100
0000
0000
0000
1000
0000
0001
0100
0000
0000
,
0110
0000
1000
0010
0000
0100
0001
0000
,
0101
0000
0110
0000
0100
1000
0100
0010
;
#NOTES:
     dance-single:
     Renard:
     Hard:
     11:
     0.808,0.888,0.650,0.053,0.498:
0000
0000
0000
0000
,
0000
0000
0000
0000
,
0000
0000
0000
0000
,
0000
0000
0000
0000
,
1000
0000
0000
0000
0101
0000
0000
0001
0000
0010
0100
0000
1000
0000
0000
0000
,
0001
0000
0000
0000
0101
0000
0000
0001
0000
1000
0100
0000
0010
0000
0000
0000
,
0100
0000
0100
0000
1001
0000
0010
0000
0000
0000
0101
0000
1000
0010
1000
0000
,
0001
0100
0001
0000
0011
0000
0000
0000
0010
0000
0100
1000
0100
0000
0000
0000
,
1000
0100
0010
0001
0010
0100
1000
0010
,
0100
0001
0100
1000
0100
0010
0100
0001
,
0010
0001
0010
0100
0010
1000
0010
0100
,
0010
0001
0010
0100
1000
0001
0100
0010
,
1000
0100
0010
0001
0010
0100
1000
0001
,
0100
1000
0100
0010
0100
0001
0100
0001
,
0100
0001
0010
0100
0010
0001
1000
0002
,
1000
0000
0000
0100
0000
0000
0010
0000
0000
0103
0000
0000
1001
0000
0000
0000
,
0001
0001
0100
0100
0010
1000
0100
0010
,
0010
0001
0001
0010
0100
1000
0001
0100
,
0100
0010
0010
1000
0100
0010
0001
0001
,
0010
0100
0100
1000
0010
0100
0001
0100
,
0010
0010
1000
1000
0100
0010
0001
0010
,
0100
1000
1000
0001
0001
0100
0010
1000
,
0100
0100
0010
0010
0001
0010
0100
0100
,
1000
1000
0010
0100
0001
0010
0100
1000
,
0001
0001
0100
0100
0010
1000
0100
0010
,
0010
0001
0001
0010
0100
1000
0001
0100
,
0100
0010
0010
1000
0100
0010
0001
0001
,
0010
0100
0100
1000
0010
0100
0001
0100
,
0010
0010
1000
1000
0100
0010
0001
0010
,
0001
0001
1000
1000
0010
0010
0100
0001
,
0010
0010
0100
0100
1000
1000
0010
0100
,
0100
0001
0010
0100
1000
0000
1001
0000
,
1000
0000
0001
0000
0110
0000
0000
1001
0000
0000
1100
0000
0000
0011
0000
0000
,
0010
0000
0100
0000
1000
0000
0000
0101
0000
0000
0110
0000
0000
0101
0000
0000
,
0001
0000
0100
0000
0010
0000
0000
1010
0000
0000
1001
0000
0000
1100
0000
0000
,
1000
0000
0100
0000
0010
0000
0000
0011
0000
0000
0110
0000
0000
1100
0000
0000
,
0001
0000
0100
0000
0110
0000
0000
1001
0000
0000
0110
0000
0000
1001
0000
0000
,
1000
0000
0100
0000
0010
0000
0000
0011
0000
0000
0110
0000
0000
1100
0000
0000
,
1000
0000
0001
0000
0100
0000
0000
0110
0000
0000
1100
0000
0000
0110
0000
0000
,
0100
0000
0001
0000
0010
0000
0000
0110
0000
0000
1010
0000
0000
0110
0000
0000
,
0010
0000
0001
0000
0011
0000
0000
0110
0000
0000
1100
0000
0000
1001
0000
0000
,
0001
0000
0100
0000
0010
0000
0000
1010
0000
0000
1001
0000
0000
1100
0000
0000
,
1000
0000
0100
0000
0010
0000
0000
0011
0000
0000
0110
0000
0000
1010
0000
0000
,
0010
0000
1000
0000
0010
0000
0000
0110
0000
0000
0011
0000
0000
1001
0000
0000
,
0001
0000
0100
0000
0110
0000
0000
0101
0000
0000
0110
0000
0000
1100
0000
0000
,
1000
0000
0100
0000
0010
0000
0000
1010
0000
0000
1001
0000
0000
1100
0000
0000
,
1000
0000
0100
0000
0010
0000
0000
0011
0000
0000
0110
0000
0000
1010
0000
0000
,
0010
0000
0100
0000
1000
0000
0000
1001
0000
0000
0110
0000
1001
0000
0000
0000
,
0001
0100
0001
1000
0000
0001
0100
0000
0001
0010
0000
0001
1000
0000
0001
0000
,
1000
0100
1000
0010
0000
1000
0001
0000
1000
0100
0000
1000
0010
0000
0100
0000
,
0001
0010
0001
0100
0000
0001
0010
0000
0001
1000
0000
0001
0100
0000
0001
0000
,
1000
0100
1000
0010
0000
1000
0001
0000
1000
0100
0000
1000
0010
0000
0100
0000
,
0001
0000
0001
0100
0000
0100
0010
0000
1000
0000
0100
0000
0010
0000
0001
0000
,
1000
0000
1000
0100
0000
0100
0010
0000
0001
0000
0100
0000
0010
0000
1000
0000
,
0001
0000
0001
1000
0000
1000
0001
0000
0100
0000
0010
0000
1000
0000
0100
0000
,
0010
0000
0010
0001
0000
0001
1000
0000
0010
0000
0100
0000
0001
1000
0001
0000
,
1000
0000
1000
0100
0000
0100
0010
0000
0010
0001
0000
0001
1000
0000
1000
0001
,
0100
0000
0100
0010
0000
0010
1000
0000
1000
0001
0000
0001
0010
0000
0010
0100
,
1000
0000
1000
0001
0000
0001
1000
0000
1000
0010
0000
0010
0100
0000
0100
0001
,
1000
0000
1000
0100
0000
0100
0010
0000
0010
0001
0000
0001
1000
0000
1000
0010
,
0100
0000
0100
0001
0000
0001
1000
0000
1000
0100
1000
0010
0100
0000
0100
0001
,
0010
0000
0010
0001
0000
0001
0100
0000
0100
0010
1000
0100
0010
0000
0010
0001
,
0100
0000
0100
0001
0000
0001
1000
0000
1000
0100
0010
0001
1000
0000
1000
0001
,
0100
0000
0100
0010
0000
0010
1000
0000
0001
0100
0001
0000
1001
0000
0000
0000
,
0002
0000
0000
0003
1000
0010
0100
0002
,
0000
0000
0000
0003
0010
0000
0100
2000
,
0000
0000
0000
3000
0100
0000
0010
0002
,
0000
0000
0000
0003
1000
0000
0010
0000
,
0100
0000
0001
0000
0010
0100
1000
0100
,
0000
0100
0010
0000
0001
0000
1000
0020
,
0000
0000
0000
0030
0100
0000
0001
0010
,
0100
0000
0000
1000
0000
0000
0011
0000
0000
0110
0000
0000
1100
0000
0000
0000
,
0001
0000
0000
0000
1100
0000
0000
0000
0000
0010
0001
0000
0100
0000
0010
0000
,
1000
0000
1010
0000
1000
0001
0010
0000
,
0100
0000
1000
0100
0000
1100
0011
0000
,
0101
0000
0000
0000
0010
0000
1000
0000
0000
0000
0001
0000
1000
0010
0000
0000
,
0100
0000
1001
0001
0000
0010
0100
0000
,
1001
0000
0000
0000
0100
0000
0010
0000
0000
0000
0001
0000
1000
0010
0000
0000
,
0110
0000
0001
0100
0000
0010
1000
0000
,
1010
0000
0110
0000
0010
0001
0010
0100
;
#NOTES:
     dance-single:
     Renard:
     Easy:
     5:
     0.388,0.390,0.018,0.133,0.000:
0000
0000
0000
0000
,
0000
0000
0000
0000
,
0000
0000
0000
0000
,
0000
0000
0000
0000
,
1000
0000
0001
0000
0000
0100
0010
0000
,
1000
0000
0001
0000
0000
0100
0010
0000
,
1000
0000
0000
0001
0000
0000
0100
0000
,
0001
0000
0000
1000
0000
0000
0100
0010
,
0001
0000
0000
0000
2000
0000
0000
3010
,
0000
0000
0000
0000
0200
0000
0000
0301
,
0000
0000
0000
0000
0020
0000
0000
0130
,
0000
0000
1000
0010
,
0100
0000
0000
0000
0001
0000
0000
0010
,
0000
0000
0000
0000
0200
0000
0000
1300
,
0000
0000
0000
0000
0020
0000
0000
0130
,
0000
0000
0000
0100
0000
0000
0100
0000
,
0100
0000
1000
0000
0010
0000
0100
0001
,
0000
1000
0000
0000
0100
0000
1000
0001
,
0000
0000
0010
0000
0001
0000
1000
0010
,
0000
0100
0001
1000
,
0100
0000
0010
0000
0001
1000
0001
0000
,
0100
0000
0010
0000
1000
0000
0000
0001
,
0000
0000
0100
0000
0001
0000
0000
1000
,
0000
0100
0010
0001
,
1000
0000
0001
0000
0100
0000
0100
0010
,
0000
0000
1000
0000
0010
0000
0100
0001
,
0000
0000
1000
0000
0100
0000
0010
0001
,
0000
1000
0001
0100
,
0010
0000
1000
0000
0001
0100
0001
0000
,
1000
0000
0001
0000
1000
0000
0100
0010
,
0000
0000
0001
0000
1000
0000
0001
0100
,
0000
0010
1000
0010
,
0100
0001
1000
1000
,
0100
0010
0001
0001
,
0010
0100
1000
1000
,
0001
0010
0001
0001
,
1000
0100
0010
0010
,
0001
1000
0010
0010
,
0100
0001
1000
1000
,
0100
0010
0001
0001
,
0010
0100
0010
0000
0100
0000
1000
0000
,
0010
0100
0010
0000
0100
0000
0010
0000
,
0100
0001
0100
0000
0001
0000
0010
0000
,
0001
0010
0001
0000
1000
0000
0001
0000
,
0100
0010
0100
0000
0010
0000
1000
0000
,
0001
0100
0001
0000
1000
0000
0100
0000
,
0010
0001
0010
0000
0100
0000
1000
0000
,
0001
0100
0010
1000
,
0001
0000
0100
0000
0010
0000
1000
0010
,
1000
0001
0100
0001
,
1000
0000
0100
0000
0010
0000
0001
1000
,
0001
0100
0010
1000
,
0100
0000
0010
0000
0001
0000
1000
0001
,
1000
0001
0100
0010
,
1000
0000
0100
0000
0010
0000
0001
1000
,
0001
0100
0001
2000
,
3001
0000
0100
0000
0010
0000
1000
0010
,
1000
0001
0100
0001
,
1000
0000
0100
0000
1000
0000
0001
0010
,
0001
1000
0010
0100
,
0001
0000
1000
0000
0100
0000
0010
0100
,
0010
0001
1000
0010
,
0100
0000
0001
0000
1000
0000
0100
1000
,
0100
1000
0001
0100
,
0010
0000
0000
0000
2000
0000
0000
3100
,
0000
0000
0000
0000
0020
0000
0000
0031
,
0000
0000
0000
0000
2000
0000
0000
3010
,
0000
0000
0200
0000
,
0302
0000
0023
0000
,
0230
0000
0000
0000
2300
0000
0000
3010
,
0000
0000
0000
0000
0200
0000
0000
0301
,
0000
0000
0000
1001
,
1000
0000
0100
0000
0000
1000
0001
0000
,
0100
0000
0001
0000
0000
0010
0001
0000
,
1000
0000
0001
0000
0000
0100
0010
0000
,
1000
0001
0100
0110
,
0010
0000
1000
0000
0000
0001
0100
0000
,
0001
0000
1000
0000
0000
0100
0010
0000
,
0001
0000
1000
0000
0000
0001
0100
0000
,
0001
1000
0100
0010
;
#NOTES:
     dance-single:
     Renard:
     Beginner:
     3:
     0.338,0.319,0.000,0.427,0.000:
0000
0000
0000
0000
,
0000
0000
0000
0000
,
0000
0000
0000
0000
,
0000
0000
0000
0000
,
1000
0001
1000
0000
,
0010
0100
0010
0000
,
1000
0001
0000
1000
,
0000
0001
0100
0010
,
2000
0000
3002
0000
,
0203
0000
0320
0000
,
2030
0000
3200
0000
,
0320
0000
0032
0000
,
2003
0000
3002
0000
,
0203
0000
0320
0000
,
2030
0000
3002
0000
,
0100
0100
0100
0103
,
0100
0001
0100
0001
,
1000
0100
1000
0100
,
0010
0001
0010
0000
,
0001
0010
0001
0000
,
1000
0010
1000
0010
,
0100
0001
0100
0001
,
1000
0100
1000
0000
,
0001
0010
0001
0000
,
1000
0001
1000
0001
,
0100
0010
0100
0010
,
1000
0010
1000
0000
,
0001
0100
0001
0000
,
1000
0100
1000
0000
,
0001
0000
0010
0000
,
0001
1000
0001
0000
,
0100
0001
1000
0001
,
0020
0000
0130
1000
,
0020
0000
0130
1000
,
0020
0000
0000
0030
,
0020
0000
0000
0030
,
0200
0000
0301
0010
,
0200
0000
0301
0010
,
0200
0000
0301
0010
,
0100
0000
0100
0000
,
1000
0100
0020
0000
,
0031
0010
0200
0000
,
1300
0100
0010
0100
,
1000
0100
0010
0000
,
0001
0010
0200
0000
,
0310
0001
0020
0000
,
0130
1000
0001
0000
,
0100
0001
1000
0100
,
2000
0000
3002
0000
,
0103
0010
1000
0100
,
0020
0000
0032
0000
,
1003
0001
1000
0001
,
0200
0000
0320
0000
,
1030
0001
0100
0010
,
2000
0000
3002
0000
,
0013
0100
0010
0100
,
2000
0000
3002
0000
,
0103
0001
1000
0100
,
0020
0000
0032
0000
,
1003
0001
0100
0010
,
2000
0000
3002
0000
,
0013
0100
1000
0001
,
0200
0000
0302
0000
,
1003
0100
0010
0001
,
1000
0000
0002
0000
,
0103
0000
0020
0000
,
1030
0000
0200
0000
,
0310
0000
0002
0000
,
1003
0000
0002
0000
,
0103
0000
0020
0000
,
1030
0000
0200
0000
,
0310
0000
0001
0000
,
1000
0001
0000
0001
,
0100
0010
0000
0010
,
1000
0100
0000
0100
,
0010
0001
0000
0001
,
1000
0001
0000
0001
,
0100
0010
0000
0010
,
1000
0010
0000
0010
,
0100
0001
1000
0100
;
