#TITLE:I Think in a Minute or So I'll Explode;
#SUBTITLE:;
#ARTIST:The Flashbulb;
#TITLETRANSLIT:;
#SUBTITLETRANSLIT:;
#ARTISTTRANSLIT:;
#CRChallenge:;
#BANNER:explode.png;
#BACKGROUND:explode-bg.png;
#LYRICSPATH:;
#CDTITLE:!cdtitle.png;
#MUSIC:explode.ogg;
#OFFSET:0.000;
#SAMPLESTART:64.932;
#SAMPLELENGTH:11.980;
#SELECTABLE:YES;
#BPMS:0.000=155.000;
#STOPS:;
#BGCHANGES:;
#NOTES:
     dance-single:
     Renard:
     Hard:
     10:
     0.834,0.806,0.310,0.118,0.679:
0000
0000
0000
0000
,
0000
0000
0000
0000
,
2000
0000
3200
0000
,
0320
0000
0032
0000
,
0203
0000
0320
0000
,
2030
0000
3200
0000
,
0310
0001
0100
0000
0010
1000
0100
0000
,
0010
0001
0100
0000
0010
1000
0100
0000
,
0010
0100
1000
0000
0001
0010
0100
0000
,
0100
0010
0001
0000
1000
0100
0010
0000
,
0001
0000
1000
0100
1000
0000
0001
0100
0001
0000
1000
0100
1000
0000
0001
0100
,
0001
0000
1000
0010
1000
0000
0001
0010
0001
0000
1000
0100
1000
0000
0001
0100
,
0001
0000
1000
0100
1000
0000
0001
0010
0001
0000
1000
0010
1000
0000
0001
0100
,
0001
0000
1000
0100
1000
0000
0001
0010
0001
0000
1000
0010
1000
0000
0001
0100
,
0010
0000
1000
0100
0010
0000
0001
0010
0100
0000
1000
0001
0100
0000
0010
1000
,
0100
0000
0010
0001
0010
0000
0100
1000
0100
0000
1000
0001
0100
0000
0001
1000
,
0100
0000
1000
0100
1000
0000
0001
0100
0001
0000
1000
0010
1000
0000
0001
0010
,
0001
0000
1000
0100
0010
0000
0001
0010
0100
0000
1000
0100
0010
0000
0001
0010
,
0100
1000
0010
0000
0100
0001
0010
0000
,
0001
1000
0100
0000
1000
0001
0100
0000
,
0001
1000
0010
0000
1000
0001
0010
0000
,
0100
1000
0001
0100
0010
1000
0100
0010
,
0001
0000
1000
0100
1000
0000
0001
0100
0001
0000
1000
0010
1000
0000
0001
0010
,
0001
0000
1000
0100
0010
0000
0001
0010
0100
0000
1000
0010
0100
0000
0001
0000
,
0101
0101
0000
0110
0110
0000
1010
0000
,
1100
0000
0000
1100
0000
0000
0010
0000
0101
0000
0000
0001
0100
0000
0000
0000
,
0010
0000
0000
0010
1000
0000
0010
0000
0100
0001
0100
0001
0100
0000
0001
1000
,
0100
0000
1000
0100
1000
0000
0001
0000
0010
0100
1000
0000
1000
0000
0001
0000
,
0100
0000
0000
0100
0001
0000
1000
0000
0100
0010
0001
0010
0100
0000
1000
0000
,
0100
0000
0000
0100
1000
0000
0100
0000
0010
0000
0001
1000
0001
0000
1000
0000
,
0001
0000
0100
0000
0010
0000
1000
0100
0010
0001
0100
0010
1000
0000
0001
0100
,
0001
0000
1000
0000
1001
0000
1000
0000
0100
0010
0001
0000
0011
0000
0000
0000
,
0001
0000
0010
0100
1000
0000
0100
0000
1000
0100
0010
0001
1000
0000
0001
0000
,
0100
0000
0001
0100
0001
0000
1000
0000
0100
0000
0010
0000
0002
0000
0000
0000
,
1003
0000
0100
0000
1100
0000
1000
0000
0001
0010
0100
1000
0100
0000
0010
0001
,
0010
0000
0001
0000
0101
0000
0010
0000
1000
0000
0100
0010
0001
0000
1000
0000
,
0001
0000
0000
0001
0100
0000
0010
0000
1000
0000
0010
0100
0010
0000
1000
0001
,
0100
0000
0001
1000
0001
0000
0100
0000
0010
0000
1000
0001
0010
0000
0001
0000
,
1000
0000
0100
0010
0001
0000
1000
0000
0001
0010
0100
1000
0001
0000
0100
0000
,
0010
0000
0000
1010
0000
0000
0100
0000
0001
0000
0000
0011
0000
0000
0001
0000
,
0110
1001
0000
1001
0110
0000
0110
0000
,
1001
0000
0000
0110
0000
0000
0010
0000
1001
0000
0000
0100
0001
0000
0000
0000
,
0100
0000
0000
0100
0001
0000
0100
0000
0010
1000
0010
1000
0010
0000
1000
0001
,
0010
0000
0001
0010
0001
0000
1000
0000
0100
0010
0001
0000
0001
0000
1000
0000
,
0010
0000
0000
0010
1000
0000
0001
0000
0010
0100
1000
0100
0010
0000
0001
0000
,
0010
0000
0000
0010
0001
0000
0010
0000
0100
0000
1000
0001
1000
0000
0001
0000
,
1000
0000
0010
0000
0100
0000
0001
0010
0100
1000
0010
0100
0001
0000
1000
0010
,
1000
0000
0001
0000
1001
0000
0001
0000
0010
0100
1000
0000
1100
0000
0000
0000
,
1000
0000
0100
0010
0001
0000
0010
0000
0001
0010
0100
1000
0001
0000
1000
0000
,
0010
0000
1000
0010
1000
0000
0001
0000
0010
0000
0100
0000
2000
0000
0000
0000
,
3001
0000
0010
0000
0011
0000
0001
0000
1000
0100
0010
0001
0010
0000
0100
1000
,
0100
0000
1000
0000
1010
0000
0100
0000
0001
0000
0010
0100
1000
0000
0001
0000
,
1000
0000
0000
1000
0010
0000
0100
0000
0001
0000
0100
0010
0100
0000
0001
1000
,
0010
0000
1000
0001
1000
0000
0010
0000
0100
0000
0001
1000
0100
0000
1000
0000
,
0001
0000
0010
0100
1000
0000
0001
0000
1000
0100
0010
0001
1000
0000
0010
0000
,
0100
0000
0000
0101
0000
0000
0010
0000
1000
0000
0000
1100
0000
0000
1000
0000
,
0010
0000
0000
0010
1000
0000
0001
0000
0100
0010
0100
0010
0100
0000
0010
0000
,
1000
0000
0000
1000
0001
0000
0100
0000
0010
0000
0000
0010
1000
0000
0010
0000
,
0100
0000
0000
0000
0000
0000
0000
0000
0000
0000
0000
0000
0000
0000
0000
0000
0001
0000
0000
0000
0000
0000
0000
0000
0000
0000
0000
0000
0000
0000
0000
0000
1000
0000
0000
0000
0000
0000
0000
0000
0000
0000
0000
0000
0000
0000
0000
0000
0200
0000
0000
0000
0000
0000
0000
0000
0000
0000
0000
0000
0000
0000
0000
0000
0000
0000
0000
0000
0000
0000
0000
0000
0000
0000
0000
0000
0000
0000
0000
0000
0000
0000
0000
0000
0000
0000
0000
0000
0000
0000
0000
0000
0000
0000
0000
0000
0000
0000
0000
0000
0000
0000
0000
0000
0000
0000
0000
0000
0000
0000
0000
0000
0000
0000
0000
0000
0000
0000
0000
0000
0000
0000
0000
0000
0000
0000
0000
0000
0000
0000
0000
0000
0000
0000
0000
0000
0000
0000
0000
0000
0000
0000
0000
0000
0000
0000
0000
0000
0000
0000
0000
0000
0000
0000
0000
0000
0000
0000
0000
0000
0000
0000
0000
0000
0000
0000
0000
0000
0000
0000
0000
0000
0000
0000
0000
0000
0000
0000
0000
0000
0300
0000
0000
0100
0000
0000
0000
0000
0000
0000
0000
0000
,
0000
0000
0000
0000
0000
0000
0000
0000
0000
0000
0000
0000
0000
0000
0000
0000
1000
0000
0000
0000
0100
0000
0000
0000
0000
0010
0000
0000
0000
0001
0000
0000
0000
0000
0000
0000
0000
0000
0000
0000
0000
0000
1001
0000
0000
0000
0000
0000
0000
0000
0000
0000
0000
0000
0000
0000
0000
0000
0000
0000
0000
0000
0000
0000
,
1000
0000
0100
0000
1000
0000
0100
0000
0000
0010
0000
0000
0001
0000
0000
0100
0000
0000
0000
0000
0000
0000
0000
0000
0000
0000
0000
0000
0000
0000
0000
0000
0000
0000
0000
0000
0000
0000
0000
0000
0000
0000
0000
0000
0000
0000
0000
0000
;
#NOTES:
     dance-single:
     Renard:
     Medium:
     8:
     0.571,0.516,0.438,0.011,0.053:
0000
0000
0000
0000
,
0000
0000
0000
0000
,
1000
0100
0000
0100
,
0010
0001
0000
0001
,
1000
0010
0000
0010
,
0100
0001
0001
0001
,
1000
0000
0100
0000
1000
0001
1000
0000
,
0001
0000
0100
0000
0001
1000
0001
0000
,
1000
0000
0100
0000
1000
0001
1000
0000
,
0001
0000
0100
0000
0001
1000
0001
0000
,
1000
0100
1000
0000
0001
0100
0001
0000
,
1000
0010
1000
0000
0001
0010
0001
0000
,
1000
0100
1000
0000
0001
0100
0001
0000
,
1000
0001
1000
0000
0010
1000
0001
0010
,
0001
1000
0001
0000
1000
0100
1000
0000
,
0001
0100
0001
0000
1000
0010
1000
0000
,
0001
0010
0001
0000
1000
0100
1000
0000
,
0001
0100
0001
1000
0100
1000
0001
1000
,
0001
0000
0100
0000
0010
1000
0010
1000
,
0001
0000
1000
0000
0100
1000
0001
1000
,
0001
0000
0100
0000
0001
0010
0001
1000
,
0001
0000
1000
0000
0100
1000
0001
1000
,
0010
0000
1000
0000
0001
1000
0001
0100
,
0001
0000
0010
0000
0001
1000
0100
1000
,
0010
1000
0000
1000
0010
0000
1010
0000
,
0100
0001
0000
0001
1000
0000
1100
0000
,
1000
0100
0010
0000
0010
0001
1001
0000
,
0001
0100
0010
1000
0100
1000
1100
0000
,
1000
0000
1001
0000
0001
0100
0110
0000
,
0010
1000
0001
0010
0100
1000
1100
0000
,
1000
0000
1001
0000
0001
0100
0101
0000
,
0100
0000
0110
0000
0010
1000
0100
0010
,
0001
0000
1001
0000
0001
0100
0101
0000
,
0100
0010
1000
0100
0010
0000
0110
0000
,
0100
0000
1100
0000
0010
0001
0011
0000
,
0001
1000
0010
0100
0010
0000
1010
0000
,
0100
0000
0101
0000
0001
0010
0100
0000
,
1000
0001
0100
0010
1000
0000
1001
0000
,
0001
0101
0100
0110
,
0010
1000
0100
1000
0001
0100
0101
0000
,
0001
0101
1000
1100
,
1000
0001
0100
0010
1000
0000
1010
0000
,
1000
0000
1100
0000
0100
0010
0001
1000
,
0001
0000
0101
0000
0100
0001
0010
0100
,
1000
0000
1100
0000
1000
0001
0100
0010
,
1000
0000
1001
0000
1000
0100
0010
0001
,
1000
0000
1001
0000
0001
0010
0100
1000
,
0001
0000
0011
0000
0001
0010
0100
1000
,
0010
0000
1010
0000
1000
0100
0010
0001
,
0100
0000
0101
0000
0001
0100
0010
1000
,
0100
0000
1100
0000
1000
0100
0010
0001
,
1000
0000
1001
0000
0001
1000
0100
1000
,
0010
0000
1010
0000
0010
1000
0100
1000
,
0001
0000
0011
0000
0001
0010
0100
1000
,
0010
0000
1010
0000
0010
1000
0100
0010
,
0001
0000
0011
0000
0001
0100
0010
1000
,
0100
0000
1100
0000
1000
0100
0010
0001
,
0100
0000
0101
0000
0001
0100
0010
1000
,
0010
0000
0000
0000
0000
0000
0000
0000
0000
0000
0000
0000
0000
0000
0000
0000
1000
0000
0000
0000
0000
0000
0000
0000
0000
0000
0000
0000
0000
0000
0000
0000
0001
0000
0000
0000
0000
0000
0000
0000
0000
0000
0000
0000
0000
0000
0000
0000
0020
0000
0000
0000
0000
0000
0000
0000
0000
0000
0000
0000
0000
0000
0000
0000
0000
0000
0000
0000
0000
0000
0000
0000
0000
0000
0000
0000
0000
0000
0000
0000
0000
0000
0000
0000
0000
0000
0000
0000
0000
0000
0000
0000
0000
0000
0000
0000
0000
0000
0000
0000
0000
0000
0000
0000
0000
0000
0000
0000
0000
0000
0000
0000
0000
0000
0000
0000
0000
0000
0000
0000
0000
0000
0000
0000
0000
0000
0000
0000
0000
0000
0000
0000
0000
0000
0000
0000
0000
0000
0000
0000
0000
0000
0000
0000
0000
0000
0000
0000
0000
0000
0000
0000
0000
0000
0000
0000
0000
0000
0000
0000
0000
0000
0000
0000
0000
0000
0000
0000
0000
0000
0000
0000
0000
0000
0000
0000
0000
0000
0000
0000
0030
0000
0000
0010
0000
0000
0000
0000
0000
0000
0000
0000
,
0000
0000
0000
0000
0000
0000
0000
0000
0000
0000
0000
0000
0000
0000
0000
0000
0001
0000
0000
0000
0010
0000
0000
0000
0000
0100
0000
0000
0000
1000
0000
0000
0000
0000
0000
0000
0000
0000
0000
0000
0000
0000
1001
0000
0000
0000
0000
0000
0000
0000
0000
0000
0000
0000
0000
0000
0000
0000
0000
0000
0000
0000
0000
0000
,
0001
0010
0100
1000
0001
0010
0000
0000
0000
0000
0000
0000
0000
0000
0000
0000
;
#NOTES:
     dance-single:
     Renard:
     Easy:
     6:
     0.324,0.387,0.000,0.267,0.000:
0000
0000
0000
0000
,
0000
0000
0000
0000
,
0000
0000
0000
0000
,
0000
0000
0000
0000
,
0000
0000
0000
0000
,
0000
0000
0000
0000
,
0000
0000
0000
0000
,
0000
0000
0000
0000
,
0000
0000
0000
0000
,
0000
0000
0000
0000
,
0002
0000
0000
0000
,
2003
0000
3200
0000
,
0320
0000
0000
0000
,
0032
0000
0000
0000
,
0203
0000
0000
0000
,
0320
0000
2030
0000
,
3200
0000
0000
0000
,
0320
0000
0000
0000
,
0032
0000
0000
0000
,
0023
0000
0000
0230
0000
0000
2300
0000
,
3020
0000
0000
0000
,
0230
0000
0302
0000
,
2003
0000
0000
0000
,
3200
0000
0320
0000
,
0032
0000
1003
1000
,
0001
1000
0001
0000
,
0100
0000
0001
0000
1000
0001
1000
0000
,
0001
1000
0100
1000
,
0001
0000
0010
0000
0001
1000
0001
0000
,
0100
0000
0001
0000
1000
0010
1000
0000
,
0010
0000
0100
0000
0001
1000
0001
0000
,
1000
0000
0100
0000
1000
0001
1000
0000
,
0001
0000
0100
0000
0010
1000
0010
0000
,
1000
0001
0100
0001
,
1000
0000
0100
0000
0010
0001
0010
0000
,
0100
0000
1000
0000
0001
0100
0001
0000
,
0100
0010
1000
0001
,
0010
0000
0100
0000
1000
0001
1000
0001
,
1000
0000
0001
0000
0100
0000
0010
1000
,
0010
0000
0100
0000
0001
0000
1000
0001
,
1000
0001
0000
0001
1000
0000
1000
0000
,
0001
0000
0100
0000
0010
1000
0010
0000
,
0100
0000
0001
0000
1000
0100
1000
0000
,
0001
0000
0100
0000
0001
1000
0001
0000
,
0100
0000
0001
0000
1000
0100
1000
0000
,
0001
0100
0010
1000
,
0001
0000
1000
0000
0100
1000
0100
0000
,
1000
0001
0010
0001
,
1000
0000
0010
0000
0100
0001
0100
0000
,
0010
0000
1000
0000
0100
1000
0001
1000
,
0001
0000
0100
0000
0010
0000
1000
0001
,
1000
0010
0100
0001
,
1000
0000
0100
0000
0010
0000
0001
0010
,
0001
0000
0010
0000
0100
1000
0001
1000
,
0001
0100
0010
1000
,
0001
0000
0100
0000
0001
1000
0001
0000
,
1000
0000
0100
0000
0010
0001
1000
0000
,
0001
0000
0100
0010
1000
0000
0100
0000
,
0020
0000
0000
0000
,
0032
0000
0023
0000
0000
0230
0000
0000
,
0000
1300
0000
0000
;
#NOTES:
     dance-single:
     WinDEU:
     Beginner:
     2:
     0.234,0.372,0.064,0.310,0.000:
0000
0000
0000
0000
,
0000
0000
0000
0000
,
0000
0000
0000
0000
,
0000
0000
0000
0000
,
0000
0000
0000
0000
,
0000
0000
0000
0000
,
0000
0000
0000
0000
,
0000
0000
0000
0000
,
0000
0000
0000
0000
,
0000
0000
0000
0000
,
0001
0000
0100
0000
,
0010
0000
1000
0000
,
0100
0000
0010
0000
,
0001
0000
0100
0000
,
0001
0000
0010
0000
,
0100
0000
1000
0000
,
0010
0000
0100
0000
,
0010
0000
1000
0000
,
0100
0000
0010
0000
,
0100
0000
1000
0000
,
0010
0000
0100
0000
,
0001
0000
0010
0000
,
0100
0000
0010
0000
,
0001
0000
0100
0000
,
0010
0000
1000
0000
,
0010
0100
0001
0010
,
0002
0000
0023
0000
,
0230
0000
2300
0000
,
3010
0100
0001
0010
,
0200
0300
2000
3000
,
0020
0000
0230
0000
,
0302
0000
2003
0000
,
3100
0010
0001
0010
,
0100
1000
2002
3003
,
0001
0100
0010
0000
,
1000
0100
0010
0000
,
0001
0100
0010
0000
,
1000
0001
1000
0001
,
0010
0100
1000
0000
,
0010
0100
0001
0000
,
0010
0100
1000
0010
,
0100
0010
1000
0001
,
0000
0020
0030
0200
,
0300
2000
3000
0002
,
0003
0200
0300
0020
,
0030
1000
0100
0010
,
0002
0103
0020
1030
,
0200
0310
0002
0103
,
0000
0000
0101
1001
,
0000
1100
0000
0110
,
0002
0000
0000
0000
,
0023
0000
0000
0000
,
0230
0000
0000
0000
,
0000
0000
1000
0000
,
2300
0000
0000
0000
,
3020
0000
0000
0000
,
0130
0001
1000
0100
,
0020
0031
0200
0310
,
1001
0000
0000
0000
;
