#TITLE:I Prefer the Sky;
#SUBTITLE:;
#ARTIST:D-Mode-D;
#TITLETRANSLIT:;
#SUBTITLETRANSLIT:;
#ARTISTTRANSLIT:;
#CRChallenge:;
#BANNER:sky.png;
#BACKGROUND:sky-bg.png;
#LYRICSPATH:;
#CDTITLE:!cdtitle.png;
#MUSIC:sky.ogg;
#OFFSET:0.000;
#SAMPLESTART:84.586;
#SAMPLELENGTH:12.000;
#SELECTABLE:YES;
#BPMS:0.000=85.000,32.000=170.000,176.000=85.000,192.000=170.000;
#STOPS:;
#BGCHANGES:;
#NOTES:
     dance-single:
     Renard:
     Hard:
     10:
     0.644,0.819,0.204,0.177,0.261:
0000
0000
0000
0000
,
0000
0000
0000
0000
,
0000
0000
0000
0000
,
0000
0000
0000
0000
,
1000
0100
0001
0000
0201
0000
1300
0010
0002
0000
0023
0000
1030
0100
0002
0000
,
0103
1000
0010
0000
0100
0000
0001
1000
0100
0000
0010
0000
1001
0000
0001
1000
,
0100
0001
0100
0000
0201
0000
0000
0000
1300
0010
0001
0000
0010
0100
1000
0000
,
0100
0001
0200
0000
0310
1000
0100
0000
0001
0100
1000
0000
2002
0000
3013
0000
,
1001
1010
1001
0011
,
1001
1010
1001
0011
,
0001
1000
0010
1000
0001
0010
0001
1000
,
0010
1000
0010
1000
0001
0010
0001
0010
0100
0000
0000
0000
1001
0000
0000
0000
,
0001
0100
0010
0001
0100
0010
0001
0000
,
1000
0100
0010
1000
0100
0010
1000
0000
,
0001
0100
0001
0100
0001
0000
1000
0100
1000
0100
1000
0000
0001
0100
0001
0100
,
0001
1000
0100
0001
1000
0010
0001
0010
,
1000
0010
0100
1000
0010
0100
1000
0000
,
0001
0010
0100
0001
0010
0100
0001
0000
,
1000
0010
1000
0010
1000
0000
0010
0001
0010
0001
0010
0000
0001
0010
0001
0000
,
0010
0001
0010
1000
0001
0100
1000
0100
,
0001
0100
0010
0001
0100
0010
0001
0000
,
1000
0100
0010
1000
0100
0010
1000
0000
,
0001
0100
0001
0100
0001
0000
0100
1000
0100
1000
0100
0000
1000
0100
1000
0000
,
0100
1000
0100
0001
1000
0010
0001
0010
,
1000
0010
0100
1000
0010
0100
1000
0000
,
0001
0010
0100
0001
0010
0100
0001
0000
,
1000
0010
1000
0010
1000
0000
0010
0001
0010
0001
0010
0000
0001
0010
0001
0000
,
0010
0001
0010
1000
0001
0100
1000
0000
,
0100
1000
0100
0000
1000
0000
0100
0000
0010
0000
0000
0000
1001
0000
0000
0000
,
0100
0001
0010
0100
0010
0001
0100
0000
,
0010
0001
0010
0000
0001
0000
0010
0000
0100
0000
0000
0000
1001
0000
0000
0000
,
0010
1000
0100
0010
0100
1000
0010
0000
,
0100
1000
0100
0000
1000
0000
0100
0000
0010
0000
0000
0000
1001
0000
0000
0000
,
0100
0001
0010
0100
0010
0001
0100
0000
,
0010
0001
0010
0000
0001
0000
0010
0000
0100
0000
0000
0000
1001
0000
0000
0000
,
0010
1000
0100
0010
0100
1000
0010
0000
,
1000
0001
0100
0000
1000
0000
0100
0000
0001
0000
0000
0000
1001
0000
0000
0000
,
0010
0100
0001
0010
0001
0100
0010
1000
,
0001
1000
0010
0000
0001
0000
0010
0000
1000
0000
0000
0000
1001
0000
0000
0000
,
0100
0010
1000
0100
1000
0010
0001
0010
,
1000
0001
0100
0000
1000
0000
0100
0000
0001
0000
0000
0000
1001
0000
0000
0000
,
0010
0100
0001
0010
0001
0100
0010
1000
,
0001
1000
0010
0000
0001
0000
0010
0000
1000
0000
0000
0000
1001
0000
0000
0000
,
0100
0010
1000
0100
2000
0002
3013
0000
,
0000
0000
2000
0000
3002
0203
2300
3200
,
0000
0301
0010
0100
,
1000
0002
0203
2300
,
3100
0001
2000
0000
0100
0000
0000
0000
0010
0000
0000
0000
0002
0000
3013
0000
,
0001
0100
1000
0000
1000
0100
0001
0000
,
0001
0010
1000
0000
1000
0010
0001
0000
,
1000
0010
0100
0000
0100
1000
0100
0000
,
0100
0010
0100
0000
0100
0001
0100
0000
,
0001
0010
0100
0000
0100
1000
0010
0000
,
0010
0100
1000
0000
1000
0100
0001
0000
,
0001
0010
0100
0001
0100
1000
0001
0100
,
0010
0000
1000
0010
0001
0000
1000
0100
0001
0000
0100
0000
1001
0000
0000
0000
,
0001
0100
0010
0001
0100
0010
0001
0000
,
1000
0100
0010
1000
0100
0010
1000
0000
,
0001
0100
0001
0100
0001
0000
1000
0100
1000
0100
1000
0000
0001
0100
0001
0100
,
0001
1000
0100
0001
1000
0010
0001
0010
,
1000
0010
0100
1000
0010
0100
1000
0000
,
0001
0010
0100
0001
0010
0100
0001
0000
,
1000
0010
1000
0010
1000
0000
0010
0001
0010
0001
0010
0000
0001
0010
0001
0000
,
0010
0001
0010
1000
0001
0100
1001
0000
;
#NOTES:
     dance-single:
     Renard:
     Medium:
     8:
     0.500,0.621,0.115,0.204,0.000:
0000
0000
0000
0000
,
0000
0000
0000
0000
,
0000
0000
0000
0000
,
0000
0000
0000
0000
,
2000
0000
3002
0000
,
0203
0000
0310
0000
1000
0010
1000
0000
,
0002
0000
0103
0000
0100
0010
1000
0000
,
1000
0000
0010
0000
1000
0010
1000
0000
,
0010
1000
0010
1000
,
0001
1000
0001
1000
,
0001
0100
0001
0100
0010
1000
0010
1000
,
0001
0100
0010
1000
0001
0000
1001
0000
,
1000
0000
0100
0000
1000
0010
0100
0001
,
0100
0000
0001
0000
1000
0001
1000
0000
,
0001
0000
1000
0000
0010
1000
0001
0100
,
1000
0000
0100
0000
0001
0010
1000
0000
,
0010
0000
0001
0000
0100
0010
1000
0100
,
0010
0000
0001
0000
1000
0010
0100
0001
,
0100
0000
1000
0000
0100
0001
0010
1000
,
0010
0000
0100
0000
1000
0010
0100
0000
,
0001
0000
0100
0000
0010
1000
0010
0001
,
0010
0000
0100
0000
1000
0100
0001
0000
,
0100
0000
0010
0000
1000
0100
0001
0000
,
0100
0000
1000
0000
0010
0100
0001
0100
,
0001
0000
0010
0000
0010
0100
0010
0000
,
0100
0000
1000
0000
1000
0001
1000
0000
,
1000
0010
0100
0000
0100
0001
0010
0000
,
0010
0001
0100
0010
1000
0100
0010
0000
,
0100
1000
0010
0100
0001
0000
0101
0000
,
0001
0100
0010
1000
0100
0000
1100
0000
,
1000
0100
1000
0010
0100
0000
0110
0000
,
0100
0001
0010
0000
0010
0001
0100
0000
,
0100
0001
0010
0100
1000
0000
1100
0000
,
1000
0010
0100
0001
0100
0000
0101
0000
,
0001
0100
0010
1000
0100
0000
1100
0000
,
1000
0100
0001
0000
0001
0100
1000
0000
,
1000
0010
0001
0010
1000
0000
1010
0000
,
1000
0100
0001
0100
1000
0000
1100
0000
,
1000
0100
0010
0000
0010
0001
0100
0000
,
0100
0010
1000
0100
0010
0000
0110
0000
,
0010
0001
0100
0010
1000
0000
1010
0000
,
1000
0010
0100
0001
1000
0000
1001
0000
,
1000
0100
0010
0000
0010
0100
1000
0000
,
1000
0010
0100
0001
0010
0100
1000
0000
,
0002
0000
2003
0000
3200
0320
0032
2003
,
3020
0230
0302
2003
,
3200
0000
0320
0000
0032
2003
3020
0230
,
0302
0000
2003
0000
3200
0000
0310
1001
,
1000
0010
0100
0000
0100
0001
0010
0000
,
0010
0001
0100
0000
0100
0010
1000
0000
,
1000
0010
0100
0001
0010
0100
1000
0010
,
0100
1000
0100
0001
0010
1000
0010
0001
,
0010
0100
1000
0000
1000
0010
0100
0000
,
0100
0001
0100
0000
0100
0010
0100
0000
,
0100
0001
0010
0100
1000
0010
0100
0001
,
0100
0010
1000
0100
0001
0100
1000
0000
,
1000
0010
0001
0000
0001
0010
1000
0000
,
1000
0100
0001
0000
0001
0100
1000
0000
,
1000
0010
0001
0010
0100
1000
0100
0001
,
0010
1000
0010
0100
1000
0100
0001
0100
,
1000
0010
0100
0001
0100
0010
1000
0000
,
1000
0010
0001
0010
0100
1000
0100
0000
,
0100
0001
0010
1000
0010
0001
0010
0100
,
1000
0100
0001
0100
1000
0010
0100
0000
;
#NOTES:
     dance-single:
     Renard:
     Easy:
     6:
     0.358,0.395,0.080,0.115,0.000:
0000
0000
0000
0000
,
0000
0000
0000
0000
,
0000
0000
0000
0000
,
0000
0000
0000
0000
,
2000
0000
3002
0000
,
0203
0010
0001
0010
,
0302
0000
2003
0000
,
3200
1000
0010
1000
,
1300
1000
1000
1000
,
0001
0001
0001
0001
,
1000
0001
1000
0000
0001
1000
0001
0000
,
1000
0001
0100
0010
1000
0000
0001
0000
,
1000
0100
1000
0001
,
1000
0000
0001
0000
0100
0001
1000
0001
,
1000
0100
1000
0001
,
0010
0000
0001
0000
1000
0010
1000
0001
,
1000
0001
0100
0001
,
1000
0000
0001
0000
1000
0100
1000
0001
,
1000
0001
0010
0001
,
1000
0000
0010
0000
0100
0001
1000
0000
,
0001
1000
0100
1000
,
0001
0000
0100
0000
0001
1000
0010
1000
,
0001
0010
0001
1000
,
0010
0000
1000
0000
0001
0100
0001
1000
,
0100
1000
0001
0010
,
0001
0000
1000
0000
0010
1000
0001
0010
,
0001
1000
0010
1000
,
0001
0100
0001
1001
,
1000
0100
0010
0010
,
0001
0100
0010
0010
,
1000
0100
0010
0010
,
0001
0100
0010
0010
,
1000
0100
0010
0010
,
0001
0100
0010
0010
,
1000
0100
0010
0010
,
0001
0100
0010
0010
,
1000
0010
1000
0000
1010
0000
0010
0000
,
0100
0001
0100
0000
0101
0000
0001
0000
,
0010
0001
0010
0000
0011
0000
0010
0000
,
0100
1000
0100
0000
1100
0000
1000
0000
,
1000
0010
1000
0000
1010
0000
0010
0000
,
0100
0001
0100
0000
0101
0000
0001
0000
,
0010
0001
0010
0000
0011
0000
0010
0000
,
0100
1000
0100
0000
1100
0000
1000
0000
,
0002
2003
3200
0320
,
0032
1000
0100
0010
,
2003
0100
0010
0001
,
3002
0100
1000
0013
,
0010
0000
0001
0000
0000
1000
0001
0000
,
0100
0000
0001
0000
0000
1000
0001
0000
,
1000
0000
0100
0000
0000
1000
0010
0000
,
1000
0000
0001
0000
0000
1000
0100
0000
,
1000
0000
0001
0000
0000
0100
0001
0000
,
0010
0000
0001
0000
0000
1000
0001
0000
,
1000
0000
0100
0000
0000
1000
0010
0000
,
1000
0000
0001
0000
0000
1000
0100
0000
,
1000
0001
0000
0001
,
0100
0000
0010
0000
1000
0010
1000
0000
,
0010
0100
0000
0100
,
0001
0000
1000
0000
0001
0100
0001
0000
,
1000
0001
0000
0010
,
0001
0000
1000
0000
0010
1000
0001
0000
,
1000
0100
0000
1000
,
0001
0000
0010
0000
0001
1000
0001
0000
;
#NOTES:
     dance-single:
     Renard:
     Beginner:
     3:
     0.254,0.339,0.000,0.106,0.000:
0000
0000
0000
0000
,
0000
0000
0000
0000
,
0000
0000
0000
0000
,
0000
0000
0000
0000
,
1000
0001
0100
0010
,
0000
0010
0000
0010
,
1000
0001
0100
0010
,
0000
0010
0000
0010
,
1000
0010
1000
0010
,
0100
0001
0100
0001
,
1000
0100
0010
0001
,
1000
1000
0001
0000
,
1000
0001
0000
0001
,
0100
0010
0000
0010
,
1000
0010
1000
0010
,
0100
0001
0100
0001
,
0010
0001
0000
0001
,
1000
0100
0000
0100
,
0010
0001
0010
0001
,
1000
0010
0100
0001
,
1000
0001
0000
0001
,
0100
0001
0000
0001
,
1000
0010
1000
0010
,
0100
0001
0100
0001
,
1000
0001
0000
0001
,
1000
0100
0000
0100
,
0010
0001
1000
0010
,
0100
0001
1000
0001
,
0100
0100
0010
0000
,
1000
0000
0010
0000
,
0100
0100
0001
0000
,
1000
0000
0001
0000
,
0010
0010
0001
0000
,
1000
0000
0100
0000
,
1000
1000
0001
0000
,
0010
0000
0001
0000
,
1000
0010
1000
0000
,
0001
0000
0100
0000
,
0001
1000
0001
0000
,
1000
0000
0010
0000
,
1000
0001
1000
0000
,
0001
0000
0100
0000
,
0001
1000
0001
0000
,
0010
0000
0001
1000
,
0020
0000
0230
0000
,
0302
1000
0010
1000
,
0203
0000
0320
0000
,
2030
0100
0001
0010
,
3010
1000
0000
1000
,
0001
0100
0000
0100
,
0001
0010
0000
0010
,
0001
1000
0100
1000
,
0001
0010
0000
0010
,
0001
1000
0000
1000
,
0010
1000
0001
0100
,
0001
0001
1000
0010
,
1000
0001
0000
0001
,
0100
0010
0000
0010
,
2000
3100
0000
0100
,
0020
0031
0000
0001
,
1000
0010
0000
0010
,
0100
0001
0000
0001
,
0020
0031
2000
3100
,
2000
3010
0200
0301
;
