#TITLE:I Love You Baby;
#SUBTITLE:;
#ARTIST:Pandera;
#TITLETRANSLIT:;
#SUBTITLETRANSLIT:;
#ARTISTTRANSLIT:;
#CRChallenge:;
#BANNER:baby.png;
#BACKGROUND:baby-bg.png;
#LYRICSPATH:;
#CDTITLE:!cdtitle.png;
#MUSIC:baby.ogg;
#OFFSET:0.180;
#SAMPLESTART:31.280;
#SAMPLELENGTH:13.920;
#SELECTABLE:YES;
#BPMS:0.000=100.000;
#STOPS:;
#BGCHANGES:;
#NOTES:
     dance-single:
     Renard:
     Medium:
     9:
     0.540,0.612,0.178,0.000,0.504:
0000
0000
0000
0000
,
0000
0000
0000
0000
,
0000
0000
0000
0000
,
0000
0000
0000
0000
1000
0000
0001
0000
0100
0000
0010
1000
0000
0000
0010
0000
,
0000
0000
0100
0000
0001
0000
1000
0000
0100
0000
0010
0001
0000
0001
1000
0000
,
0010
0000
0100
0000
0001
0000
0100
0010
0100
0000
0010
0000
1000
0100
1000
0000
,
0001
0000
1000
0000
0000
0000
0001
0100
0001
0000
0100
0000
0010
0000
1000
0100
,
1000
0000
0001
0000
1000
0000
0001
0100
0001
0000
0100
0000
0010
1000
0010
0000
,
1000
0000
0100
0000
0000
0000
0010
0001
0010
0000
0100
0000
1000
0001
0100
0010
,
1000
0001
1000
0000
0100
0000
1000
0100
1000
0000
0001
0000
0100
0000
0010
1000
,
0010
0000
0100
0000
0000
0000
0001
0010
0001
0000
0010
0000
0100
1000
0100
1000
,
0001
1000
0001
0000
0100
0000
0010
1000
0010
0000
0100
0000
0001
1000
0001
1000
,
0100
0000
1000
0000
0000
0000
0001
0100
0001
0000
0100
0000
0010
0000
1000
0010
,
1000
0000
0001
0100
1000
0100
0001
0001
,
0010
0010
0100
1000
0001
0100
0110
0110
,
1001
0000
0101
0000
0100
0010
1000
1000
,
0100
0100
0010
0001
1000
0010
0110
1001
,
0110
0000
1010
0000
0010
0100
0001
0001
,
0010
0000
0100
0100
1000
1000
1001
0110
,
1001
0000
1001
0000
0100
0100
0001
0000
,
1000
0000
0000
0000
0100
0000
0000
0010
0000
0000
0001
0000
1000
0000
0010
0000
,
0100
0000
0010
0000
0000
1000
0010
1000
0010
0000
0000
0100
0001
0010
0001
1000
,
0001
0010
0001
0000
1000
0100
1000
0010
1000
0001
1000
0010
1000
0000
0001
0010
,
0100
1000
0001
0100
0001
1000
0001
0100
0001
0010
0001
1000
0001
0100
0001
0000
,
1000
0000
0000
0001
1000
0100
0000
1000
0010
0100
0001
0000
1000
0001
1000
0001
,
0100
0001
0010
0000
0001
0010
0001
0100
0001
0000
1000
0000
0001
0010
0100
0000
,
1000
0100
0010
0000
0001
0100
0001
0100
0010
1000
0010
0000
1000
0100
0010
0001
,
1000
0000
0001
0000
1000
0010
1000
0000
0001
0100
0001
0010
0001
1000
0100
1000
,
0010
1000
0001
0000
1000
0100
1000
0010
1000
0001
0100
0001
0010
0001
1000
0000
,
0001
0000
1000
0000
0001
0000
1000
0000
0010
0000
0100
0001
0000
0000
0101
0000
,
0000
0000
0110
0000
0010
0000
1000
0000
0100
0000
0010
0001
0000
0000
1000
0000
,
0100
0000
0010
0000
0001
0000
1000
0000
0010
0000
0100
0001
0000
0000
1001
0000
,
0000
0000
0110
0000
0000
0000
0010
0000
1000
0000
0100
0010
0000
0001
0010
0000
,
0100
1000
0001
0100
1000
0100
0001
0010
,
0100
0000
1000
0100
0001
0100
1000
0000
,
1010
0000
0010
0001
0010
1000
0100
0010
,
0001
0000
0001
0010
1000
0010
0100
1000
,
0100
0000
0000
0000
0000
1000
0100
1000
0001
1000
0000
0100
1000
0001
1000
0001
,
0100
0000
0001
0000
0000
1000
0010
1000
0001
0100
0000
0001
1000
0100
0010
0001
,
0010
0100
1000
0001
0000
0100
0001
1000
0001
0010
0000
0001
1000
0010
1000
0001
,
0100
0000
0001
0000
0000
1000
0100
1000
0001
0100
0000
0001
1000
0001
0010
0001
,
0100
0001
1000
0000
1001
0000
0000
0000
0000
0000
0000
0000
0000
0000
0000
0000
;
#NOTES:
     dance-single:
     Renard:
     Easy:
     6:
     0.266,0.252,0.000,0.000,0.000:
0000
0000
0000
0000
,
0000
0000
0000
0000
,
0000
0000
0000
0000
,
0000
0000
1000
0000
0100
0000
1000
0100
,
1000
0100
0000
0000
0010
0000
0001
0100
,
0001
0100
0000
0000
0001
0000
1000
0100
,
1000
0100
0000
0000
1000
0000
0001
0100
,
0001
0100
0010
0000
0010
0000
1000
0010
,
1000
0010
0100
0000
0100
0000
0001
1000
,
0001
1000
0100
0000
0100
0000
0010
0001
,
0010
0001
1000
0000
1000
0000
0001
0100
,
0001
0000
1000
0000
0100
1000
0001
0000
,
0100
0000
0010
1000
0010
1000
0001
0100
,
0001
0000
1000
0000
0100
1000
0001
0000
,
0100
0010
0010
0100
,
0100
0000
0001
0000
1000
0100
1000
0000
,
0001
0000
0100
0001
0100
0001
1000
0100
,
1000
0000
0001
0000
0100
0001
0100
0000
,
0001
1000
0100
1000
,
0001
0000
0100
0000
0001
0000
1000
0100
,
1000
0000
0001
0000
0100
0000
0001
0010
,
0001
0000
0100
0000
0001
0000
1000
0010
,
1000
0000
0001
0000
0100
0000
0001
1000
,
0001
0000
1000
0000
0100
0000
1000
0001
,
1000
0000
0001
0000
0100
0000
0001
1000
,
0010
0000
1000
0000
0001
0000
0100
0001
,
0010
0000
0001
1000
0001
1000
0100
1000
,
0001
1000
1000
0100
,
0100
0000
0010
0000
0001
0000
1000
0001
,
1000
0001
0100
0000
0100
0000
0010
0000
,
0010
0000
1000
0000
0100
0000
1000
0001
,
1000
0001
1000
0000
0100
0000
1000
0000
,
0100
0000
0010
0000
0001
0000
0010
0001
,
0010
0001
0100
0001
,
0100
0000
0010
0000
1000
0000
0010
1000
,
0010
0000
1000
0000
0100
0000
1000
0001
,
1000
0000
0001
0000
0100
0000
0001
1000
,
0001
0000
0100
0000
0001
0000
1000
0100
,
1000
0000
0001
0000
0100
0000
0001
1000
,
0001
1000
0010
0000
0000
0000
0000
0000
;
#NOTES:
     dance-single:
     Renard:
     Beginner:
     2:
     0.177,0.175,0.000,0.000,0.000:
0000
0000
0000
0000
,
0000
0000
0000
0000
,
0000
0000
0000
0000
,
0000
0010
0000
0010
,
1000
0010
0000
0100
,
0001
0100
0000
0001
,
1000
0100
0100
0010
,
0010
0001
1000
0010
,
0010
0100
0001
0010
,
0010
0100
1000
0010
,
0010
0100
0001
1000
,
0100
1000
1000
0001
,
0001
0100
0010
0100
,
0010
1000
1000
0010
,
0010
0100
0001
0100
,
0001
1000
1000
0001
,
0001
1000
0010
1000
,
0001
0010
0010
0001
,
0001
1000
0001
0100
,
0001
1000
0000
0100
,
0000
1000
0000
0001
,
0000
0100
0000
0001
,
0000
1000
0001
0100
,
0001
1000
0000
0001
,
0000
0010
0001
1000
,
0001
0010
0000
0001
,
0000
1000
0010
1000
,
0001
0100
0000
0100
,
0010
1000
0100
0010
,
0001
0100
0000
0010
,
0100
0001
0010
0100
,
1000
0001
0100
0001
,
1000
0001
0010
0001
,
1000
0001
1000
0010
,
1000
0100
1000
0001
,
0000
1000
0000
1000
,
0001
0100
0000
0100
,
0001
1000
0000
1000
,
0100
0010
0000
0010
,
0001
0100
0000
0000
;
