#TITLE:I Love You Baby EX;
#SUBTITLE:;
#ARTIST:Pandera;
#TITLETRANSLIT:;
#SUBTITLETRANSLIT:;
#ARTISTTRANSLIT:;
#CRChallenge:;
#BANNER:baby.png;
#BACKGROUND:baby-bg.png;
#LYRICSPATH:;
#CDTITLE:!cdtitle.png;
#MUSIC:baby.ogg;
#OFFSET:0.000;
#SAMPLESTART:31.360;
#SAMPLELENGTH:13.920;
#SELECTABLE:NO;
#BPMS:0.000=95.000,14.000=190.000,79.000=95.000,109.000=190.000,266.000=95.000;
#STOPS:14.000=0.947
,109.000=0.947
,172.000=0.316
,233.000=0.947
;
#BGCHANGES:;
#NOTES:
     dance-single:
     Renard:
     Hard:
     9:
     0.693,1.000,0.155,0.039,0.281:
0000
0000
0000
0000
,
0000
0000
0000
0000
,
1000
0000
0001
0000
0100
0000
0010
1000
0000
0000
0010
0000
0000
0000
0100
0000
,
0001
0000
1000
0000
0100
0000
2000
0002
3013
0000
0000
0000
0001
0000
0100
0000
,
1000
0100
0001
0010
0000
0100
0001
0100
,
1000
0010
0100
0000
1000
0000
0100
0010
,
1000
0100
0001
0100
0000
0010
0001
0010
,
0100
0001
0100
1000
0010
0100
0000
1000
,
0100
0010
0100
0010
0000
1000
0100
0001
,
0100
0010
0001
0000
0010
0000
1000
0010
,
0100
1000
0010
0100
0000
1000
0100
0010
,
0100
0001
0010
0100
0001
0100
1000
0010
,
0100
1000
0100
0010
0000
1000
0100
0001
,
0100
0010
0001
0000
0010
0000
1000
0010
,
0100
1000
0010
0100
0000
1000
0100
0010
,
1000
0100
0001
0100
0010
0001
0000
0010
,
0100
0001
0100
1000
0000
0010
0100
1000
,
0100
0010
1000
0000
0100
0000
0001
0100
,
0010
0001
0010
0100
0000
1000
0010
0100
,
0001
0000
0010
0000
0100
0000
1000
0000
0001
0000
0000
0000
1000
0100
0010
0001
,
0000
0000
0001
0010
0100
1000
0001
0010
0000
0000
0010
0001
1000
0100
0010
0001
,
0000
0000
0001
0010
0100
1000
0100
0010
0001
0010
0100
1000
0001
0100
0010
1000
,
0000
0000
1000
0010
0100
0001
0100
0010
0000
0000
0010
1000
0001
0100
0010
1000
,
0000
0000
1000
0010
0100
0001
0100
0010
1000
0100
0010
0001
0010
0100
1000
0100
,
1000
0100
1000
0100
1000
0010
1000
0010
1000
0010
1000
0010
0100
0001
0100
0001
,
0100
0001
0100
0001
0010
0001
0010
0001
0010
0001
0010
0001
0010
0100
1000
0100
,
0010
0001
0100
0010
1000
0100
0010
0001
0100
0010
1000
0100
0010
0001
0010
0100
,
1000
0001
0100
0000
1001
0000
0000
0000
0000
0000
1000
0000
0010
0000
1000
0000
,
0010
0000
0000
0100
0001
0010
0001
1000
,
0001
0010
0001
0000
1000
0100
1000
0010
,
1000
0001
1000
0010
1000
0000
0001
0010
,
0100
0000
1000
0000
0001
0000
0100
0000
0001
0000
1000
0001
1000
0000
0010
0000
,
1000
0100
1000
0001
1000
0010
1000
0000
,
0001
0000
0000
1000
0001
0010
0000
0001
,
0100
0010
1000
0000
0001
1000
0001
1000
,
0010
0000
1000
0000
0100
0000
1000
0000
0001
1000
0100
0000
1000
0000
0010
0000
,
1000
0000
0001
0000
1000
0100
0010
0001
,
0001
0010
0100
0000
1000
0010
1000
0010
,
0100
0001
0100
0000
0001
0010
0100
1000
,
0001
0000
1000
0000
0001
0100
0001
0000
,
1000
0010
1000
0100
1000
0001
0010
0001
,
0100
0001
1000
0000
0001
0010
0001
0100
,
0001
0000
1000
0001
0100
0000
0001
0000
0010
0000
0001
0000
1000
0000
0000
0000
,
1011
0000
1000
0010
0100
0001
0010
0000
,
0010
0100
0000
0100
1000
0001
0010
0100
,
1000
0000
0101
0000
1010
0000
1000
0100
,
0010
0001
0000
0001
0010
0000
1100
0000
,
0011
0000
0001
0100
0010
1000
0100
0000
,
0100
1000
0000
0001
0010
0000
1100
0000
,
0011
0000
0001
0100
0010
0000
1010
0000
,
0100
0001
0000
0001
0010
0000
1100
0000
,
0011
0000
0100
1000
0010
0100
1000
0100
,
0010
0100
0000
0100
0001
0000
0010
0000
,
0100
0001
0100
0000
1000
0010
0100
0000
,
1000
0100
0000
0100
0010
0000
1010
0000
,
0101
0000
0100
0010
0100
1000
0100
0000
,
0010
1000
0000
1000
0100
0000
0100
0001
,
0100
0010
0001
0000
0001
0010
0100
0000
,
1001
2002
0000
3003
0000
1000
0100
0001
,
0100
1000
0000
0010
0001
0010
0100
1000
,
0100
0000
0001
0000
0001
0010
0100
0001
,
0100
1000
0000
0010
0100
1000
0100
0001
,
0010
0100
0001
0100
0000
0100
1000
0010
,
0100
1000
0000
0100
0001
0010
0100
0001
,
0100
0000
1000
0000
0010
0100
1000
0100
,
0010
0100
0000
0001
0010
0100
1000
0100
,
1000
0010
1000
0000
1011
0000
0000
0000
;
