#TITLE:I Love (Orange Things);
#SUBTITLE:;
#ARTIST:Flexe;
#TITLETRANSLIT:;
#SUBTITLETRANSLIT:;
#ARTISTTRANSLIT:;
#CRChallenge:;
#BANNER:orange-banner.avi;
#BACKGROUND:i_love_orange_things-bg.png;
#LYRICSPATH:;
#CDTITLE:;
#MUSIC:i_love_orange_things.ogg;
#OFFSET:0.000;
#SAMPLESTART:59.801;
#SAMPLELENGTH:15.000;
#SELECTABLE:YES;
#DISPLAYBPM:50.000:230.000;
#BPMS:0.000=100.000,56.000=50.000,72.000=25.000,73.500=200.000,113.000=100.000,113.250=400.000,114.250=100.000,114.500=200.000,138.000=400.000,140.000=200.000,156.000=210.000,172.000=220.000,188.000=230.000,204.000=100.000,220.000=200.000;
#STOPS:73.500=0.150
,74.500=0.150
,75.250=0.075
,138.000=2.100
;
#BGCHANGES:;
#NOTES:
     dance-single:
     Spectere:
     Hard:
     11:
     0.682,0.801,0.356,0.281,0.373:
0000
0000
0000
0000
,
0000
0000
0000
0000
,
1000
0001
0010
0000
,
0100
1000
0001
0000
,
0001
1000
0010
0000
0010
1000
0100
0000
0200
0000
2300
0000
3000
0000
0000
0000
,
1000
0001
0100
0000
0100
0001
0010
0000
0200
0000
2300
0000
3000
0000
0000
0000
,
1000
0000
0100
0000
1000
0010
0100
0001
0000
0000
0000
0000
0011
0000
0000
0000
,
0001
0010
0001
0100
0010
1000
0100
0010
0001
0100
0010
1000
0100
1000
0000
0000
,
0011
0000
0000
0000
0000
0000
0101
0000
0000
0000
0000
0000
1010
0000
0000
0000
1000
0000
0000
0000
0100
0000
0000
0000
0010
0000
0000
0000
0000
0000
0001
0000
0000
0100
0000
0000
0001
0000
0000
1000
0000
0000
0010
0000
0000
1000
0000
0000
,
0100
1000
0001
1000
0010
1000
0010
0100
0020
0000
0030
0000
1010
0000
1000
0000
,
1000
0000
0010
0000
0100
0000
0001
0000
0010
0000
0001
0000
1000
0000
0000
1000
0000
0000
1000
0000
0002
0000
0000
0000
0000
0000
0000
0000
0000
0000
0003
0000
,
0001
0010
0100
0010
0100
1000
0001
0010
0001
0100
0010
0001
0010
0100
1000
0100
,
0001
0010
0101
0001
1000
0010
1010
1000
,
0100
0000
0000
0000
0010
0000
0000
0000
1010
0000
0000
0000
0010
0000
0000
0000
0001
0000
0001
0000
0000
0000
0001
0000
0101
0000
0000
0001
0000
0000
0001
0000
,
1000
0010
0100
0000
0100
0001
1000
0000
,
1000
0001
0010
0000
0001
0100
0010
0000
,
0100
0001
0010
0000
0010
0100
1000
0000
,
0001
1000
0100
0000
1000
0010
0100
0000
,
0000
0000
0000
0001
0100
0000
0000
0000
0001
0000
0000
0000
0010
0000
0000
0000
0000
0000
0000
0000
0010
0000
0000
0000
0000
0000
0010
0000
0000
0000
0000
0000
,
1001
0000
1000
0100
1000
0000
0001
0000
0010
0000
0001
0000
0100
0000
0000
0000
,
0010
0010
1000
0010
0100
0001
0010
0001
,
0010
0010
0001
0010
0100
1000
0010
0100
,
1000
0000
0100
0001
0100
0000
0001
0000
0010
0100
0010
0000
0100
0010
0001
0000
,
1000
0000
0001
0100
0001
0000
0010
0000
0100
0000
0010
0000
0001
0000
0000
0000
,
1000
1000
0010
0100
0010
0001
0010
1000
,
0100
0100
1000
0010
0100
0001
0010
0100
,
1000
0000
1000
0100
1000
0000
0010
0000
0100
0001
0010
0000
0100
1000
0001
0000
,
1000
1001
0001
0100
1020
1030
1000
0000
,
0001
0000
0001
0000
2000
0200
0000
0000
0000
3301
0000
0000
1111
0000
0000
0000
,
0001
1000
0001
1000
0100
1000
0200
1300
,
1000
0000
0001
1000
0001
0000
0010
0001
0010
0000
0200
0000
0300
0000
0000
0000
,
1000
0000
0001
0100
0020
0000
0000
0000
0000
0000
0000
0000
0030
0000
0000
0000
,
1000
0100
1001
0010
,
0001
1000
0010
0200
,
0301
0010
1001
0000
,
0001
0000
1000
0000
1010
0000
0000
0000
1000
0100
1000
0000
1010
0000
0000
0000
,
1100
0000
1000
0000
1010
0000
1000
0010
0100
0010
1000
0000
2100
0000
0001
0000
,
3020
0000
2030
0000
0002
0000
0000
3003
,
1001
0000
1000
0000
0100
0000
1000
0000
0001
0010
0001
0000
0100
0010
0001
0010
,
1000
0002
0013
0000
0001
0100
2010
0000
,
3001
0000
0000
0000
0101
0000
0000
0001
0010
0000
0001
0000
0010
0000
0001
0000
,
1000
0000
0000
0000
0010
0000
0000
0010
0100
0000
0001
0000
1000
0000
0000
0000
,
0010
0000
0000
0000
0100
0000
0000
0100
0001
0000
0010
0000
0001
0000
0000
0000
,
1001
0010
0001
0100
1010
0100
0001
0010
,
1001
0000
1000
0000
0001
0000
1000
0000
1001
0000
0000
0000
1000
0010
0100
0001
,
0010
0001
1000
0001
0010
0001
0100
0010
,
0101
0000
0000
0011
0000
0000
0110
0000
0000
1100
0000
0000
0000
0000
0000
0000
,
1000
0000
0010
0000
0100
0000
0001
0010
0001
0100
0010
0000
1000
0000
0100
0000
,
1000
0000
0010
0000
0100
0000
0010
0000
0100
0001
0010
0000
0001
0000
0100
0000
,
0001
0000
0000
0001
0010
0000
0010
0000
0000
0010
0200
0000
1300
0000
0010
0000
,
0100
0010
2000
0000
3100
0000
0020
0000
0032
0000
0203
0000
0020
0000
0330
0000
,
1000
0100
1100
0010
0001
0100
1010
1000
,
0010
0100
1001
0100
0010
1000
1100
0010
,
0100
1000
0011
0100
1000
0100
1010
0010
,
0100
0001
1001
0100
1000
0010
1100
0001
,
1000
0000
0010
0100
0001
0000
0100
0000
0010
0000
0010
0000
1000
0000
0000
0000
,
0100
0100
1000
0010
0100
0001
0010
0001
,
0100
0100
0010
1000
0100
0010
0001
0100
,
0001
0000
0010
0001
0100
0000
0010
0000
1000
0100
0010
0001
1000
0100
0010
0001
,
1000
0000
0001
1000
0001
0000
0010
0000
0001
0000
0100
0000
0010
0000
0000
0000
,
0100
0100
0001
0010
0001
0010
0100
0001
,
0100
0100
1000
0010
0100
0010
1000
0010
,
1000
0000
0010
1000
0001
0000
0010
0000
0001
0100
0010
1000
0001
0100
0010
1000
,
0100
0000
0000
0000
0020
0000
0000
0000
0002
0000
0030
0000
0000
0200
0003
0000
0000
0000
0000
0002
0300
0000
0000
0000
0020
0000
0003
0000
0000
0000
0032
0000
,
0000
0000
0000
0200
0003
0000
0000
0000
0020
0000
0300
0000
0000
0000
0000
0000
0000
0000
0000
0000
0000
0000
0000
0000
0030
0000
0000
0000
0000
0000
0000
0000
,
1100
0000
0020
0030
1001
0000
0001
0000
,
0110
0000
0100
0010
0000
0000
1010
0000
0000
0100
0000
0000
;
#NOTES:
     dance-single:
     Spectere:
     Medium:
     9:
     0.556,0.663,0.099,0.190,0.124:
0000
0000
0000
0000
,
0000
0000
0000
0000
,
1000
0001
0100
0000
,
0001
1000
0100
0000
,
1000
0100
1000
0000
0001
0000
0010
0000
0001
0000
0010
0000
0000
0000
0000
0000
,
0001
0100
0001
0000
0010
0000
0001
0000
0100
0000
0010
0000
0000
0000
0000
0000
,
1000
0000
0100
0000
1000
0010
0100
0000
0001
0000
0010
0000
0101
0000
0000
0000
,
0001
0100
0001
0000
0010
0000
0100
0000
1000
0010
0100
0000
0100
0001
0000
0000
,
1001
0000
0010
0000
0101
0000
0001
0010
0001
0000
0100
0000
0010
1000
0100
0000
,
0100
1000
0001
0000
0010
0000
0001
0000
0200
0000
0000
0000
0310
0000
0000
0000
,
1000
0000
0100
0000
1000
0000
0000
0000
1000
0000
0100
0000
1000
0000
0000
0001
0000
0000
0010
0000
0002
0000
0000
0000
0000
0000
0010
0000
0000
0000
0003
0000
,
0010
0100
1000
0000
0010
0100
0001
0000
0010
0001
0100
0010
1000
0000
0100
0000
,
1000
0100
1100
0000
0100
0010
0011
0000
,
0001
0100
0101
0001
1000
0100
1010
0000
,
1000
0001
0100
0000
0001
1000
0100
0000
,
1000
0010
0100
0000
0002
0000
2003
0000
,
3001
0010
0100
0000
1000
0010
0100
0000
,
0001
1000
0100
0000
2000
0000
3002
0000
,
0003
0000
0000
0100
0001
0000
0000
0000
1000
0000
0000
0000
0001
0000
0000
0000
0000
0000
0000
0000
0001
0000
0000
0000
0000
0000
0001
0000
0000
0000
0000
0000
,
1000
0100
1000
0001
0100
0010
1000
0000
,
1000
0100
1000
0001
0010
0100
1000
0001
,
0100
0001
0100
0010
1000
0010
0100
0001
,
0010
0100
1000
0100
0010
0001
0100
0010
,
1000
0100
1000
0001
0010
0001
0100
0000
,
0010
0100
0001
0010
0100
1000
0100
0010
,
0100
0001
0100
1000
0010
0100
0001
0010
,
0100
1000
0010
1000
0100
1000
0001
0100
,
0002
0000
2003
0000
3010
0100
0001
0000
,
1000
0000
0100
0000
1000
0000
0000
0000
0000
1100
0000
0000
1001
0000
0000
0000
,
1000
0001
1000
0001
1000
0010
1000
0010
,
0100
0001
0100
0001
0010
0100
0010
0100
,
2000
0200
3301
0000
,
1000
0001
0010
0001
0100
0010
1000
0100
,
1000
0010
0100
0010
0100
0010
0100
0001
,
0010
0100
1000
0001
2000
0000
0000
3000
,
0001
0010
0100
0000
1000
0001
1000
0000
,
0001
0100
0001
0100
0001
0000
0010
0000
,
0100
1000
0010
0100
0001
0010
0100
1000
,
0010
0100
0001
0010
0100
1000
0010
0100
,
0002
0000
1003
0000
0100
1000
0100
0000
,
1000
0010
0100
0010
0001
0010
1000
0100
,
1000
0000
0001
0000
0010
0100
0010
0000
,
0001
0100
0010
1000
0100
0000
1100
0000
,
0010
0100
0010
0100
1000
0100
1000
0100
,
1000
0010
1000
0010
0100
0000
0001
0000
,
0010
0100
1000
0010
0100
0001
0100
0010
,
1000
0000
0000
0010
0000
0000
1000
0000
0000
0100
0000
0000
0000
0000
0000
0000
,
0010
0001
0010
0100
0010
0001
0100
0010
,
1000
0010
0100
0001
0010
0100
0010
0001
,
1000
0000
0000
0100
0000
0000
0010
0000
0000
0100
0000
0000
1000
0000
0001
0000
,
0010
0100
1000
0010
0100
0001
0010
0001
,
1000
0100
1000
0001
,
1000
0000
0010
0100
0001
0000
0010
0000
,
0001
0000
0010
0000
0001
0100
0010
0000
,
2000
0000
0001
3000
0200
0000
0301
0000
,
0010
0100
0010
1000
0010
0001
0010
0000
,
0010
0001
0100
0010
1000
0100
1000
0010
,
0100
0001
0010
0100
1000
0001
0100
0010
,
1000
0100
0010
0100
1000
0001
0100
0010
,
1000
0100
1000
0001
0100
0001
0010
0000
,
0001
0100
0010
1000
0100
0010
0100
0001
,
0100
1000
0100
1000
0010
1000
0010
0100
,
0001
0010
0001
0100
0010
0100
0010
1000
,
0100
0000
0000
0000
0020
0000
0000
0000
0002
0000
0030
0000
0000
0200
0003
0000
0000
0000
0000
0002
0300
0000
0000
0000
0020
0000
0003
0000
0000
0000
0032
0000
,
0000
0000
0000
0200
0003
0000
0000
0000
0020
0000
0300
0000
0000
0000
0000
0000
0000
0000
0000
0000
0000
0000
0000
0000
0030
0000
0000
0000
0000
0000
0000
0000
,
2000
0000
0000
3000
1001
0000
0001
0000
,
0010
0000
0001
0010
0000
0000
0101
0000
0000
0100
0000
0000
;
#NOTES:
     dance-single:
     Spectere:
     Easy:
     6:
     0.324,0.385,0.017,0.108,0.008:
0000
0000
0000
0000
,
0000
0000
0000
0000
,
1000
0001
0100
0000
,
0001
1000
0100
0000
,
1000
0100
0010
0000
,
0001
0010
0100
0000
,
1000
0000
0100
0000
0010
0001
0010
0000
,
0100
0000
1000
0000
0010
0100
0001
0010
,
0100
0000
1000
0000
0010
0100
0001
0000
,
0010
0000
0100
0000
0010
0001
0010
0000
,
0001
0000
0100
0000
0010
1000
0100
1000
,
0010
0000
0100
0000
0001
0010
0001
0100
,
0010
0100
0001
0010
,
0001
0000
0100
0000
0010
1000
0100
1000
,
0100
0010
0100
0000
0010
0001
0010
0000
,
0001
0100
0001
0000
0020
0000
0230
0000
,
1300
0010
0100
0000
0001
1000
0100
0000
,
1000
0010
0100
0000
0002
0000
0023
0000
,
0032
0023
0230
0320
0000
0000
0000
0030
,
0001
0010
0100
1000
,
0100
1000
0001
0010
,
0001
0100
0010
1000
,
0100
0100
0010
0001
,
0100
0010
1000
0010
,
0100
0001
0010
0001
,
1000
0100
0010
0001
,
1000
0010
0100
0010
,
1000
0001
0010
0001
,
1000
0000
0000
0000
0100
0000
0000
0000
0000
1000
0000
0000
0010
0000
0000
0000
,
1000
0100
0010
0001
,
0001
0010
0200
0300
,
2000
3002
0013
0001
,
0100
0010
1000
0100
,
1000
0001
1000
0001
,
0100
0010
1000
0000
,
1000
0001
0010
0001
,
0100
0010
1000
0010
,
0100
0001
1000
0010
,
1000
0100
0010
0001
,
0100
0001
1000
0010
,
0100
0001
0010
0001
,
1000
0010
0100
0001
,
0010
0001
0100
0001
,
1000
0010
0100
0010
,
1000
0100
0010
0001
,
0100
0010
1000
0010
,
0200
0000
0000
0000
0000
0000
0000
0000
0300
0001
0000
0000
0000
0000
0000
0000
,
0001
0010
0001
0010
,
0001
1000
0001
1000
,
0100
1000
0100
1000
,
0010
0000
1000
0000
0010
0000
2000
3000
,
0100
0010
0001
0000
,
0100
0010
1000
0000
,
0100
0010
0100
0000
,
1000
0010
0100
0000
,
0001
0010
0100
0010
,
0001
0100
0010
1000
,
0100
1000
0010
0100
,
0010
1000
0001
0010
,
0001
0100
0010
0100
,
0001
1000
0010
1000
,
0001
0010
0100
1000
,
0001
0100
0010
1000
,
0100
0000
1100
0000
,
0100
0010
0001
0000
,
0001
0000
0101
0000
,
0100
0010
1000
0000
;
#NOTES:
     dance-single:
     Spectere:
     Beginner:
     3:
     0.241,0.358,0.000,0.033,0.004:
0000
0000
0000
0000
,
0000
0000
0000
0000
,
1000
0100
0010
0000
,
0001
0100
0010
0000
,
1000
0100
0010
0000
,
0001
0100
0010
0000
,
1000
0010
0100
0000
,
0001
0010
0100
0000
,
1000
0001
0100
0000
,
0001
1000
0010
0000
,
1000
0100
0010
0000
,
0001
0100
0001
0000
,
1000
0100
1000
0000
,
0010
0100
0001
0000
,
1000
0100
0010
0000
0001
0100
0010
0000
,
1000
0010
0100
0000
0001
0010
0100
0000
,
1000
0001
0100
0000
0001
1000
0100
0000
,
1000
0010
0100
0000
0010
1000
0100
0000
,
2000
0000
3200
0000
0000
0000
0000
0300
,
0010
0001
0100
0000
,
0001
0000
0010
0000
,
0001
0100
0010
0000
,
1000
0000
0100
0000
,
1000
0010
0100
0000
,
0010
0000
1000
0000
,
0001
1000
0100
0000
,
1000
0000
0001
0000
,
0010
0001
0010
0001
,
0100
0000
0000
0000
0000
0000
0000
0000
0000
0010
0000
0000
0000
0000
0000
0000
,
1000
0100
1000
0000
,
0001
0010
0001
0000
,
0010
0100
1000
0000
,
0010
0000
0100
0000
,
0001
0010
0100
0000
,
0010
0000
0001
0000
,
0100
0010
1000
0100
,
0010
0000
0010
0000
,
0001
0100
0010
0000
,
0010
1000
0100
0000
,
0100
1000
0010
0100
,
0001
0000
0001
0000
,
0010
0100
1000
0000
,
1000
0100
0010
0000
,
0001
0100
0010
0000
,
0010
0100
0001
0000
,
0001
1000
0100
0000
,
0200
0000
0000
0300
,
1000
0100
0010
0001
,
1000
0000
0010
0000
,
0100
0001
0010
0001
,
0100
0010
1000
0000
,
0100
0010
0001
0000
,
0100
0010
1000
0000
,
0100
0010
0001
0000
,
1000
0010
1000
0000
,
0001
0010
0100
0000
,
1000
0010
0100
0000
,
0100
0001
0010
0100
,
1000
0000
0100
0000
,
0010
0001
0100
0000
,
0100
0010
1000
0000
,
1000
0001
0010
0100
,
0010
0001
1000
0000
,
0010
1000
0100
0000
,
1000
0010
0100
0000
,
0100
0002
0013
0000
,
0010
0001
0100
0000
;
