#TITLE:I Can Walk on Water, I Can Fly;
#SUBTITLE:;
#ARTIST:Basshunter;
#TITLETRANSLIT:;
#SUBTITLETRANSLIT:;
#ARTISTTRANSLIT:;
#CRChallenge:;
#BANNER:water.png;
#BACKGROUND:water-bg.png;
#LYRICSPATH:;
#CDTITLE:!cdtitle.png;
#MUSIC:water.ogg;
#OFFSET:0.000;
#SAMPLESTART:53.083;
#SAMPLELENGTH:12.000;
#SELECTABLE:YES;
#BPMS:0.000=140.000;
#STOPS:;
#BGCHANGES:;
#NOTES:
     dance-single:
     Renard:
     Hard:
     9:
     0.595,0.637,0.366,1.000,0.03:
0000
0000
0000
0000
,
0000
0000
0000
0000
,
0000
0000
0000
0000
,
0000
0000
0000
0000
,
0000
0000
0000
1001
,
M002
0M00
00M0
M203
M320
000M
2M30
320M
,
M320
M000
000M
0M32
M023
000M
0M00
000M
,
M230
000M
00M0
230M
30M2
0M00
M203
M320
,
203M
0M00
00M0
3M02
0M23
M000
000M
0M00
,
023M
M000
00M0
230M
30M2
00M0
M023
M230
,
230M
000M
0M00
30M2
02M3
M000
00M0
000M
,
M320
0M00
M000
2M30
3M02
00M0
0M23
M230
,
230M
00M0
0M00
30M2
0M23
0M00
M000
000M
,
0M31
0000
0000
0000
0000
0000
0001
0010
0001
0000
1100
0000
0011
0000
1100
0000
,
0012
0000
0103
0002
0023
0230
2300
3002
,
2003
0000
3010
0100
0002
0000
0013
0100
,
2000
0000
3100
0020
0032
2003
3020
0230
,
0302
0000
0013
0100
2000
0000
3MM1
0000
,
2100
0000
3010
2000
3200
0320
0032
2003
,
3002
0000
0103
0010
2000
0000
3100
0010
,
0002
0000
0013
0200
2300
3002
0203
0320
,
2030
0000
3100
0010
0002
1000
1MM3
0000
,
0002
0000
0000
0103
0020
0000
1030
0100
,
0020
0000
0000
0031
0020
0000
0000
0000
,
0230
0000
0000
1300
0020
0000
0130
0001
,
0020
0000
0000
0130
2000
0000
0000
0000
,
3002
0000
0000
1003
0020
0000
0130
0001
,
0020
0000
0000
0031
2000
0000
0000
0000
,
3002
0000
0000
1003
0020
0000
0130
0001
,
0020
0000
0000
0130
2000
0000
0000
3000
,
1001
0000
0000
0000
0000
0000
1000
0001
1000
0000
1000
0000
1000
0000
1000
0000
,
1002
0000
0013
0001
0010
0100
1000
0010
,
2010
0000
3001
0010
0100
0000
1100
0000
,
1020
0000
0130
0010
1000
0100
0010
0001
,
0012
0000
0103
0010
2010
0010
0100
3100
,
1200
0000
0310
0001
0100
0100
0010
1000
,
1200
0000
0310
0001
0012
0000
0103
0010
,
1020
0000
0130
0001
0010
0010
0100
1000
,
2100
0000
0000
0000
3010
0000
0100
0000
0001
0000
1000
0000
0001
0010
0100
1000
,
0001
0000
0101
0001
0010
0100
1100
1000
,
0010
0000
1010
0010
0100
0000
0110
0100
,
0001
0000
0101
0001
0010
0100
0110
0100
,
1000
0000
1010
0010
0100
0001
1001
1000
,
0100
0000
1100
1000
0001
0001
0011
0010
,
0100
0000
0110
0100
1000
0000
1010
0010
,
0100
0000
0101
0001
0010
0000
0110
0010
,
0001
0000
0000
0000
0001
0000
1000
0100
1000
0000
1000
0000
1000
0000
0000
0000
,
2M01
00M0
0M00
301M
020M
M000
M301
M010
,
020M
M000
000M
M310
M002
00M0
0M00
M000
,
02M3
000M
M000
03M1
M020
000M
M130
100M
,
00M2
0M00
M000
01M3
M020
000M
0M00
M000
,
203M
0M00
000M
301M
M200
00M0
M301
M010
,
020M
00M0
M000
130M
00M2
0M00
M000
0M00
,
M023
0M00
000M
M031
2M00
00M0
3M10
010M
,
00M2
0M00
M000
1M03
02M0
000M
M000
00M0
,
031M
0000
0000
0000
0000
0000
0001
1000
0001
0000
0110
0000
1001
0000
0110
0000
,
1001
0000
0000
0000
;
#NOTES:
     dance-single:
     Renard:
     Medium:
     7:
     0.411,0.388,0.109,0.455,0.000:
0000
0000
0000
0000
,
0000
0000
0000
0000
,
0000
0000
0000
0000
,
0000
0000
0000
0000
,
0000
0000
0000
1001
,
2000
0000
0000
3100
0020
0000
0031
0010
,
0200
0000
0000
1300
0001
0000
0000
0000
,
2000
0000
3000
0001
0200
0000
0310
1000
,
0200
0000
0000
0310
0001
0000
0000
0000
,
0020
0000
0000
0031
2000
0000
3010
0100
,
0002
0000
0000
1003
0100
0000
0000
0000
,
2000
0000
0000
3001
0020
0000
0031
1000
,
0020
0000
0000
0130
0002
0000
0000
0000
,
1003
0000
0000
1000
0100
0010
0001
1000
,
0100
0000
1100
0000
1000
0100
0010
0001
,
0010
0011
0001
0001
,
0100
0000
0101
0000
0100
0010
1000
0100
,
1000
1100
1000
1000
,
0010
0000
1010
0000
0010
1000
0001
0100
,
0001
0101
0100
0100
,
0001
0000
0011
0000
0001
0010
0100
1000
,
0100
0000
1000
0000
0100
1000
0001
0000
,
20MM
00MM
32MM
00MM
,
M32M
0000
M000
0031
MM20
0000
M00M
0000
,
MM32
MM00
MM23
MM00
,
M23M
0000
000M
1300
02MM
0000
M00M
0000
,
23MM
0000
000M
3010
020M
0000
M000
0301
,
M020
0000
0M00
0031
2M00
0000
00M0
0000
,
32M0
0000
000M
0310
M002
0000
0M00
1003
,
0M20
0000
000M
0130
M002
0000
0M00
0000
,
10M3
0000
0000
1000
0100
0010
0001
1000
,
0001
0000
0001
0010
0100
0000
0100
0010
,
0001
0000
1000
0010
1000
0000
0000
0000
,
0010
0000
0010
1000
0100
0000
0100
1000
,
0001
0000
0001
0010
0100
0000
0100
0000
,
0010
0000
0010
0001
1000
0000
1000
0010
,
0100
0000
0100
0010
1000
0000
1001
0000
,
1000
0000
1000
0100
0010
0000
0010
0001
,
1000
0001
0100
1001
,
0001
0000
0000
0100
0010
0000
0010
1000
,
0100
0000
0010
0001
0010
0000
0100
1000
,
0001
0000
0000
0001
0100
0000
0010
1000
,
0100
0000
1000
0001
0010
0000
0001
1000
,
0100
0000
0000
0100
1000
0000
0001
0010
,
0001
0000
0000
1000
0010
0000
1000
0001
,
1000
0000
0000
0001
0100
0000
0001
0010
,
0100
0000
0000
1000
0100
0010
0001
1000
,
0002
0000
0000
1003
0002
0000
0103
0010
,
2000
0000
0000
3010
2000
0000
0000
0000
,
3200
0000
0000
0310
0200
0000
0310
0001
,
2000
0000
0000
3001
2000
0000
0000
0000
,
3002
0000
0000
0103
0020
0000
0130
0010
,
2000
0000
0000
3100
0020
0000
0000
0000
,
0032
0000
0000
0013
0200
0000
1300
0100
,
2000
0000
0000
3002
2000
0000
0000
0000
,
0010
3003
0000
1000
0100
0010
0001
1000
,
1001
0000
0000
0000
;
#NOTES:
     dance-single:
     Renard:
     Easy:
     4:
     0.243,0.277,0.010,0.000,0.000:
0000
0000
0000
0000
,
0000
0000
0000
0000
,
0000
0000
0000
0000
,
0000
0000
0000
0000
,
0000
0000
0000
0000
,
1000
0000
0000
0001
0100
0000
0010
0000
,
1000
0000
0000
0100
0010
0000
0000
0000
,
0001
0000
0000
0010
0100
0000
1000
0000
,
0010
0000
0000
0100
0001
0000
0000
0000
,
1000
0000
0000
0100
1000
0000
0001
0000
,
0100
0000
0000
0010
1000
0000
0000
0000
,
0100
0000
0000
0010
0001
0000
0010
0000
,
0100
0000
0000
1000
0001
0000
0000
0000
,
0100
0000
0000
0000
0001
1000
0001
1000
,
0010
0000
1000
0010
,
0100
0000
0000
0001
1000
0000
0000
0000
,
0100
0000
0010
0001
,
1000
0000
0000
0010
1000
0000
0000
0000
,
0001
0000
0100
0010
,
1000
0000
0000
0001
0010
0000
0000
0000
,
0100
0000
1000
0001
,
0100
0000
0000
0010
1000
0000
0000
0000
,
0001
0000
0100
0010
,
1000
0000
0010
0000
,
1000
0000
0100
0010
,
0001
0000
1000
0000
,
0001
0000
0100
0010
,
1000
0000
0100
0000
,
0010
0000
0001
0010
,
0100
0000
1000
0000
,
1001
0000
0000
0000
0001
1000
0001
1000
,
0010
0000
1000
0100
,
0010
0000
0000
0001
0010
0000
0000
0000
,
0100
0000
0000
1000
0010
0000
0000
0100
,
0001
0000
0000
0010
0001
0000
0000
0000
,
1000
0000
0000
0000
0100
0010
0001
0010
,
0100
0000
0000
1000
0001
0000
0000
0100
,
0010
0000
0000
1000
0010
0000
0000
0100
,
0001
0000
0000
1000
0100
0000
0010
0000
,
0001
0000
0000
0010
0001
0000
0000
0010
,
0100
0000
0000
1000
0100
0000
0000
1000
,
0010
0000
0000
0100
0001
0000
0000
0010
,
0001
0000
0000
1000
0100
0000
0000
0010
,
0001
0000
0000
1000
0010
0000
0000
0100
,
0001
0000
0000
1000
0100
0000
0000
0010
,
0001
0000
0000
1000
0010
0000
0000
0100
,
0001
0000
0000
0010
0001
0000
1000
0000
,
0100
0000
1000
0001
,
0100
0000
0010
0000
,
1000
0000
0010
0100
,
0001
0000
1000
0000
,
0100
0000
0010
0001
,
0010
0000
0100
0000
,
1000
0000
0010
0100
,
0001
0000
0000
0010
0100
0000
0000
0000
,
1000
0000
0000
0000
0001
0100
0001
1000
,
0010
0000
0000
0000
;
#NOTES:
     dance-single:
     Renard:
     Beginner:
     3:
     0.314,0.471,0.485,0.386,0.000:
0000
0000
0000
0000
,
0000
0000
0000
0000
,
0000
0000
0000
0000
,
0000
0000
0000
0000
,
0000
0000
0000
1000
,
0002
0000
0203
0000
,
0320
0000
1030
0000
,
2000
0000
3020
0000
,
0230
0000
0301
0000
,
0002
0000
0023
0000
,
0230
0000
1300
0000
,
2000
0000
3200
0000
,
0320
0000
0031
0000
,
1001
0000
0010
0010
,
1000
0000
0001
0001
,
0200
0000
0310
0000
,
0010
0000
0100
0100
,
0002
0000
1003
0000
,
1000
2000
3100
0200
,
0310
0020
0032
0000
,
1003
2000
3010
0020
,
0230
0000
0302
0000
,
2003
0000
0000
0000
,
3002
0000
0000
0000
,
0203
0000
0000
0000
,
0320
0000
2030
0000
,
3002
0000
0203
0000
,
0320
0000
2030
0000
,
3002
2003
3002
2003
,
3002
2003
3002
2003
,
3010
0000
0010
0010
,
1010
0000
0011
0000
,
0101
1100
1010
0000
,
0011
0000
0101
0000
,
1100
1010
0011
0000
,
0101
0000
1100
0000
,
1010
0011
0101
0000
,
1100
0000
1010
0000
,
0011
0101
1100
0000
,
1010
0011
0101
0000
,
0101
1100
1010
0000
,
1010
0011
0101
0000
,
0101
1100
1010
0000
,
1010
0011
0101
0000
,
1100
1010
0011
0000
,
0101
1100
1010
0000
,
0011
1100
1010
0011
,
1001
0000
0100
0100
,
0010
0000
0010
0000
,
0100
0000
0100
0100
,
0001
0000
0001
0000
,
1000
0000
1000
1000
,
0010
0000
0010
0000
,
0100
0000
0100
0100
,
0001
1000
0100
1000
,
1001
0000
0010
0010
,
1001
0000
0000
0000
;
