#TITLE:Hyun Jin Young Go Jin Young Go;
#SUBTITLE:;
#ARTIST:Hyun Jin Young;
#TITLETRANSLIT:;
#SUBTITLETRANSLIT:;
#ARTISTTRANSLIT:;
#CRChallenge:;
#BANNER:hyun.png;
#BACKGROUND:hyun-bg.png;
#LYRICSPATH:;
#CDTITLE:;
#MUSIC:hyun.ogg;
#OFFSET:0.000;
#SAMPLESTART:39.519;
#SAMPLELENGTH:12.000;
#SELECTABLE:YES;
#BPMS:0.000=75.000;
#STOPS:;
#BGCHANGES:;
#NOTES:
     dance-single:
     Renard:
     Medium:
     12:
     0.946,0.908,0.998,0.224,1.000:
0000
0000
0000
0000
,
0001
0100
0001
1000
0100
1000
0001
0010
0100
0000
0000
0000
0110
0000
0000
0000
0100
1000
0001
0100
0001
1000
0010
0100
0001
1000
0100
0010
0001
0000
0000
0000
,
1100
0000
0100
1000
0001
0010
0001
1000
0100
1000
0001
0100
0001
1000
0010
0100
0001
1000
0010
1000
0001
0010
0001
1000
0100
0010
0001
1000
0100
1000
0001
0100
,
0010
1000
0001
0100
0010
1000
0100
0010
0001
1000
0100
0010
0001
0000
0000
0000
0001
0010
0100
1000
0100
0010
0001
1000
0100
0010
0001
0010
0100
0000
0000
0000
,
1000
0010
1000
0001
0100
0010
1000
0001
0100
0001
1000
0010
0100
0000
0000
0000
0001
0100
0010
1000
0001
1000
0100
0010
0100
1000
0001
0010
0100
0010
0001
1000
,
0001
0000
1000
0100
0010
0001
1000
0001
0100
0000
0001
0000
0100
0000
0000
0000
1010
0000
0100
0000
0011
0000
0100
0000
0001
0100
0010
1000
0100
0010
0001
0000
,
1000
0000
0100
1000
0001
0010
0001
1000
0010
0100
0001
0000
0000
0000
1000
0000
0001
0100
0001
1000
0100
0010
0001
1000
0010
0100
0001
0000
1000
0000
0000
0000
,
1001
0110
1001
0110
1001
0110
2002
0000
0010
0000
0010
0000
3013
0000
0000
0000
,
0110
1001
0110
1001
0110
1001
0220
0000
1000
0000
0001
0000
1330
0000
0000
0000
,
1001
0110
1001
0110
1001
0110
2002
0000
0010
0000
0010
0000
3013
0000
0000
0000
,
0110
1001
0110
1001
0110
1001
0220
0000
1000
0000
0001
0000
1330
0000
0000
0000
,
0010
1000
0001
0100
0001
1000
0100
0010
0001
0000
0000
0000
1001
0000
0000
0000
0001
0100
0001
1000
0100
0010
0001
1000
0010
0100
0001
1000
0100
0000
0000
0000
,
0010
0000
0001
0010
0100
1000
0010
0100
0001
0010
0100
1000
0100
0010
0001
0100
0010
1000
0100
0010
0001
0010
0100
1000
0010
0100
0001
0010
0100
1000
0001
0100
,
0010
1000
0100
0010
0001
0010
0100
1000
0001
0100
0010
1000
0100
0000
0000
0000
0011
0000
0100
0000
1010
0000
0100
0000
1001
0000
0000
0000
0110
0000
1001
0000
,
0110
0000
0010
1000
0001
0100
0010
1000
0100
0010
0001
1000
0001
0000
1001
0000
0110
0000
1000
0000
0010
1000
0001
0100
0010
1000
0100
0010
0001
1000
0100
1000
,
0001
0010
0100
0010
0001
0000
1001
0000
0000
0000
0010
0100
1000
0000
0000
0000
0101
0000
0010
0000
0010
0000
1000
0010
0100
0000
0001
0100
0010
0000
1000
0000
,
0001
0000
0100
0001
1000
0000
0100
1000
0001
0000
0100
0001
1000
0000
0001
0000
0011
0000
0100
0000
1010
0000
0100
0000
1001
0000
1001
0000
0110
0000
0000
0000
,
1001
0110
1001
0110
1001
0110
2002
0000
0010
0000
0010
0000
3013
0000
0000
0000
,
0110
1001
0110
1001
0110
1001
0220
0000
1000
0000
0001
0000
1330
0000
0000
0000
,
1001
0110
1001
0110
1001
0110
2002
0000
0010
0000
0010
0000
3013
0000
0000
0000
,
0110
1001
0110
1001
0110
1001
0220
0000
1000
0000
0001
0000
1330
0000
0000
0000
,
0010
1000
0100
0001
0000
0001
0000
0001
0100
0010
0001
0010
1000
0010
0100
0001
,
0100
1000
0010
0001
0000
0001
0000
0001
0010
0100
1000
0100
0001
0010
0100
0001
,
0100
1000
0010
0001
0000
0010
0000
1000
0100
0001
0100
0010
0001
0010
1000
0010
,
0100
0001
0100
1000
0000
1000
0000
0010
0001
0010
0100
1000
0100
0001
0010
0000
,
0001
0100
0001
1000
0100
1000
0001
0010
0100
0000
0000
0000
0110
0000
0000
0000
0100
1000
0001
0100
0001
1000
0010
0100
0001
1000
0100
0010
0001
0000
0000
0000
,
1100
0000
0100
1000
0001
0010
0001
1000
0100
1000
0001
0100
0001
1000
0010
0100
0001
1000
0010
1000
0001
0010
0001
1000
0100
0010
0001
1000
0100
1000
0001
0100
,
0010
1000
0001
0100
0010
1000
0100
0010
0001
1000
0100
0010
0001
0000
0000
0000
0001
0010
0100
1000
0100
0010
0001
1000
0100
0010
0001
0010
0100
0000
0000
0000
,
1000
0010
1000
0001
0100
0010
1000
0001
0100
0001
1000
0010
0100
0000
0000
0000
0001
0100
0010
1000
0001
1000
0100
0010
0100
1000
0001
0010
0100
0010
0001
0000
,
1001
0110
1001
0110
1001
0110
2002
0000
0010
0000
0010
0000
3013
0000
0000
0000
,
0110
1001
0110
1001
0110
1001
0220
0000
1000
0000
0001
0000
1330
0000
0000
0000
,
1001
0110
1001
0110
1001
0110
2002
0000
0010
0000
0010
0000
3013
0000
0000
0000
,
0110
0000
1001
0000
0110
0000
1001
0000
0110
0000
1001
0000
0220
0000
0000
0000
1000
0000
0000
0000
0001
0000
0000
0000
1330
0000
0000
0000
0001
1000
0100
0000
,
1110
0000
0000
0000
;
#NOTES:
     dance-single:
     Renard:
     Challenge:
     13:
     0.945,0.908,0.998,0.224,1.000:
0000
0000
0000
0000
,
0001
1000
1000
1000
0001
1000
1000
1000
0001
0000
0000
0000
0110
0000
0000
0000
1000
0001
0001
0001
1000
0001
0001
0001
1000
0001
0001
0001
1000
0000
0000
0000
,
0000
0000
0001
0100
0100
0100
0010
1000
1000
1000
0001
0100
0100
0100
0010
1000
1000
1000
0010
0100
0100
0100
0001
0010
0010
1000
0010
0010
0001
0010
0010
1000
,
0010
0010
0001
0100
0100
1000
0100
0100
0001
0100
0100
1000
0001
0000
0000
0000
0001
0100
0100
0010
0010
1000
1000
0001
0100
0010
1000
0001
0100
0000
0000
0000
,
1000
0001
0001
0001
1000
0001
0001
0001
0100
0010
0010
0010
0100
0000
0000
0000
0001
1000
1000
1000
0001
0100
0100
1000
0001
0001
0001
1000
0010
0010
0001
1000
,
0001
0000
1000
0010
0010
0001
1000
0100
0100
0000
0001
0000
0100
0000
0000
0000
1010
0000
0100
0000
0011
0000
0100
0000
0001
0001
0001
0001
0001
0001
0001
0000
,
1000
0000
0100
0100
0001
0010
0010
1000
0100
0100
0001
0000
0000
0000
1001
0000
0100
0001
0010
0010
1000
0100
0100
0001
0010
0010
1000
0000
0001
0000
0000
0000
,
1001
0110
1001
0110
1001
0110
2002
0000
0010
0000
0010
0000
3013
0000
0000
0000
,
0110
1001
0110
1001
0110
1001
0220
0000
1000
0000
0001
0000
1330
0000
0000
0000
,
1001
0110
1001
0110
1001
0110
2002
0000
0010
0000
0010
0000
3013
0000
0000
0000
,
0110
1001
0110
1001
0110
1001
0220
0000
1000
0000
0001
0000
1330
0000
0000
0000
,
1000
0010
0010
0001
0010
0010
1000
0010
0100
0000
0000
0000
1001
0000
0000
0000
0001
0100
0100
1000
0010
0010
0001
0100
0100
1000
0010
0010
0001
0000
0000
0000
,
0010
0000
0001
1000
1000
1000
0010
0100
0100
0100
0001
0010
0010
0010
0100
1000
1000
1000
0001
0010
0010
0010
0100
1000
0010
0010
0001
0010
0010
1000
0010
0010
,
0001
0100
0100
1000
0100
0100
0001
0100
0100
1000
0100
0100
0001
0000
0000
0000
0011
0000
0100
0000
1010
0000
0100
0000
1001
0000
0000
0000
0110
0000
1001
0000
,
0110
0000
0010
0100
0100
0100
0010
0100
0100
0100
0001
1000
0001
0000
1001
0000
0110
0000
1000
0000
0010
1000
1000
1000
0001
0010
0010
0010
0100
0010
0010
1000
,
0010
0010
0001
0010
0010
0000
1001
0000
0000
0000
0010
0100
1000
0000
0000
0000
0101
0000
0010
0000
0010
0000
1000
1000
1000
0000
0001
0001
0001
0000
1000
0000
,
0001
0000
0010
0010
1000
0000
0100
0100
0001
0000
0010
0010
1000
0000
0001
0000
0011
0000
0100
0000
1010
0000
0100
0000
1001
0000
1001
0000
0110
0000
0000
0000
,
1001
0110
1001
0110
1001
0110
2002
0000
0010
0000
0010
0000
3013
0000
0000
0000
,
0110
1001
0110
1001
0110
1001
0220
0000
1000
0000
0001
0000
1330
0000
0000
0000
,
1001
0110
1001
0110
1001
0110
2002
0000
0010
0000
0010
0000
3013
0000
0000
0000
,
0110
1001
0110
1001
0110
1001
0220
0000
1000
0000
0001
0000
1330
0000
0000
0000
,
0010
1000
0100
0001
0000
0001
0000
0001
0100
0010
0001
0010
1000
0010
0100
0001
,
0100
1000
0010
0001
0000
0001
0000
0001
0010
0100
1000
0100
0001
0010
0100
0001
,
0100
1000
0010
0001
0000
0010
0000
1000
0100
0001
0100
0010
0001
0010
1000
0010
,
0100
0001
0100
1000
0000
1000
0000
0010
0001
0010
0100
1000
0100
0001
0010
0000
,
1000
0001
0001
0001
1000
0001
0001
0001
1000
0000
0000
0000
0110
0000
0000
0000
0001
1000
1000
1000
0001
1000
1000
1000
0001
1000
1000
1000
0001
0000
0000
0000
,
0000
0000
1000
0010
0010
0010
0100
0001
0001
0001
1000
0010
0010
0010
0100
0001
0001
0001
0100
0010
0010
0010
1000
0100
0100
0001
0100
0100
1000
0100
0100
0001
,
0100
0100
1000
0010
0010
0001
0010
0010
1000
0010
0010
0001
1000
0000
0000
0000
1000
0010
0010
0100
0100
0001
0001
1000
0010
0100
0001
1000
0010
0100
0001
0000
,
1000
0001
0001
0001
1000
0001
0001
0001
0100
0010
0010
0000
1001
0000
0000
0000
0001
1000
1000
1000
0001
0100
0100
1000
0001
0001
0001
1000
0010
0010
0001
0000
,
1001
0110
1001
0110
1001
0110
2002
0000
0010
0000
0010
0000
3013
0000
0000
0000
,
0110
1001
0110
1001
0110
1001
0220
0000
1000
0000
0001
0000
1330
0000
0000
0000
,
1001
0110
1001
0110
1001
0110
2002
0000
0010
0000
0010
0000
3013
0000
0000
0000
,
0110
0000
1001
0000
0110
0000
1001
0000
0110
0000
1001
0000
0220
0000
0000
0000
1000
0000
0000
0000
0001
0000
0000
0000
1330
0000
0000
0000
0001
1000
0100
0000
,
1110
0000
0000
0000
;
#NOTES:
     dance-single:
     Renard:
     Easy:
     7:
     0.473,0.416,0.606,0.000,0.364:
0000
0000
0000
0000
,
0001
0000
1000
0000
0100
1000
0001
0000
0100
0000
0001
0000
1000
0001
0100
0000
,
0001
0000
1000
0000
0001
0010
0001
0000
1001
0000
0110
0000
1001
0000
0000
0000
,
1001
0000
0000
1100
0000
0000
1000
0001
0100
0000
0110
0000
0101
0000
0000
0000
,
1001
0000
0000
1100
0000
0000
1000
0001
0100
0000
0110
0000
0101
0000
1001
0000
,
1100
0000
0000
1001
0000
0000
1000
0001
0010
0000
0011
0000
1001
0000
0000
0000
,
0101
0000
0000
0110
0000
0000
0010
1000
0100
0000
1100
0000
1001
0000
1010
0000
,
1000
0000
0001
0100
0010
1000
0010
0000
1000
0000
1000
0000
1000
0000
0000
0000
,
0001
0000
0100
0010
1000
0001
1000
0000
1100
0000
1100
0000
1100
0000
0000
0000
,
0011
0000
0000
1100
0000
0000
0011
0000
1000
0100
0010
0001
1000
0000
1001
0000
,
1100
0000
0000
0011
0000
0000
1001
0000
0001
0100
0010
1000
0001
0000
1000
0000
,
0001
0100
0001
0100
0000
0000
0001
0000
1000
0000
1000
0000
1000
0000
0000
0000
,
0100
1000
0100
1000
0000
0000
0001
0000
0010
0000
0010
0000
0010
0000
0001
0000
,
1000
0010
1000
0010
0000
0000
1000
0000
0001
0000
0001
0000
0001
0000
0100
0000
,
0001
1000
0001
1000
0000
0000
0010
0000
0100
0000
0100
0000
0001
0000
1000
0000
,
0100
0010
0100
0010
0000
0000
0001
0000
1000
0000
1000
0000
1000
0000
0010
0000
,
0100
0001
0100
0001
0000
0000
0100
0000
0010
0000
0010
0000
0010
0000
1000
0000
,
0100
0010
0001
0010
0100
1000
0001
0000
1001
0000
1001
0000
1001
0000
0000
0000
,
0001
0010
0100
1000
0100
0010
0001
0000
1001
0000
1001
0000
1001
0000
0000
0000
,
1000
0100
0010
0001
0010
0100
1000
0000
1001
0000
1001
0000
1001
0000
0000
0000
,
0001
0010
0100
1000
0100
0010
0001
0000
1001
0000
1001
0000
1001
0000
0000
0000
,
1000
0000
0000
0010
0000
0000
0000
0000
0100
0001
0100
0001
0100
0000
0001
0000
,
0100
0000
0000
0001
0000
0000
0000
0000
0010
0100
0010
0100
0010
0100
0010
0000
,
0100
0000
0000
1000
0000
0000
0000
0000
0001
0100
0001
0100
0001
0100
0001
0000
,
0100
0000
0000
0010
0000
0000
0000
0000
1000
0010
1000
0010
1000
0010
1000
0001
,
1000
0000
1000
0001
0100
0000
0110
0000
0010
0000
0010
0000
0100
0001
1000
0000
,
0001
0000
0001
0000
1000
0100
1000
0000
1001
0000
1001
0000
0110
0000
0000
0000
,
0010
0000
0010
0100
0001
0000
0101
0000
0100
0000
0100
0000
0100
0000
0010
0000
,
1000
0000
1000
0100
0000
0000
1100
0000
0110
0000
0110
0000
0011
0000
0010
0000
,
0001
0010
0100
1000
0100
0010
0001
0000
1001
0000
1001
0000
1001
0000
0000
0000
,
1000
0010
0100
0001
0100
0010
1000
0000
1001
0000
1001
0000
1001
0000
0000
0000
,
0001
0100
0010
1000
0010
0100
0001
0000
1001
0000
1001
0000
1001
0000
0000
0000
,
1000
0100
0010
0001
0010
0100
1000
0000
1001
0000
0110
0000
1001
0000
0100
0000
,
1001
0000
0000
0000
;
#NOTES:
     dance-single:
     Renard:
     Beginner:
     4:
     0.239,0.231,0.009,0.037,0.000:
0000
0000
0000
0000
,
0001
0000
0001
0000
1000
0100
0010
0000
,
0001
0000
0001
0000
1000
0010
0100
0000
,
0010
0000
0010
0000
1000
0010
0100
0000
,
0001
0000
0001
0000
0010
0001
1000
0000
,
0100
0000
0100
0000
0010
0001
1000
0000
,
0010
0000
0010
0000
0100
0001
0100
0000
,
0010
1000
0001
1000
0100
0100
0100
0000
,
0010
0001
1000
0001
0100
0100
0100
0000
,
0010
1000
0100
0000
1000
1000
1000
0000
,
0001
0010
0001
0000
0100
0100
0100
0000
,
0010
0000
1000
0000
0010
1000
0001
0000
,
0100
0000
0001
0000
1000
0100
0010
0000
,
0001
0000
0010
0000
0001
0010
0100
0000
,
1000
0000
0010
0000
0100
0010
1000
0001
,
0010
0000
0010
0000
0001
1000
0100
0000
,
1000
0000
1000
0000
0001
0100
0010
1000
,
0002
0000
0000
0000
1003
1000
1000
0000
,
0020
0000
0000
0000
0130
0100
0100
0000
,
0002
0000
0000
0000
0013
0010
0010
0000
,
0200
0000
0000
0000
1300
1000
1000
0000
,
0001
0000
0001
0000
1000
1000
1000
0000
,
0100
0000
0100
0000
0010
0010
0010
0000
,
0001
0000
0001
0000
1000
1000
1000
0000
,
0010
0000
0010
0000
0100
0100
0100
0000
,
0001
0000
0100
0000
1000
0100
0001
0000
,
0010
0000
1000
0000
0010
0001
1000
0000
,
0010
0000
0001
0000
0010
1000
0001
0000
,
0100
0000
1000
0000
0100
0001
1000
0000
,
0001
1000
0100
0010
0001
0001
0001
0000
,
1000
0010
0100
0001
0010
0010
0010
0000
,
0001
0010
0100
1000
0001
0001
0001
0000
,
1000
0010
0100
0001
1000
0010
0100
0001
,
1001
0000
0000
0000
;
