#TITLE:Humanoid (Remix Version);
#SUBTITLE:;
#ARTIST:U;
#TITLETRANSLIT:;
#SUBTITLETRANSLIT:;
#ARTISTTRANSLIT:;
#CRChallenge:;
#BANNER:humanoid.png;
#BACKGROUND:humanoid-bg.png;
#LYRICSPATH:;
#CDTITLE:;
#MUSIC:humanoid.ogg;
#OFFSET:0.000;
#SAMPLESTART:19.180;
#SAMPLELENGTH:12.000;
#SELECTABLE:YES;
#BPMS:0.000=100.000;
#STOPS:;
#BGCHANGES:;
#NOTES:
     dance-single:
     Renard:
     Medium:
     9:
     0.612,0.638,0.852,0.000,0.743:
0000
0000
0000
0000
,
0000
0000
0000
0000
,
0000
0000
0000
0000
,
0000
0000
0000
0000
,
0101
0000
0000
0000
0000
1001
0000
1100
0000
0000
0000
0000
1100
0000
0110
0000
,
0011
0000
0000
0000
0000
0110
0000
1100
0000
0000
0000
0000
1010
0000
0110
0000
,
0101
0000
0000
0000
0000
0011
0000
0110
0000
0000
0000
0000
0110
0000
1100
0000
,
0011
0000
0000
0000
0000
1001
0000
0110
0000
0000
0000
0000
0000
0000
0000
0000
,
0010
0000
1000
0000
0101
0000
0010
1000
0000
0100
0010
0000
1001
0000
0110
0000
,
1001
0000
0100
0000
0010
1000
0000
0101
0000
0010
1000
0000
0100
0000
0011
0000
,
1100
0000
1000
0010
0100
0001
0000
0101
0000
0110
0000
0010
1000
0000
0100
0000
,
0010
0000
0001
0010
0100
1000
0000
0011
0000
0100
1000
0000
0101
0000
1010
0000
,
1001
0000
1000
0000
0100
0010
0000
0011
0000
0100
0010
0000
1100
0000
1010
0000
,
1001
0000
0001
0100
0010
1000
0000
0101
0000
0010
0100
0000
1010
0000
0101
0000
,
0010
1000
0100
0010
0001
0100
0010
0000
1000
0100
0010
0001
0100
0000
0010
0000
,
1000
0010
0100
0001
0010
0100
1000
0001
0010
0100
0010
0100
0010
0100
0010
0000
,
0110
0000
0100
1000
0001
0100
0000
0110
0000
0000
0000
0000
0010
1000
0100
0000
,
0011
0000
0010
0100
1000
0001
0000
0101
0000
0000
0000
0000
0001
0100
0010
0000
,
1010
0000
1000
0100
0010
0001
0000
1001
0000
0000
0000
0000
0001
0100
0010
0000
,
1010
0000
1000
0010
0100
0001
0000
1000
0000
0100
0000
0010
0001
0000
1000
0000
,
0001
0000
0000
0000
0000
0001
0000
0001
0000
0000
0000
0000
0001
0000
0001
0000
,
0001
0000
0000
0000
0000
0001
0000
0001
0000
0000
0000
0000
0001
0000
0001
0000
,
1000
0000
0000
0000
0000
1000
0000
1000
0000
0000
0000
0000
1000
0000
1000
0000
,
1000
0000
1000
0000
0000
1000
0000
0000
0001
1000
0001
1000
0001
1000
0001
0000
,
0101
0000
0100
0000
0010
1000
0000
1010
0000
0000
0000
0000
1000
0100
0010
0000
,
0110
0000
0100
1000
0010
0100
0000
0110
0000
0010
1000
0001
0100
0010
1000
0000
,
0101
0000
0100
0010
1000
0100
0000
1100
0000
1000
0100
0010
0001
0010
0100
1000
,
0001
0010
0100
1000
0100
0010
0001
1000
0100
0010
0001
0010
0100
1000
0001
0000
,
1001
0000
0001
0100
0010
1000
0000
1010
0000
1000
0010
0100
0001
0010
0100
1000
,
0001
0000
0100
0010
1000
0001
0000
0101
0000
0001
0100
0010
1000
0100
0010
0001
,
1000
0000
0010
1000
0001
0100
0000
0101
0000
0001
0100
0010
1000
0100
0010
0000
,
0110
0000
0010
0100
1000
0010
0100
0000
0110
0000
0010
0100
0001
0010
0100
0000
,
0110
0000
0010
0001
0100
0010
0000
0110
0000
0010
1000
0100
0010
0001
1000
0000
,
0101
0000
0001
0100
0010
1000
0000
1100
0000
1000
0100
0010
0001
1000
0010
0000
,
0110
0000
0010
1000
0100
0010
0001
1000
0000
1000
0010
0000
0110
0000
0010
1000
,
0001
0100
0010
1000
0100
0000
0010
0000
0011
0000
0010
0100
1000
0001
0100
0000
,
1010
0000
0010
1000
0010
0100
0000
0101
0000
0100
0010
1000
0100
0010
0001
0000
,
0011
0000
0010
0100
1000
0001
0000
0101
0000
0100
0010
1000
0100
0010
0001
0000
,
0011
0000
0010
0100
1000
0001
0100
0010
0000
0010
1000
0000
0110
0000
0101
0000
,
0110
0000
0010
1000
0100
0010
0001
0000
0011
0000
0010
0100
1000
0001
0100
0000
,
0101
0000
0000
0000
0000
0110
0000
1010
0000
0000
0000
0000
1010
0000
1001
0000
,
1100
0000
0000
0000
0000
1010
0000
1100
0000
0000
0000
0000
1100
0000
1010
0000
,
1001
0000
0000
0000
0000
0101
0000
0011
0000
0000
0000
0000
1001
0000
0101
0000
,
0011
0000
0000
0000
0000
1001
0000
0110
0000
0000
0000
0000
1010
0000
0101
0000
,
1001
0000
0000
0000
;
#NOTES:
     dance-single:
     Renard:
     Challenge:
     1:
     0.614,0.738,0.689,0.190,0.557:
0000
0000
0000
0000
,
0000
0000
0000
0000
0000
0000
0000
0000
0000
0000
0000
0000
0000
0000
0000
0000
,
0000
0000
0000
0000
,
0000
0000
0000
0000
,
1110
0000
0000
0000
0000
0110
0000
0110
0000
0000
0000
0000
0111
0000
0000
0000
,
1110
0000
0000
0000
0000
0110
0000
0110
0000
0000
0000
0000
0111
0000
0000
0000
,
1110
0000
0000
0000
0000
0110
0000
0110
0000
0000
0000
0000
0111
0000
0000
0000
,
1110
0000
0000
0000
0000
0000
0000
0000
0000
0000
0110
0000
0000
0000
0110
0000
0000
0000
0000
0000
0000
0000
0000
0000
0000
0000
0000
0000
0001
1000
0001
0000
,
1011
0000
0001
0100
0010
1000
0000
1110
0000
0000
1000
0000
0010
0100
0001
0000
,
1000
0001
0100
0000
1011
0000
0100
0001
0000
1000
0010
0000
1110
0000
1101
0000
,
1010
0000
1000
0010
0100
0001
0000
1011
0000
0100
0001
0000
1100
0000
0011
0000
,
1100
0000
1000
0001
0100
0010
0000
1011
0000
1000
0010
0100
0001
0000
1001
0000
,
1011
0000
1000
0010
0100
0001
0000
0111
0000
0000
0001
0000
0100
0010
1000
0000
,
0001
1000
0010
0000
1011
0000
0010
1000
0000
0001
0100
0000
0111
0000
1011
0000
,
0101
0000
0001
0100
0010
1000
0000
1011
0000
0010
1000
0000
0011
0000
1100
0000
,
0011
0000
0001
1000
0010
0100
0000
1011
0000
0000
0000
0000
0001
0001
0001
0001
,
1000
0100
0010
0001
0010
0100
0010
0100
0010
0001
0100
0010
1000
0010
1000
0010
,
1000
0100
0010
0001
0010
0100
0010
0100
0010
0001
1000
0010
1000
0100
1000
0100
,
1000
0010
0100
0001
0010
0100
0010
0100
0010
0001
0100
0010
1000
0100
1000
0100
,
1000
0100
0010
0001
0100
0010
0100
0010
1000
0100
0010
0001
0010
0100
1000
0000
,
2002
0000
0000
0000
0000
0010
0000
0010
0000
0000
0000
0000
0010
0000
0010
0000
,
0010
0000
0000
0000
0000
0010
0000
0010
0000
0000
0000
0000
0010
0000
0010
0000
,
0100
0000
0000
0000
0000
0100
0000
0100
0000
0000
0000
0000
0100
0000
0100
0000
,
0100
0000
0000
0000
0000
0100
0000
0100
0000
0000
0100
0000
3003
0000
0000
0000
,
1011
0000
0100
0000
0000
1011
0000
1011
0000
0000
0100
0000
1011
0000
1011
0000
,
1011
0000
0100
0000
0000
1011
0000
1011
0000
0000
0100
0000
1011
0000
1011
0000
,
1011
0000
0000
0000
0100
0000
0000
1011
0000
0000
0000
0000
0001
0001
0001
1000
,
1000
0001
0001
1000
1000
0001
0001
0001
1000
1000
1000
0001
0001
0001
1000
1000
,
0001
0100
1000
0000
1101
0000
0000
0000
0000
0000
0000
0000
1101
0000
0000
0000
,
0001
0010
1000
0000
1011
0000
0000
0000
0000
0000
0000
0000
1011
0000
0000
0000
,
0010
1000
0100
0000
1110
0000
0000
0000
0010
0001
0100
0000
0111
0000
0000
0000
,
0010
1000
0100
0000
1110
0000
0000
0000
0010
0001
0100
0000
0111
0000
0000
0000
,
1000
0010
0001
0000
1011
0000
0000
0000
0000
0000
0000
0000
1011
0000
0000
0000
,
1000
0100
0001
0000
1101
0000
0000
0000
0000
0000
0000
0000
1101
0000
0000
0000
,
0100
0001
0010
0000
0111
0000
0000
0000
0100
1000
0010
0000
1110
0000
0000
0000
,
0100
0001
0010
0000
0111
0000
0000
0000
0100
1000
0010
0000
1110
0000
0000
0000
,
0100
1000
0010
0000
1110
0000
0000
0000
0000
0000
0000
0000
1110
0000
0000
0000
,
0100
0001
0010
0000
0111
0000
0000
0000
0000
0000
0000
0000
0111
0000
0000
0000
,
0001
0010
1000
0000
1011
0000
0000
0000
0001
0100
1000
0000
1101
0000
0000
0000
,
0001
0010
1000
0000
1011
0000
0000
0000
0001
0100
1000
0000
1101
0000
0000
0000
,
2000
0000
0000
0000
0000
0200
0000
0020
0000
0000
0000
0000
0002
0003
0002
3000
,
2000
0000
0000
0000
0300
0200
0030
0020
0000
0000
0000
0003
0002
0003
0002
3000
,
2000
0000
0000
0000
0300
0200
0030
0020
0000
0000
0000
0003
0002
0003
0002
3000
,
2000
0000
0000
0000
0300
0200
0030
0020
0000
0000
0003
0000
0002
0003
3331
0000
,
1111
0000
0000
0000
;
#NOTES:
     dance-single:
     WinDEU:
     Easy:
     7:
     0.322,0.347,0.163,0.100,0.267:
0000
0000
0000
0000
,
0000
0000
0000
0000
,
0000
0000
0000
0000
,
0000
0000
0000
0000
,
2100
0000
0000
0000
0000
0100
0000
0001
3000
0000
0000
0000
0001
0000
0100
0000
,
0102
0000
0000
0000
0000
0100
0000
1000
0003
0000
0000
0000
1000
0000
0100
0000
,
0120
0000
0000
0000
0000
0001
0000
0100
0030
0000
0000
0000
0100
0000
1000
0000
,
1020
0000
0000
0000
0000
0100
0000
1000
0030
0000
0000
0000
0000
0000
0000
0000
,
1000
0000
0100
0000
0010
0000
0000
0011
0000
0000
0000
0000
0001
0000
0100
0000
,
0010
0000
1000
0000
0100
0000
0000
1100
0000
0000
0000
0000
0100
0000
0010
0000
,
0001
0000
0100
0000
0010
0000
0000
0110
0000
0000
0000
0000
0010
0000
1000
0000
,
0001
0000
0010
0000
0100
0000
0000
2100
0000
0000
0100
0000
0100
0000
3100
1000
,
0000
0000
0000
0010
0100
0000
0000
0000
0000
0000
0000
0000
0101
0000
0000
0000
,
0000
0000
0000
0001
1000
0000
0000
0000
0000
0000
0000
0000
1100
0000
0000
0000
,
0000
0000
0000
0100
0010
0000
0000
0000
0000
0000
0000
0000
0011
0000
0000
0000
,
0000
0000
0000
1000
0100
0000
0000
0000
1000
0001
1000
0001
0100
0001
0100
0001
,
0200
0000
0000
0000
0000
1000
0000
0010
0000
0000
0300
0000
0001
0000
0010
0000
,
0200
0000
0000
0000
0000
0001
0000
0010
0000
0000
0300
0000
1000
0000
0010
0000
,
0200
0000
0000
0000
0000
1000
0000
0010
0000
0000
0300
0000
0001
0000
0010
0000
,
0200
0000
0000
0000
0000
0001
0000
0010
0000
0000
0300
0000
1000
0000
0010
0000
,
0100
0000
0000
0000
0000
0100
0000
0100
0000
0000
0000
0000
0100
0000
0100
0000
,
0100
0000
0000
0000
0000
0100
0000
0100
0000
0000
0000
0000
0100
0000
0100
0000
,
0010
0000
0000
0000
0000
0010
0000
0010
0000
0000
0000
0000
0010
0000
0010
0000
,
0010
0000
0010
0000
0000
0100
0000
0000
0101
0000
1100
0000
0101
0000
1100
0000
,
1000
0000
0100
0000
0010
0000
0000
0011
0000
0000
0000
0000
0001
0000
0000
0000
,
0100
0000
0010
0000
1000
0000
0000
1100
0000
0000
0000
0000
0100
0000
0010
0000
,
0001
0000
0000
0000
0000
1000
0000
0000
0010
0000
1000
0000
0100
0000
0010
0000
,
0001
0100
0010
1000
0100
0010
0001
0100
,
0010
0000
0000
1000
0100
0000
0000
0000
0000
0000
0000
0000
0010
0000
0001
0000
,
0100
0000
0000
0010
1000
0000
0000
0000
0000
0000
0000
0000
0010
0000
0001
0000
,
1000
0000
0000
0010
0100
0000
0000
0000
0000
0000
0000
0000
0001
0000
0100
0000
,
0010
0000
0000
1000
0100
0000
0000
0000
0010
0000
0000
0000
0001
0000
1000
0000
,
0010
0000
0000
0100
0001
0000
0000
0000
1000
0000
0000
0000
0100
0000
0010
0000
,
0001
0000
0000
1000
0010
0000
0000
0000
0100
0000
0000
0000
0010
0000
1000
0000
,
0100
0000
0000
0010
0001
0000
0000
0000
0100
0000
0000
0000
0010
0000
0100
0000
,
0001
0000
0000
1000
0100
0000
0000
0000
0010
0000
0000
0000
0100
0000
1000
0000
,
0001
0000
0000
0100
0010
0000
0000
0000
1000
0000
0000
0000
0010
0000
0100
0000
,
0001
0000
0000
0010
0001
0000
0000
0000
0100
0000
0000
0000
0010
0000
1000
0000
,
0010
0000
0000
0100
0001
0000
0000
0000
1000
0000
0000
0000
0100
0000
1000
0000
,
0001
0000
0000
0100
0010
0000
0000
0000
1000
0000
0000
0000
0010
0000
0100
0000
,
0001
0000
0000
0000
0000
0001
0000
0001
0000
0000
0000
0000
0001
0000
0001
0000
,
0100
0000
0000
0000
0000
0100
0000
0100
0000
0000
0000
0000
0100
0000
0100
0000
,
0010
0000
0000
0000
0000
0010
0000
0010
0000
0000
0000
0000
0010
0000
0010
0000
,
1000
0000
0000
0000
0000
1000
0000
1000
0000
0000
0000
0000
1000
0000
1000
0000
,
2002
0000
0000
0000
,
3003
0000
0000
0000
;
#NOTES:
     dance-single:
     WinDEU:
     Beginner:
     1:
     0.097,0.143,0.054,0.136,0.014:
0000
0000
0000
0000
,
0000
0000
0000
0000
,
0000
0000
0000
0000
,
0000
0000
0000
0000
,
1000
0000
0000
0100
,
0010
0000
0000
0001
,
0100
0000
0000
0010
,
1000
0000
0000
0000
,
0202
0000
0000
0000
,
0000
0000
0000
0303
,
0000
1000
0000
0100
,
0000
0010
0000
0001
,
0000
0100
0000
0000
,
0000
0010
0000
0000
,
0000
1000
0000
0000
,
0000
0001
0000
0000
,
0010
0000
0000
0100
,
1000
0000
0000
0010
,
0100
0000
0000
0001
,
0010
0000
0000
0000
,
0100
0000
0000
0000
0000
0000
0000
0100
0000
0000
0000
0000
0000
0000
0000
0000
,
1000
0000
0000
0000
0000
0000
0000
1000
0000
0000
0000
0000
0000
0000
0000
0000
,
0001
0000
0000
0000
0000
0000
0000
0001
0000
0000
0000
0000
0000
0000
0000
0000
,
0010
0000
0000
0000
0100
0100
0100
0000
,
1000
0000
0010
0100
,
0001
0000
0010
0100
,
1000
0000
0000
0000
0001
0000
0000
0100
,
0000
0000
0010
0000
0000
1000
0000
0000
,
2200
0000
0000
0000
,
0000
0000
0000
0000
,
0000
0000
0000
3300
,
0200
0300
0020
0030
,
0022
0000
0000
0000
,
0000
0000
0000
0000
,
0000
0000
0000
0033
,
0000
0000
0200
0300
,
0220
0000
0000
0000
,
0000
0000
0000
0000
,
0000
0000
0000
0330
,
0020
0030
2000
3000
,
1010
0000
0000
0000
,
0000
0000
0000
0000
,
0000
0000
0000
0000
,
0000
0000
0000
0000
,
2002
0000
0000
0000
,
3003
0000
0000
0000
;
