#TITLE:How Many Sukkas?;
#SUBTITLE:;
#ARTIST:Scott Brown;
#TITLETRANSLIT:;
#SUBTITLETRANSLIT:;
#ARTISTTRANSLIT:;
#CRChallenge:;
#BANNER:sukkas.png;
#BACKGROUND:sukkas-bg.png;
#LYRICSPATH:;
#CDTITLE:;
#MUSIC:sukkas.ogg;
#OFFSET:0.000;
#SAMPLESTART:76.780;
#SAMPLELENGTH:12.000;
#SELECTABLE:YES;
#BPMS:0.000=175.000;
#STOPS:;
#BGCHANGES:;
#NOTES:
     dance-single:
     Renard:
     Hard:
     12:
     0.846,1.000,0.035,0.070,1.000:
0000
0000
0000
0000
,
0000
0000
0000
0000
,
0000
0000
0000
0000
,
0000
0000
0000
0000
,
0000
0000
0000
1000
0000
0000
1000
0000
0000
0000
0000
0001
0000
0000
0001
0000
,
0000
0000
0000
1000
0000
0000
1000
0000
0000
0000
0000
0001
0000
0001
1000
0000
,
0000
0000
0000
0010
0000
0000
0010
0000
0000
0000
0000
0100
0000
0000
0100
0000
,
0001
0100
0001
0000
1000
0010
1000
0000
0001
0010
0100
1000
0001
1000
0001
0000
,
1000
0000
0100
1000
0000
0010
1000
0000
0001
1000
0000
0010
1000
0000
0100
0000
,
1000
0000
0001
1000
0000
0010
1000
0000
0100
1000
0000
0001
1000
0000
0010
0000
,
1000
0000
0100
1000
0000
0001
1000
0000
0010
1000
0000
0100
1000
0000
0010
0000
,
1000
0000
0001
1000
0000
0100
1000
0000
0010
1000
0000
0001
1000
0000
0100
0000
,
1000
0000
0001
1000
0000
0010
1000
0000
0001
1000
0000
0100
1000
0000
0010
0000
,
1000
0000
0001
1000
0000
0010
1000
0000
0100
1000
0000
0001
1000
0000
0010
0000
,
1000
0000
0001
1000
0000
0100
1000
0000
0010
1000
0000
0001
1000
0000
0100
0000
,
1000
0000
0010
1000
0000
0001
1000
0000
0010
1000
0000
0100
1000
0000
1000
0000
,
0001
0000
0010
0001
0000
0100
0001
0000
1000
0001
0000
0100
0001
0000
0010
0000
,
0001
0000
1000
0001
0000
0100
0001
0000
0010
0001
0000
1000
0001
0000
0100
0000
,
0001
0000
0010
0001
0000
1000
0001
0000
0100
0001
0000
0010
0001
0000
0100
0000
,
0001
0000
1000
0001
0000
0010
0001
0000
0100
0001
0000
1000
0001
0000
0010
0000
,
0001
0000
1000
0001
0000
0100
0001
0000
1000
0001
0000
0010
0001
0000
0100
0000
,
0001
0000
1000
0001
0000
0100
0001
0000
0010
0001
0000
1000
0001
0000
0100
0000
,
0001
0000
1000
0001
0000
0010
0001
0000
0100
0001
0000
1000
0001
0000
0010
0000
,
0001
0000
0000
0001
1000
0001
0000
0000
1000
0100
0000
1000
0001
0000
1000
0001
,
1000
0100
0010
0001
1000
0100
0010
0001
,
1000
0100
0010
0001
1000
0100
0010
0001
,
1000
0100
0010
0001
1000
0100
0010
0001
,
1000
0100
0010
0001
1000
0100
0010
0001
,
1000
0010
0100
0001
1000
0010
0100
0001
,
1000
0010
0100
0001
1000
0010
0100
0001
,
1000
0010
0100
0001
1000
0010
0100
0001
,
1000
0010
0100
0001
1000
0010
0100
0100
,
0001
0010
0100
1000
0001
0100
0010
1000
0100
0010
0001
0010
0100
1000
0001
0000
,
0100
0010
1000
0000
0001
0100
0001
0000
1000
0010
1000
0010
1000
0010
1000
0000
,
0001
0100
0010
1000
0100
0010
0001
0010
0100
1000
0001
0100
0010
1000
0100
0000
,
1000
0100
1000
0000
0001
0010
0001
0000
0100
0001
0100
0001
0100
0001
0100
0000
,
0010
1000
0100
0010
0001
0010
0100
1000
0001
0100
0010
1000
0100
1000
0001
0000
,
0010
0001
0010
0000
0100
1000
0100
0000
1000
0001
1000
0001
1000
0001
1000
0000
,
0001
0010
0100
1000
0100
0010
0001
0100
0010
1000
0100
0010
0001
1000
0001
0000
,
1000
0100
1000
0000
0001
0010
0001
0000
1000
0001
1000
0001
1000
0001
1000
0000
,
0002
0100
0010
0000
,
1000
0000
0000
1000
0000
0013
0000
0000
,
2000
0100
0010
0000
,
0001
0000
0000
0010
0000
3100
0000
0000
,
2000
0010
0100
0000
,
0001
0000
0000
0100
0000
3010
0000
0000
,
0002
1000
0100
0000
,
1000
0000
0000
0010
0000
0103
0000
0000
,
0200
0010
1000
0000
,
0001
0000
0000
1000
0000
0310
0000
0000
,
0020
0100
0001
0000
,
0001
0000
0000
1000
0000
0130
0000
0000
,
0020
0100
1000
0000
,
0001
0000
0000
1000
0000
0130
0000
0000
,
0200
1000
0310
0000
,
1001
0000
0000
0110
0000
1001
0000
0000
,
0001
0010
0100
1000
0001
0100
0010
1000
0100
0010
0001
0010
0100
1000
0001
0000
,
1000
0010
1000
0000
0001
0100
0001
0000
1000
0010
1000
0000
0100
1000
0100
0000
,
1000
0100
0010
0001
0010
0100
1000
0001
0100
0010
1000
0100
0010
0001
0010
0000
,
0001
0010
0001
0000
0010
0100
0010
0000
0100
1000
0100
0000
1000
0001
1000
0000
,
0001
0100
0010
1000
0100
0010
0001
0010
0100
1000
0001
0100
0010
1000
0100
0000
,
1000
0001
1000
0000
0001
0010
0001
0000
0010
0100
0010
0000
0100
1000
0100
0000
,
1000
0010
0100
0001
0010
0100
1000
0001
0100
0010
1000
0100
0010
0001
1000
0000
,
0001
0100
0001
0000
0100
0010
0100
0000
0010
1000
0010
0000
0100
0000
0001
0000
,
1000
0100
0010
0001
1000
0010
0100
0001
0010
0100
1000
0100
0010
0001
1000
0000
,
0001
0100
0001
0000
1000
0010
1000
0000
0001
0100
0001
0000
0010
0001
0010
0000
,
0001
0010
0100
1000
0100
0010
0001
1000
0010
0100
0001
0010
0100
1000
0100
0000
,
1000
0100
1000
0000
0100
0010
0100
0000
0010
0001
0010
0000
0001
1000
0001
0000
,
1000
0010
0100
0001
0010
0100
1000
0100
0010
0001
1000
0010
0100
0001
0010
0000
,
0001
1000
0001
0000
1000
0100
1000
0000
0100
0010
0100
0000
0010
0001
0010
0000
,
0001
0100
0010
1000
0100
0010
0001
1000
0010
0100
0001
0010
0100
1000
0001
0000
,
1000
0010
1000
0000
0010
0100
0010
0000
0100
0001
0100
0000
0010
1000
0010
0000
,
0000
0000
0000
1000
0000
0000
0001
0000
0000
0000
0000
0100
0000
0000
0010
0000
,
0000
0000
0000
1000
0000
0000
0100
0000
0000
0000
0000
0010
0000
0010
0001
0000
,
0000
0000
0000
0010
0000
0000
0100
0000
0000
0000
0000
1000
0000
0000
0010
0000
,
0000
0000
0000
0100
0000
0000
0001
0000
0000
0000
0000
1000
0000
1000
0010
0000
,
0000
0000
0000
1000
0000
0000
0100
0000
0000
0000
0000
0010
0000
0000
0001
0000
,
0000
0000
0000
0010
0000
0000
0100
0000
0000
0000
0000
1000
0000
1000
0001
0000
,
0000
0000
0000
0010
0000
0000
0001
0000
0000
0000
0000
1000
0000
0000
0010
0000
,
0000
0000
0000
0100
0000
0000
0001
0000
0000
0000
0000
1000
0000
1000
0100
0000
,
0011
0000
0000
0000
;
#NOTES:
     dance-single:
     Renard:
     Medium:
     9:
     0.664,0.598,0.237,0.009,0.097:
0000
0000
0000
0000
,
0000
0000
0000
0000
,
0000
0000
0000
0000
,
0000
0000
0000
0000
,
0000
0000
0000
0000
,
0000
0000
0000
0000
,
0000
0000
0000
0000
,
0000
0000
0000
0000
,
1000
0100
0010
0001
1000
0001
0100
0010
,
1000
0000
0100
0000
0010
0000
0001
0000
1000
0001
0000
1000
0001
0000
0000
0000
,
1000
0100
0010
0001
1000
0010
0100
0001
,
0010
0000
0100
0000
1000
0000
0001
0000
0010
0100
0000
0010
0100
0000
0000
0000
,
0100
0010
1000
0100
0010
0001
0010
0100
,
1000
0000
0001
0000
0100
0000
0010
0000
1000
0001
0000
1000
0001
0000
0000
0000
,
1000
0100
0010
0001
0010
0100
1000
0001
,
0100
0000
0010
0000
1000
0000
0001
0000
0010
0100
0000
0010
0100
0000
0000
0000
,
1000
0000
0100
0000
0010
0000
0001
0000
0010
0100
0000
0010
0100
0000
0000
0000
,
1000
0000
0001
0000
0010
0000
0100
0000
1000
0100
0000
1000
0100
0000
0000
0000
,
1000
0000
0100
0000
0010
0000
0001
0000
0010
0001
0000
0010
0001
0000
0000
0000
,
0010
0000
0100
0000
1000
0000
0001
0000
0100
0010
0000
0100
0010
0000
0000
0000
,
1000
0000
0100
0000
0010
0000
0001
0000
1000
0010
0000
1000
0010
0000
0000
0000
,
1000
0000
0010
0000
0100
0000
0001
0000
0010
0001
0000
0010
0001
0000
0000
0000
,
0010
0000
0100
0000
1000
0000
0001
0000
1000
0001
0000
1000
0001
0000
0000
0000
,
1000
0100
0010
0001
,
1000
1000
0100
0100
0010
0010
0001
0001
,
1000
1000
0010
0010
0100
0100
0010
0010
,
1000
1000
0100
0100
0010
0010
0001
0001
,
0100
0100
0010
0010
0100
0100
0001
0001
,
1000
1000
0100
0100
0010
0010
0001
0001
,
1000
1000
0010
0010
0100
0100
0010
0010
,
1000
1000
0100
0100
0010
0010
0001
0001
,
0100
0010
0100
0001
0010
0100
1000
0001
,
1000
0100
1000
0010
1000
0001
1000
0010
,
1000
1100
1000
1010
,
1000
0100
1000
0010
1000
0001
1000
0010
,
1000
1100
1000
1010
,
0001
0010
0001
1000
0001
0100
0001
1000
,
0001
0010
0001
0000
1000
0001
0100
0000
,
0001
1000
0001
0010
0001
1000
0001
0100
,
0001
0100
0001
0100
0010
0100
0010
0000
,
0010
1000
0100
0010
0001
0000
0011
0000
,
0110
0000
0000
1100
0000
0011
0000
0000
,
1000
0100
0010
0001
0100
0010
1000
0100
,
0010
0000
0000
0011
0000
0110
0000
0000
,
0100
1000
0001
0100
0010
1000
0100
0010
,
0001
0000
0000
0110
0000
1100
0000
0000
,
1000
0010
0100
0001
0010
0100
1000
0001
,
0100
0000
0000
0101
0000
1010
0000
0000
,
1000
0010
1000
0001
1000
0000
1100
0000
,
1000
0100
0010
0001
1000
0000
1001
0000
,
0001
0010
0100
1000
0010
0000
1010
0000
,
1000
0100
0010
0001
1000
0000
1001
0000
,
0001
0010
0100
1000
0001
0100
0010
1000
,
0001
0000
0001
1000
0000
1000
0001
0000
,
1000
0100
0010
0001
0010
0100
1000
0002
,
0100
0100
0100
0103
,
0001
0100
0010
0100
0001
0100
0010
0000
,
1000
0010
0100
0010
1000
0010
0100
0000
,
0010
1000
0100
0010
0100
1000
0010
0000
,
0100
0010
0100
0001
0010
0100
0010
0001
,
1000
0010
0100
0010
1000
0100
0010
0000
,
0001
0010
0100
0010
0001
0100
0010
0000
,
1000
0010
0100
0001
0010
0100
1000
0000
,
0001
0010
0100
1000
0001
0000
1001
0000
,
1000
0100
1000
0000
1100
0000
1000
0010
,
0100
0001
0010
0001
0000
0011
0000
0001
,
0010
0100
1000
0001
0100
0000
0101
0000
,
0001
0100
0010
1000
0100
0000
1100
0000
,
1000
0100
0010
0001
1000
0000
1001
0000
,
0001
0100
0010
1000
0000
1010
0000
1000
,
0100
0010
0001
1000
0001
0000
0101
0000
,
0001
0100
0010
1000
0100
0000
1100
0000
,
1000
0100
1000
0100
1000
0100
1000
0100
,
1000
0100
1000
0100
1000
0100
1000
0100
,
0010
0001
0010
0001
0010
0001
0010
0001
,
0010
0001
0010
0001
0010
0001
0010
0001
,
1000
0010
1000
0010
1000
0010
1000
0010
,
1000
0010
1000
0010
1000
0010
1000
0010
,
0100
0001
0100
0001
0100
0001
0100
0001
,
1000
0100
0010
0001
0010
0100
1000
0001
,
1000
0000
0000
0000
;
#NOTES:
     dance-single:
     Renard:
     Easy:
     6:
     0.442,0.492,0.079,0.000,0.000:
0000
0000
0000
0000
,
0000
0000
0000
0000
,
0000
0000
0000
0000
,
0000
0000
0000
0000
,
0001
0001
0001
0001
,
1000
1000
1000
1000
,
0010
0010
0010
0010
,
0100
0100
0010
0010
,
1000
0000
0010
0000
1000
0010
1000
0000
,
0001
0000
0100
0000
0001
0100
0001
0000
,
1000
0000
0100
0000
1000
0100
1000
0000
,
0001
0010
0100
1000
,
0001
0100
0101
0001
,
1000
0010
1010
1000
,
0001
0100
0101
0001
,
1100
1001
1010
1001
,
1000
0000
0100
0000
1000
0100
1000
0100
,
1000
0000
0001
0000
1000
0001
1000
0001
,
0100
0000
0001
0000
0100
0001
0100
0001
,
0010
0000
0001
0000
0010
0001
0010
0001
,
1000
0000
0001
0000
1000
0001
1000
0001
,
1000
0000
0010
0000
1000
0010
1000
0010
,
1000
0000
0100
0000
1000
0100
1000
0000
,
1001
0000
0000
0000
,
0001
0001
1000
1000
,
0001
0001
0100
0100
,
0001
0001
1000
1000
,
0001
0001
0010
0010
,
0001
1000
0001
1000
0001
1000
0001
1000
,
0010
0010
0010
0010
,
1000
0001
1000
0001
1000
0001
1000
0001
,
1000
1000
0010
0010
,
1000
0000
1000
0000
0100
0010
0001
0010
,
0100
0100
0100
0100
,
0010
0000
0010
0000
0001
0010
0100
1000
,
0100
0100
0100
0100
,
1000
0000
1000
0000
0010
0100
0001
0100
,
0010
0010
1000
1000
,
0010
0010
0010
0010
,
0100
0001
0100
0000
0010
1000
0010
0000
,
1000
0100
0010
0001
,
0010
0000
0000
0100
0000
1000
0000
0000
,
0100
0010
0001
0000
,
1000
0000
0000
0010
0000
0100
0000
0000
,
0010
1000
0001
0000
,
0100
0000
0000
0001
0000
1000
0000
0000
,
0100
0010
0001
0000
,
0010
0000
0000
0100
0000
0000
1000
0000
,
0001
1000
0010
0100
,
0010
0000
1000
0010
0000
1000
0000
0000
,
0001
0100
0001
0010
,
0100
0000
1000
0001
0000
1000
0000
0000
,
0010
1000
0001
0100
,
0010
0000
1000
0001
0000
1000
0000
0000
,
0100
0010
0001
0010
,
0100
0000
0000
0000
,
0100
1000
0001
1000
,
0010
0000
0100
0010
0000
0100
0010
0000
,
0100
0001
1000
0100
,
0010
0000
0001
0010
0000
0001
0010
0000
,
0100
1000
0001
0100
,
0010
0000
1000
0010
0000
1000
0010
0000
,
1000
0100
0010
0001
,
0010
0000
0100
1000
0000
0100
1000
0000
,
0001
0100
0001
0000
0100
0000
0010
0000
,
1000
0000
1000
0010
0000
0010
1000
0000
,
0100
1000
0100
0000
1000
0000
0001
0000
,
0010
0000
0010
0001
0000
0001
0010
0000
,
0100
1000
0100
0000
1000
0000
0010
0000
,
0100
0000
0100
0010
0000
0010
0100
0000
,
0001
0000
1000
0000
0001
1000
0001
0000
,
1000
0100
0010
0001
,
1000
1000
0001
0001
,
1000
1000
0001
0001
,
0100
0100
0010
0010
,
0100
0100
0010
0010
,
1000
1000
0001
0001
1000
1000
0001
0001
,
0100
0100
0010
0010
,
1000
1000
0001
0001
1000
1000
0001
0001
,
0100
0100
0010
0010
,
1001
0000
0000
0000
;
#NOTES:
     dance-single:
     Renard:
     Beginner:
     4:
     0.372,0.457,0.431,0.062,0.000:
0000
0000
0000
0000
,
0000
0000
0000
0000
,
0000
0000
0000
0000
,
0000
0000
0000
0000
,
0000
0000
0000
0000
,
0000
0000
0000
0000
,
0000
0000
0000
0000
,
0000
0000
0000
0000
,
0001
0011
1000
1010
,
0001
0011
0000
1010
,
0001
0011
1000
1010
,
0001
0011
0000
1010
,
0001
0101
1000
1100
,
0001
0101
0000
1100
,
0001
0101
1000
1100
,
0001
0101
0000
1100
,
0001
1000
0001
1000
,
0010
0110
0100
0110
,
0001
1000
0001
1000
,
0010
0110
0100
0110
,
0001
1000
0001
1000
,
0010
0110
0100
0110
,
0001
1000
0001
1000
,
2002
0000
0000
3003
,
0002
1000
0100
1000
,
0100
1000
0100
1000
,
0100
1000
0100
1000
,
0100
1000
0100
1000
,
0100
1000
0100
1000
,
0100
1000
0100
1000
,
0100
1000
0100
1000
,
0100
1000
0100
1003
,
0100
0100
0100
0100
,
0001
1000
0100
0010
,
0001
0001
0001
0001
,
0010
0100
1000
0010
,
0100
0100
0100
0100
,
0010
1000
0100
0010
,
0001
0001
0001
0001
,
0010
0100
1000
0001
,
0100
0100
0010
0010
,
1000
1000
0010
0010
,
1000
0001
0100
0000
,
0001
0001
1000
1000
,
0100
0100
0010
0010
,
0001
0001
1000
1000
,
0001
0100
0010
0000
,
1000
1000
0010
0010
,
0100
0001
1000
0000
,
0001
0001
1000
1000
,
0100
0010
0001
0000
,
1000
1000
0001
0001
,
0010
0001
1000
0000
,
0010
0010
0100
0100
,
0001
1000
0100
0010
,
1001
0000
0000
0000
,
0001
1000
1100
0000
,
1010
0000
1001
0000
,
1000
0001
0101
0000
,
0011
0000
1001
0000
,
1000
0010
0110
0000
,
0101
0000
1100
0000
,
1000
0100
0010
1000
,
1010
1001
1100
0000
,
1000
0001
0010
0000
,
0011
0000
1001
0000
,
0001
0100
0010
0000
,
0110
0000
0101
0000
,
0001
0100
0010
1000
,
1010
0000
1001
0000
,
1000
0100
0010
0001
,
0010
0110
1001
0110
,
1002
0000
1000
0000
,
1000
0000
1000
0003
,
2001
0000
0001
0000
,
0001
0000
0001
3000
,
1002
0000
1000
0000
,
1000
0000
1000
0003
,
2001
0000
0001
0000
,
0001
0000
0001
0000
,
3001
0000
0000
0000
;
