#TITLE:Hot;
#SUBTITLE:;
#ARTIST:1TYM;
#TITLETRANSLIT:;
#SUBTITLETRANSLIT:;
#ARTISTTRANSLIT:;
#CRChallenge:;
#BANNER:hot.png;
#BACKGROUND:hot-bg.png;
#LYRICSPATH:;
#CDTITLE:;
#MUSIC:hot.ogg;
#OFFSET:0.000;
#SAMPLESTART:58.716;
#SAMPLELENGTH:12.000;
#SELECTABLE:YES;
#BPMS:0.000=98.000;
#STOPS:;
#BGCHANGES:;
#NOTES:
     dance-single:
     Renard:
     Medium:
     9:
     0.631,0.558,0.370,0.000,0.585:
0000
0000
0000
0000
,
0000
0000
0000
0000
,
0000
0000
0000
0000
,
0000
0000
0000
0000
,
0100
0000
1000
0001
0100
0000
0010
0000
1010
0000
0100
0000
0011
0000
0100
0000
,
1000
0000
0010
0100
0001
0000
0010
0000
1100
0000
0010
0000
0101
0000
0010
1000
,
0100
0000
0010
0100
1000
0000
0010
0000
0101
0000
0010
0000
1100
0000
1000
0010
,
0100
0000
0001
0100
0010
0000
1000
0000
0100
0000
0010
0000
0001
0000
0010
0100
,
1000
0000
0001
0100
0010
0000
1000
0100
0010
0000
0100
1000
0010
0000
0100
0001
,
0010
0000
0100
1000
0010
0000
0100
0010
1000
0100
0010
0001
0010
0100
1000
0001
,
0100
0000
0010
1000
0100
0000
1000
0010
0100
0000
0001
0010
0100
0000
1000
0010
,
0100
0000
0001
0100
0010
1000
0100
1000
0010
0100
0001
0010
0001
1000
0010
0100
,
0001
0000
0100
0010
1000
0000
0100
1000
0010
0000
0100
0010
1000
0100
0010
0001
,
0010
0000
0001
0100
0010
0000
1000
0100
1000
0000
0010
0100
0001
0010
0100
1000
,
0001
0000
0100
0001
0010
0000
0100
1000
0010
0000
1000
0100
0010
0001
0010
0100
,
1000
0000
0001
0100
0010
1000
0100
0000
1000
0010
0100
0001
0010
0000
0011
0000
,
0010
0000
0100
1000
0001
0000
0100
0000
1001
0000
0110
0000
1001
0000
0110
0000
,
0010
0000
1000
0100
0010
0000
0001
0000
0011
0000
1100
0000
0011
0000
1100
0000
,
0011
0000
0001
0010
0100
0000
1000
0000
0101
0000
1010
0000
0101
0000
1010
0000
,
0010
0000
1000
0100
0010
0000
0100
0000
1100
0000
0011
0000
0101
0000
1010
0000
,
1000
0000
0010
0100
0001
0000
0010
0000
0110
0000
0011
0000
1100
0000
0011
0000
,
0010
0000
0100
1000
0001
0000
0100
0000
0110
0000
0101
0000
1010
0000
0110
0000
,
0010
0000
1000
0100
0010
0000
0001
0000
0110
0000
1100
0000
0011
0000
0110
0000
,
0100
0000
1000
0001
0100
0010
1000
0000
0010
0100
0001
0100
0010
0000
0110
0000
,
0010
0000
1000
0010
0001
0010
1000
0000
0010
0001
0010
1000
0010
0000
1000
0000
,
0100
0000
0001
0100
1000
0000
0001
0010
0100
0000
1000
0010
0100
0000
0001
0000
,
0010
0000
0100
0001
0100
1000
0100
0000
0001
0100
1000
0100
0001
0000
0100
0000
,
1000
0000
0010
0100
0001
0000
0100
1000
0100
0000
0010
1000
0100
0000
0010
0000
,
0001
0000
0010
1000
0010
0001
0010
0000
0100
0001
0100
1000
0100
0000
1000
0000
,
0010
0000
0100
1000
0100
0000
0010
0100
0001
0000
0100
0001
1000
0000
0100
0000
,
1000
0000
0100
0001
0100
1000
0100
0000
0001
0100
1000
0100
0001
0000
0100
0000
,
1000
0000
0010
0001
0010
1000
0010
0000
0001
0010
1000
0010
0001
0000
0010
1000
,
0010
0000
1000
0010
0001
0010
1000
0000
0010
0001
0010
1000
0010
0000
1000
0000
,
0100
0000
0001
0100
1000
0000
0001
0010
0100
0000
1000
0010
0100
0000
0001
0000
,
0010
0000
0100
0001
0100
1000
0100
0000
0001
0100
1000
0100
0001
0000
0100
0000
,
1000
0000
0010
0100
0001
0000
0100
1000
0100
0000
0010
1000
0100
0000
0010
0000
,
0001
0000
0010
1000
0010
0001
0010
0000
0100
0001
0100
1000
0100
0000
1000
0000
,
0010
0000
0100
1000
0100
0000
0010
0100
0001
0000
0100
0001
1000
0000
0100
0000
,
1000
0000
0100
0001
0100
1000
0100
0000
0001
0100
1000
0100
0001
0000
0100
0000
,
1000
0000
0010
0001
0010
1000
0010
0000
0001
0010
1000
0010
0001
0000
0010
0000
;
#NOTES:
     dance-single:
     Renard:
     Easy:
     4:
     0.280,0.298,0.040,0.000,0.000:
0000
0000
0000
0000
,
0000
0000
0000
0000
,
0000
0000
0000
0000
,
0000
0000
0000
0000
,
0001
0000
0001
0000
1000
0100
0010
0000
,
0001
0000
0001
0000
1000
0100
0010
0100
,
1000
0000
1000
0000
0001
0100
0010
0000
,
1000
0000
1000
0000
0001
0100
0010
0000
,
1001
0000
0110
0000
0010
0100
0010
0000
,
0110
0000
1001
0000
0001
1000
0001
0000
,
1000
0100
0010
0001
,
1000
1000
0001
0001
1000
1000
0001
0000
,
0100
0000
0100
0000
0010
0010
0010
0000
,
1000
1000
0001
0001
,
1000
0000
1000
0000
0100
0100
0100
0000
,
0010
0000
0000
0001
0000
0000
1000
1000
,
0001
0000
0100
0000
0010
0000
0100
0010
,
1000
0000
1000
0000
0001
0000
0100
0001
,
1000
0000
1000
0000
0001
0000
0010
0001
,
1000
0000
1000
0000
0100
0000
1000
0001
,
1000
0000
1000
0000
0010
0000
0100
0010
,
0100
0000
0100
0000
0001
0000
1000
0100
,
1000
1000
0001
0001
,
1000
0100
0100
0010
0001
0001
1000
1000
,
0001
0100
0100
0010
1000
1000
0010
0000
,
1000
0100
0010
0001
,
1000
0100
0100
0010
0001
0001
1000
0000
,
0010
0100
0001
1000
,
0001
0010
0010
0100
1000
1000
0010
0000
,
1000
0010
0100
0001
,
1000
0100
0100
0010
0001
0001
1000
0000
,
0010
0100
0100
0010
0100
0100
0010
0000
,
1000
0000
1000
0010
0000
0010
0100
0000
,
0001
1000
0100
0010
,
0001
0000
0001
1000
0000
1000
0010
0000
,
0100
0100
0001
0001
,
1000
0100
0010
0100
0010
0001
0010
0000
,
0001
1000
0100
1000
,
1000
0010
0100
0010
0100
0001
1000
0000
,
0001
0100
0010
0100
0001
1000
0010
0000
;
#NOTES:
     dance-single:
     Renard:
     Beginner:
     3:
     0.163,0.179,0.010,0.000,0.000:
0000
0000
0000
0000
,
0000
0000
0000
0000
,
0000
0000
0000
0000
,
0000
0000
0000
0000
,
0001
0001
1000
0000
,
1000
1000
0001
0000
,
0100
0100
0010
0000
,
0010
0010
0100
0000
,
0001
0000
1000
0000
0000
0001
1000
0000
,
0010
0000
0100
0000
0000
0010
0100
0000
,
0001
0000
1000
0000
0000
0001
1000
0000
,
0010
0100
0010
0000
,
1000
0000
0010
0000
0000
1000
0010
0000
,
0100
0000
0001
0000
0000
0100
0001
0000
,
1000
1000
0001
0001
,
1000
0000
0000
0100
0000
0000
0010
0001
,
1000
0000
0001
0000
,
0100
0000
0010
0000
0000
0100
0010
0000
,
1000
0010
0000
0100
,
0000
0000
0001
0000
0000
1000
0001
0000
,
1000
0100
0000
0010
,
0000
0000
0001
0000
0000
1000
0001
0000
,
0100
0000
0010
0000
,
1000
0000
0000
0010
0000
0000
0100
0001
,
1000
0000
0000
0001
0000
0000
1000
0000
,
0000
0100
0010
0001
,
1000
0000
0000
0100
0000
0000
1000
0000
,
0000
0010
0000
0100
,
0001
0000
0000
1000
0000
0000
0100
0000
,
0000
0010
0001
1000
,
0001
0000
0000
0100
0000
0000
0010
0000
,
1000
0000
0000
0010
0000
0000
0100
0000
,
0001
0000
0000
1000
0000
0000
0001
0000
,
0000
1000
0100
0010
,
0001
0000
0000
1000
0000
0000
0001
0000
,
0000
0100
0010
0100
,
0000
0010
0000
1000
,
0000
0001
0100
0001
,
1000
0000
0000
0100
0000
0000
0010
0000
,
0001
0000
0000
1000
0000
0000
0101
0000
;
