#TITLE:Homosexual Love Scene (Remix);
#SUBTITLE:;
#ARTIST:Benn Jordan rmx by Emoticon;
#TITLETRANSLIT:;
#SUBTITLETRANSLIT:;
#ARTISTTRANSLIT:;
#CRChallenge:;
#BANNER:love-banner.avi;
#BACKGROUND:love-bg.png;
#LYRICSPATH:;
#CDTITLE:!cdtitle.png;
#MUSIC:love.ogg;
#OFFSET:0.000;
#SAMPLESTART:30.070;
#SAMPLELENGTH:12.000;
#SELECTABLE:YES;
#BPMS:0.000=71.500,20.000=143.000;
#STOPS:;
#BGCHANGES:;
#NOTES:
     dance-single:
     Renard:
     Hard:
     10:
     0.716,1.000,0.479,0.096,0.85:
0000
0000
0000
0000
,
0000
0000
0000
0000
,
0001
0000
1000
0100
1000
0000
0001
0000
1000
0000
0010
1000
0010
0000
1000
0000
0001
0000
1000
0100
1000
0000
0001
0000
1000
0000
0010
1000
0010
0000
1000
0000
,
0001
0000
0100
0001
0100
0000
0001
0000
1000
0000
0001
0010
0001
0000
1000
0000
0001
0000
0100
0001
0100
0000
0001
0000
1000
0000
0001
0010
0001
0000
1000
0000
,
0001
0100
0001
0100
0001
0100
0001
0100
0001
0100
0001
0100
0001
0100
0001
0100
,
0001
0010
0001
0000
1000
0100
0000
1100
0000
1100
0000
0100
0010
0000
0011
0000
,
0001
0010
0100
1000
0001
0010
0001
0010
0000
0001
0000
0010
0001
0000
1000
0100
,
0010
0001
0010
0000
0001
0010
0000
0011
0000
0011
0000
0100
1000
0000
1100
0000
,
1000
0100
1000
0000
0001
1000
0001
0000
1000
0100
0000
0000
0011
0000
0100
0000
,
1000
0100
1000
0000
0001
0010
0000
0011
0000
0011
0000
0010
0100
0000
1100
0000
,
1000
0100
0010
0001
1000
0100
1000
0100
0000
1000
0000
0100
1000
0000
0001
0010
,
0100
1000
0100
0000
1000
0100
0000
1100
0000
1100
0000
0010
0001
0000
0011
0000
,
1001
0000
0000
1001
0000
0110
0000
1001
0000
0000
0100
0000
1MM1
0000
0000
0000
,
0001
0010
0100
0000
1000
0100
0000
0010
0000
0001
0000
0010
0100
0000
1000
0000
,
0001
0100
0010
0000
1000
0010
0100
0001
0000
0100
0000
0010
1000
0000
0100
0000
,
0010
0000
0001
0000
0010
0100
0000
1000
0000
0001
0000
0010
0001
0000
1000
0000
,
0010
0100
0001
0000
0100
0010
1000
0100
0000
0010
0000
0001
0010
0000
0100
0000
,
1000
0100
0010
0000
0001
0010
0000
0100
0000
1000
0000
0100
0010
0000
0001
0000
,
1000
0010
0100
0000
0001
0100
0010
1000
0000
0010
0000
0100
0001
0000
0010
0000
,
0100
0000
1000
0000
0100
0010
0000
0001
0000
1000
0000
0100
1000
0000
0001
0000
,
1001
0000
0000
0110
0000
1001
0000
0110
0000
0000
1000
0000
0101
0000
0000
0000
,
0001
0100
1000
0000
0100
0010
1000
0010
,
0000
0001
0000
0010
1000
0010
0100
1000
,
0100
0000
0001
0000
1000
0100
0001
0100
,
0000
1000
0000
0100
0010
0000
0011
0000
,
0001
0010
1000
0000
0010
1000
0010
0001
,
0000
0010
0000
0001
0010
0100
1000
0100
,
1000
0000
0001
0100
1000
0100
0000
0001
,
0000
0100
0000
1000
0100
0000
0110
0000
,
0010
1000
0020
0000
2030
0000
0000
0000
,
3002
0000
0000
0203
0000
0310
1000
0100
,
0020
0000
0000
0000
0000
0000
0000
0000
0000
0000
0000
0000
0000
0000
0000
0030
0020
0000
0000
0000
0000
0000
0000
0000
0000
0000
0000
0000
0000
0000
0000
0000
0032
0000
0000
0000
0000
0000
0000
0000
0000
0000
0000
0000
0000
0000
0000
0000
1003
0000
0000
0000
0000
0000
0000
0000
0002
0000
0000
0000
0000
0000
0000
0000
,
0000
0023
0000
0230
0000
1300
0100
0010
,
0001
0000
1000
0001
1000
0000
0001
0000
0100
0000
0001
0100
0001
0000
1000
0000
,
0001
0000
0010
0001
0010
0000
0001
0000
1000
0000
0001
1000
0001
0000
1000
0000
,
0001
0000
0010
0001
0010
0000
0001
0000
1000
0000
0001
0100
0001
0000
0100
0000
,
0001
0000
1000
0001
1000
0000
0001
0000
0010
0000
0001
1000
0001
0000
1000
0000
,
1001
0000
0000
1001
0000
0000
0110
0000
0000
0110
0000
0000
0000
0000
0000
0000
,
1001
0000
0000
0000
0001
0100
0000
0010
0000
1000
0100
0000
1001
0000
0000
0000
,
0110
0000
0000
0110
0000
0000
1001
0000
0000
1001
0000
0000
0000
0000
0000
0000
,
0001
0000
0100
0000
0010
1000
0001
0000
0100
0010
0000
0010
0100
0000
1001
0000
,
0110
0000
0000
0100
0000
0000
0110
0000
1001
0000
0000
1000
0000
0000
1001
0000
,
1001
0000
0000
0001
0000
0000
1001
0000
0110
0000
0000
0010
0000
0000
0110
0000
,
0010
0000
0000
0010
1000
0000
0000
1000
0001
0000
0000
0001
0100
0000
0000
0100
,
0001
0000
1000
0000
0100
0000
0010
0000
0001
0010
0100
1000
0100
0010
0001
1000
,
0100
0000
0100
0000
0010
0001
0000
0010
0000
0001
0010
0000
1001
0000
0000
0000
,
1000
0100
0010
0000
0001
0010
0000
0100
0000
1000
0000
0100
0010
0000
0001
0000
,
1000
0010
0100
0000
0001
0100
0010
1000
0000
0010
0000
0100
0001
0000
0010
0000
,
0100
0000
1000
0000
0100
0010
0000
0001
0000
1000
0000
0100
1000
0000
0001
0000
,
0100
0010
1000
0000
0010
0100
0001
0010
0000
0100
0000
1000
0100
0000
0010
0000
,
0001
0010
0100
0000
1000
0100
0000
0010
0000
0001
0000
0010
0100
0000
1000
0000
,
0001
0100
0010
0000
1000
0010
0100
0001
0000
0100
0000
0010
1000
0000
0100
0000
,
0010
0000
0001
0000
0010
0100
0000
1000
0000
0001
0000
0010
0001
0000
1000
0000
,
1001
0000
0000
0110
0000
1001
0000
0110
0000
1000
0001
0000
1010
0000
0000
0000
;
#NOTES:
     dance-single:
     Renard:
     Medium:
     9:
     0.553,0.850,0.173,0.096,0.49:
0000
0000
0000
0000
,
0000
0000
0000
0000
,
0001
1000
0100
1000
0001
1000
0010
1000
0001
1000
0100
1000
0001
1000
0010
1000
,
1000
0001
0100
0001
1000
0001
0010
0001
1000
0001
0100
0001
1000
0001
0010
0001
,
1000
0010
1000
0010
1000
0010
1000
0010
1000
0010
1000
0010
1000
0010
1000
0010
,
1000
0000
0100
0000
0010
0001
0000
0010
0000
0100
0000
1000
0100
0000
1000
0000
,
0001
0000
0010
0000
0001
0000
1000
0010
0000
1000
0000
0100
1000
0000
0001
0000
,
0100
0000
0001
0000
1000
0100
0000
1000
0000
0100
0000
0010
0001
0000
0010
0000
,
0001
0010
0001
0000
1000
0001
0000
0000
0001
0010
0000
0000
0100
0000
1000
0000
,
0001
0000
0010
0000
0100
1000
0000
0100
0000
0010
0000
0001
0010
0000
0001
0000
,
1000
0000
0100
0000
1000
0000
0001
0100
0000
0001
0000
0010
0001
0000
1000
0000
,
0010
0000
1000
0000
0001
0010
0000
0001
0000
0010
0000
0100
1000
0000
0100
0000
,
1000
0000
0000
0100
0000
0010
0000
0001
0000
0000
0000
0000
1001
0000
0000
0000
,
1000
0000
0001
0000
0100
0000
0000
0010
0000
1000
0000
0000
1000
0000
0100
0000
,
0010
0000
0001
0000
0010
0000
0000
0100
0000
1000
0000
0000
0010
0000
0100
0000
,
0001
0000
0100
0000
0010
0000
0000
1000
0000
0010
0000
0000
0100
0000
0001
0000
,
0100
0000
0010
0000
1000
0000
0000
0100
0000
0010
0000
0000
0001
0000
0010
0000
,
0100
0000
1000
0000
0001
0000
0000
0100
0000
0001
0000
0000
1000
0000
0100
0000
,
0010
0000
0001
0000
1000
0000
0000
0010
0000
0100
0000
0000
0001
0000
0100
0000
,
0010
0000
1000
0000
0100
0000
0000
0010
0000
0001
0000
0000
0010
0000
0100
0000
,
1000
0000
0000
0001
0000
0100
0000
0010
0000
0000
0000
0000
1001
0000
0000
0000
,
0001
0100
1000
0000
0100
0010
1000
0010
,
0000
0001
0000
0010
1000
0010
0100
1000
,
0100
0000
0001
0000
1000
0100
0001
0100
,
0000
1000
0000
0100
0010
0000
0011
0000
,
0001
0010
1000
0000
0010
1000
0010
0001
,
0000
0010
0000
0001
0010
0100
1000
0100
,
1000
0000
0001
0100
1000
0100
0000
0001
,
0000
0100
0000
1000
0100
0000
0110
0000
,
0010
1000
0020
0000
2030
0000
0000
0000
,
3002
0000
0000
0203
0000
0310
1000
0100
,
0020
0000
0000
0000
0000
0000
0000
0000
0000
0000
0000
0000
0000
0000
0000
0030
0020
0000
0000
0000
0000
0000
0000
0000
0000
0000
0000
0000
0000
0000
0000
0000
0032
0000
0000
0000
0000
0000
0000
0000
0000
0000
0000
0000
0000
0000
0000
0000
1003
0000
0000
0000
0000
0000
0000
0000
0002
0000
0000
0000
0000
0000
0000
0000
,
0000
0023
0000
0230
0000
1300
0100
0010
,
0001
0001
1000
0100
0010
0010
0100
1000
,
0001
0001
0100
0010
1000
1000
0010
0100
,
0001
0001
1000
0100
0010
0010
0100
1000
,
1000
0001
0100
0010
1000
1000
0010
0100
,
0110
0000
0000
0110
0000
0000
0110
0000
0000
0110
0000
0000
0000
0000
0000
0000
,
0010
0000
1000
0000
0010
0000
0000
0100
0000
0001
0100
0000
0001
0000
0000
0000
,
0101
0000
0000
0101
0000
0000
0101
0000
0000
0101
0000
0000
0000
0000
0000
0000
,
0010
0000
1000
0000
0100
0000
1000
0000
0010
1000
0000
1000
0010
0000
1000
0000
,
0001
0000
0000
0101
0000
0000
0100
0000
0010
0000
0000
0110
0000
0000
0010
0000
,
1000
0000
0000
1010
0000
0000
1000
0000
0100
0000
0000
1100
0000
0000
0100
0000
,
0010
0000
0000
0010
0001
0000
0000
0001
0010
0000
0000
0010
0100
0000
0000
0100
,
1000
0100
0010
0001
1000
0001
0100
0010
,
1000
0000
0001
0000
1000
0000
0000
0001
0000
0001
1000
0000
1001
0000
0000
0000
,
0001
0000
0100
0000
0010
0000
0000
1000
0000
0100
0000
0000
1000
0000
0001
0000
,
0010
0000
0000
0000
0100
0000
0000
1000
0000
0010
0000
0000
0100
0000
0001
0000
,
0100
0000
0010
0000
1000
0000
0000
0100
0000
0010
0000
0000
0001
0000
0010
0000
,
0100
1000
0001
0000
0100
0000
0010
0000
,
1000
0000
0100
0000
0010
0000
0000
0001
0000
0010
0000
0000
0100
0000
1000
0000
,
0010
0000
0000
0000
0100
0000
0000
0001
0000
0100
0000
0000
0010
0000
1000
0000
,
0100
0000
0010
0000
0001
0000
0000
0010
0000
0100
0000
0000
1000
0000
0010
0000
,
0100
0000
0000
0001
0000
0100
0000
0010
0000
0000
0000
0000
1001
0000
0000
0000
;
#NOTES:
     dance-single:
     Renard:
     Easy:
     5:
     0.337,0.438,0.125,0.115,0.000:
0000
0000
0000
0000
,
0000
0000
0000
0000
,
0000
0000
0000
0000
,
0000
0000
0000
0000
,
1000
1000
1000
1000
1000
1000
1000
1000
,
0001
0000
1000
0000
,
0001
0100
0010
1000
,
0001
0000
1000
0000
,
0001
0100
0010
1000
,
0001
1000
0000
1000
,
0001
1000
0000
1000
,
0001
1000
0001
1000
,
1001
0000
0000
0110
0000
0000
0000
0000
,
0010
0000
1000
0000
0001
0100
0001
0000
,
1000
0000
0010
0000
0100
0001
0100
0000
,
0010
0000
1000
0000
0001
0100
0001
0000
,
1000
0000
0010
0000
0100
0001
0100
0000
,
0001
0000
0010
0000
0100
1000
0100
0000
,
0010
0000
0001
0000
1000
0100
1000
0000
,
0001
0000
0010
0000
0100
1000
0100
0000
,
0010
0000
0001
0000
1000
0100
1000
0000
,
0001
0000
1000
0000
0001
0100
0001
0100
,
0000
0001
0000
1000
0100
1000
0001
1000
,
0000
0000
0001
0000
0100
0001
0000
1000
,
0000
1000
0000
0100
1000
0000
0001
0000
,
0010
0000
0001
0000
1000
0010
1000
0001
,
0000
0010
0000
0001
1000
0010
1000
0001
,
0000
0000
0010
0000
0001
1000
0000
0010
,
0000
1000
0000
0001
0100
0001
1000
0000
,
0001
0001
1000
0000
,
0010
0000
0000
0100
0000
0000
0001
1000
,
0100
0000
1000
0000
0001
0000
0000
0100
,
0000
0001
0000
1000
0000
0100
0010
0001
,
1000
0001
1000
0000
,
0010
0000
0000
1000
0000
0000
0001
0100
,
0010
0000
1000
0000
0001
0010
0100
1000
,
0000
0001
0000
0100
0000
0010
1000
0001
,
2002
0000
0000
3013
0000
0000
0000
0000
,
1000
0001
1000
0000
0001
1000
0001
0000
,
2002
0000
0000
3013
0000
0000
0000
0000
,
1000
0001
1000
0000
0001
1000
0001
0000
,
2002
0000
0000
3003
2002
0000
0000
3003
,
2002
0000
0000
3003
2002
0000
0000
3003
,
1001
1001
1001
1001
,
0001
1000
0001
1000
0001
1000
0001
1000
,
0000
0000
0000
1001
,
0001
0000
0100
0000
0010
1000
0010
0000
,
1000
0000
0100
0000
0010
0001
0010
0000
,
0001
0000
0100
0000
0010
1000
0010
0000
,
1000
0100
1000
0000
0001
0010
0001
0000
,
1000
0000
0010
0000
0100
0001
0100
0000
,
0001
0000
0010
0000
0100
1000
0100
0000
,
1000
0000
0010
0000
0100
0001
0100
0000
,
0001
0000
0010
0000
0100
1000
0001
0000
;
#NOTES:
     dance-single:
     Renard:
     Beginner:
     2:
     0.186,0.232,0.077,0.134,0.000:
0000
0000
0000
0000
,
0000
0000
0000
0000
,
0000
0000
0000
0000
,
0000
0000
0000
0000
,
2000
0000
0000
0000
,
0001
0000
0001
0000
,
0001
0000
0001
0000
,
0010
0000
0010
0000
,
0100
0000
0100
3000
,
1000
0000
1000
0000
,
0001
0000
0001
0000
,
0100
0000
0100
0000
,
0001
0000
0011
0000
,
0001
0000
1000
0000
,
0100
0000
1000
0000
,
0001
0000
0010
0000
,
0001
1000
0010
0100
,
0001
0000
1000
0000
,
0100
0000
1000
0000
,
0001
0000
0010
0000
,
0001
1000
0010
0000
,
2000
0000
3010
0000
,
0100
0001
0010
0000
,
0002
0000
0013
0000
,
0001
1000
0100
0010
,
0002
0000
1003
0000
,
0010
0100
0010
1000
,
0002
0000
0023
0000
,
0130
1000
0001
0000
,
2000
0000
0000
0000
,
0010
0000
0010
0000
,
3002
0000
0000
0000
,
0100
0000
0100
0000
,
2003
0000
0000
0000
,
0100
0000
0100
0000
,
3002
0000
0000
0000
,
0010
0000
0010
0000
,
1003
0000
0000
0000
,
0110
0000
0000
0000
,
1001
0000
0000
0000
,
0110
0000
0000
0000
,
2002
0000
0000
0000
,
3013
0000
0000
0000
,
0202
0000
0010
0000
,
1000
0010
1000
0313
,
0000
0000
0000
1001
,
0001
0001
1000
1000
,
0001
0100
0010
1000
,
0001
0001
1000
1000
,
0001
0100
0010
0000
,
1000
1000
0001
0001
,
1000
0100
0010
0001
,
1000
1000
0001
0001
,
1000
0100
0010
1001
;
