#TITLE:Hexadecimal Genome;
#SUBTITLE:;
#ARTIST:Bit Shifter;
#TITLETRANSLIT:;
#SUBTITLETRANSLIT:;
#ARTISTTRANSLIT:;
#CRChallenge:;
#BANNER:genome-banner.avi;
#BACKGROUND:genome-bg.png;
#LYRICSPATH:;
#CDTITLE:!cdtitle.png;
#MUSIC:genome.ogg;
#OFFSET:0.000;
#SAMPLESTART:36.715;
#SAMPLELENGTH:12.000;
#SELECTABLE:YES;
#BPMS:0.000=195.000;
#STOPS:0.000=0.308
,1.000=0.615
,1.500=0.154
,2.500=0.462
,11.000=0.308
,12.000=0.615
,12.500=0.154
,13.500=0.462
,22.000=0.308
,23.000=0.615
,23.500=0.154
,24.500=0.462
,33.000=0.308
,34.000=0.615
,34.500=0.154
,35.500=0.462
;
#BGCHANGES:;
#NOTES:
     dance-single:
     Renard:
     Medium:
     9:
     0.746,0.874,0.635,0.514,0.000:
M00M
M00M
M00M
M00M
M00M
M00M
0001
0010
,
0100
1000
0001
0010
0100
1000
0001
0010
,
0100
1000
0001
0010
0100
1000
1100
1001
,
1001
0011
1001
1001
1000
0100
0010
0001
,
1000
0100
0010
0001
1000
0100
0010
0001
,
1000
0100
0010
0001
0101
1001
1001
1010
,
1001
1001
1000
0010
0100
0001
1000
0010
,
0100
0001
1000
0010
0100
0001
1000
0010
,
0100
0001
1010
1001
1010
0101
1001
1001
,
0001
0100
0010
1000
0001
0100
0010
1000
,
0001
0100
0010
1000
0001
0000
2002
0000
,
0020
0000
0000
3000
,
M003
M00M
M00M
M00M
,
0202
0000
0000
0003
,
030M
0M0M
0M0M
0M0M
,
2200
0000
0000
3000
,
M300
MM00
MM00
MM00
,
2002
0000
0030
0010
,
0020
0030
0020
3033
,
0001
0010
0001
0100
00M0
0100
M001
0010
,
0M01
0100
M000
0100
00M1
0100
M010
0000
,
100M
0010
1000
0100
0000
1000
0010
1000
,
0100
1000
0000
1000
0010
1000
0M10
000M
,
M100
0001
0010
0001
0M00
1000
0001
0100
,
M001
0010
0000
0001
1M00
0010
1000
0000
,
0M01
1000
0010
1000
0000
0100
1000
0010
,
1000
0001
0000
1000
0100
0010
0001
1000
,
0001
0010
0002
0000
0203
0000
2300
0000
,
3200
0000
0301
0010
2000
0000
3010
0000
,
0100
1000
0100
0000
0010
0001
0010
0000
,
0001
0100
0001
0000
1000
0010
1000
0000
,
1000
0100
2000
0000
3020
0000
0032
0000
,
0023
0000
1030
0100
0002
0000
0103
0000
,
0010
0001
0010
0000
0100
1000
0100
0000
,
1000
0010
1000
0100
0001
0100
1000
0010
,
1000
0100
0010
0001
1000
0000
1001
0000
,
0001
0100
0010
1000
0001
0000
1001
0000
,
1000
0100
0010
0001
1000
0000
1001
0000
,
0001
0010
0100
1000
0001
0100
0010
1000
,
0100
0010
0001
0010
0001
0000
0011
0000
,
0001
0010
0100
1000
0100
0000
1100
0000
,
1000
0010
0100
0001
1000
0000
1010
0000
,
1000
0010
0100
0001
0010
0100
1000
0000
,
2002
0000
3003
0110
,
2002
0003
0020
3030
,
0202
0000
0303
0110
,
2020
0030
0002
3000
,
0200
0000
0303
1001
,
0220
0030
0002
0303
,
0220
0000
0330
1010
,
2002
3003
0202
0303
,
2002
0000
0003
3010
0000
0000
0110
0000
,
2000
0100
0000
0001
0010
0000
3010
0000
,
0202
0000
0300
0013
0000
0000
0110
0000
,
2000
0010
0001
0000
0100
0000
3100
0000
,
1200
0000
0000
0301
0000
0000
0101
0000
,
0201
0000
0001
0010
0000
0010
1300
0000
,
1000
0010
1010
0000
0001
0100
0101
0000
,
0001
0100
0010
0100
1000
0100
0010
0100
,
0001
0010
0001
0010
0100
0010
0100
0010
,
0100
1000
0100
1000
0010
1000
0010
1000
,
0010
0100
0010
0100
0001
0100
0001
0100
,
0001
0010
0001
0010
0100
0010
0100
0010
,
0100
1000
0100
1000
0010
1000
0010
1000
,
0010
0100
0010
0100
0001
0100
0001
0100
,
0001
1000
0001
1000
0100
1000
0100
1000
,
0100
0010
0100
0010
0001
0010
0001
0010
,
0001
0010
0000
0110
0110
0000
0100
1000
,
0010
0100
0000
0101
0101
0000
0001
0010
,
0100
1000
0000
1001
1001
0000
0001
0100
,
0010
1000
0100
0010
0001
0000
1000
0001
,
0000
0100
0010
1000
0010
0000
1010
1010
,
0000
1000
0100
0010
0001
0000
0011
0011
,
0000
0001
0010
0100
1000
0000
1001
1001
,
0000
1000
0010
0100
0001
0000
1001
0220
,
0000
0000
0000
0330
0000
0000
0000
0000
;
#NOTES:
     dance-single:
     Renard:
     Easy:
     6:
     0.459,0.646,0.000,0.192,0.000:
0000
0000
0000
0000
0000
0000
0001
0100
,
0001
0000
1000
0100
1000
0000
0001
0100
,
0001
0000
1000
0100
1000
0000
0001
0000
,
0001
1000
0000
1000
0001
0100
0001
0000
,
1000
0100
1000
0000
0001
0100
0001
0000
,
1000
0100
1000
0000
0001
0000
0001
1000
,
0000
1000
0100
1000
0100
0000
1000
0001
,
1000
0000
0001
0100
0001
0000
1000
0001
,
1000
0000
0100
0000
0100
1000
0000
1000
,
0001
0100
0001
0000
1000
0100
1000
0000
,
0001
0100
0001
0000
1000
0100
1000
0000
,
0002
0000
0000
0000
0000
0003
0010
0000
,
0200
0000
0000
0000
,
2300
0000
0000
3010
,
0200
0000
0000
0000
,
0302
0000
0000
0013
,
0002
0000
0000
0000
,
2003
0000
0000
3100
,
2000
0000
3020
0000
,
0230
0000
0001
0000
,
0320
0000
0230
0302
,
0023
0000
0100
0000
,
0001
0000
0230
2300
,
3020
0000
0100
0000
,
1000
0000
0130
0001
,
0020
0000
0100
0000
,
1000
0000
0100
0100
,
0130
0000
1000
0100
1000
0000
0100
0000
,
1000
0000
0000
0001
1000
0000
0000
0000
,
0001
0100
0001
1000
,
0100
1000
0001
0010
,
0001
0000
1000
0001
1000
0000
0001
0000
,
0100
0000
0000
0010
0100
0000
0000
0000
,
0010
1000
0010
0000
,
0100
0001
1000
0100
,
0010
0000
0001
1000
0001
0000
1000
0000
,
0010
0000
0000
0100
0010
0000
0000
0000
,
0100
0001
1000
0100
,
0010
0001
1000
0010
,
0100
0000
0001
1000
0001
0000
1000
0000
,
0100
0000
0000
0010
0010
0000
0000
0000
,
0001
1000
0010
0100
,
0010
0000
1000
0000
0001
1000
0001
1000
,
0001
0000
0100
0010
,
1000
0000
0010
0000
,
0100
0000
0010
0100
,
0001
0000
0010
0000
,
0100
0000
1000
0001
,
1000
0000
0010
0000
,
0100
0000
0001
1000
,
0100
0000
1000
0000
,
0001
0000
0000
0010
0000
0000
0100
0000
,
0000
1000
0000
0000
0010
0000
0010
0000
,
0100
0000
0000
0001
0000
0000
1000
0000
,
0000
0100
0000
0000
0010
0000
0010
0000
,
0001
0000
0000
1000
0000
0000
0010
0000
,
0100
0000
0000
0001
0000
0000
1000
0000
,
0001
0001
1000
1000
,
0001
1000
0001
1000
,
0001
1000
0001
1000
0001
1000
0001
1000
,
0001
1000
0001
1000
0001
1000
0001
1000
,
0001
1000
0001
1000
0001
1000
0001
1000
,
0001
1000
0001
1000
0001
1000
0001
1000
,
0001
1000
0001
1000
0001
1000
0001
1000
,
0001
1000
0001
1000
0001
1000
0001
1000
,
0001
1000
0001
1000
0001
1000
0001
1000
,
0001
1000
0001
1000
0001
1000
0001
1000
,
0001
0000
1000
0000
0000
0001
1000
0000
,
0010
0000
0100
0000
0000
0010
0100
0000
,
0001
0000
1000
0000
0000
0001
1000
0000
,
0010
0000
0100
0000
0000
0010
0100
0000
,
0001
0000
1000
0000
0000
0001
1000
0000
,
0010
0000
0100
0000
0000
0010
0100
0000
,
0001
0000
1000
0000
,
0000
0001
0100
0001
0100
0000
0001
2000
,
0000
0000
0000
3000
0000
0000
0000
0000
;
#NOTES:
     dance-single:
     Renard:
     Beginner:
     3:
     0.301,0.377,0.020,0.323,0.000:
1000
1000
0000
0001
,
0000
0001
0000
0100
,
0000
0100
0000
0001
,
0001
0000
1000
0000
,
1000
0000
0100
0000
,
0100
0000
0010
0010
,
0000
0001
0000
0001
,
0000
1000
0000
1000
,
0000
0010
0010
0000
,
0100
0000
0100
0000
,
0001
0000
0001
0000
,
2000
0000
0000
0100
,
0200
0000
3000
0000
,
0020
0000
0030
0010
,
0020
0000
0000
0300
,
0002
0000
0003
0001
,
0002
0000
0030
0000
,
2000
0000
3000
1000
,
2000
3000
2000
3003
,
1001
0000
1001
0001
,
1000
0100
0010
0010
,
0002
0000
0023
0000
,
0230
0000
1300
0100
,
2000
0000
3020
0000
,
0230
0000
0302
0000
,
2003
0000
0000
0000
,
0000
0000
0000
0000
,
3001
0000
0100
0100
,
0010
0000
0010
0000
,
1000
0000
1000
0000
,
0001
0000
0001
0000
,
0100
0000
0010
1000
,
1000
0000
0001
0000
,
1000
0000
1000
0000
,
0100
0000
0100
0010
,
0001
0000
1000
0001
,
0100
0000
0100
0000
,
0001
0000
1000
0000
,
0100
0010
0001
1000
,
0010
0000
0010
0100
,
0001
0000
1000
0000
,
0001
0000
0010
0000
,
0200
0000
0000
0000
,
2300
0000
0000
0000
,
3020
0000
0032
0000
,
0023
0000
0000
0000
,
0230
0000
0302
0000
,
2003
0000
0000
0000
,
3200
0000
0302
0000
,
0203
0000
0000
0000
,
0320
0000
0032
0000
,
1003
0000
1000
0000
,
1000
0000
1000
0100
,
0010
0000
0010
0000
,
0010
0000
0010
0001
,
0100
0000
0100
0000
,
0100
0000
0100
0001
,
0010
0001
0010
0001
,
0010
0010
0001
0001
,
0000
1000
0100
0010
,
0001
0000
0001
0000
,
1000
0000
1000
0000
,
1000
0000
1000
0000
,
1000
0001
0010
0100
,
1000
0000
1000
0000
,
0001
0000
0001
0000
,
1000
0000
1000
0000
,
0010
0100
0010
0100
,
0010
0100
0010
0100
,
0010
0100
0010
0100
,
0010
0100
0010
0100
,
0001
1000
0001
1000
,
0001
1000
0001
1000
,
0200
0000
0320
0000
,
0000
0031
1000
0010
;
#NOTES:
     dance-single:
     Renard:
     Hard:
     10:
     0.897,1.000,0.736,0.575,0.091:
MMMM
MMMM
MMMM
MMMM
MMMM
MMMM
0101
0010
,
1000
0010
0101
1000
0010
1000
0101
0010
,
1000
0010
0101
1000
0010
1000
0MMM
MMMM
,
MMMM
MMMM
MMMM
MMMM
1100
0010
0001
0010
,
1100
0001
0010
0001
1100
0010
0001
0010
,
1100
0001
0010
0001
MMM0
MMMM
MMMM
MMMM
,
MMMM
MMMM
1001
0010
0100
0010
1001
0100
,
0010
0100
1001
0010
0100
0010
1001
0100
,
0010
0100
M0MM
MMMM
MMMM
MMMM
MMMM
MMMM
,
0110
0001
1000
0001
0110
1000
0001
1000
,
0110
0001
1000
0001
0110
1000
0001
1000
,
0002
0103
1000
0100
0001
0010
0200
0310
,
0200
0000
0310
0000
0100
1000
0100
0000
2000
0000
3010
0000
0200
0000
0301
0000
,
2000
3010
0001
0010
1000
0100
0020
0130
,
0020
0000
0130
0000
0010
0001
0010
0000
0002
0000
0103
0000
0020
0000
1030
0000
,
0002
0103
1000
0100
0001
0010
0200
0310
,
0200
0000
0310
0000
0100
1000
0100
0000
2000
0000
3010
0000
0200
0000
0301
0000
,
2000
3010
0001
0010
1000
0100
0020
0130
,
0020
0230
2000
0000
0000
0000
3310
0000
,
1001
0000
0000
0000
0010
0100
0010
0000
0000
0000
1000
0000
0010
0000
0000
0000
,
0100
0001
0100
0000
0000
0000
0001
0000
1000
0000
0000
0000
0100
0000
0000
0000
,
1001
0000
0000
0000
0100
0010
0100
0000
0000
0000
0001
0000
0100
0000
0000
0000
,
0010
0000
0010
0000
0010
0000
1000
0010
1000
0000
0001
0000
0010
0000
0000
0000
,
1001
0000
0000
0000
0010
0100
0010
0000
0000
0000
1000
0000
0010
0000
0000
0000
,
0100
0001
0100
0000
0000
0000
0001
0000
1000
0000
0000
0000
0100
0000
0000
0000
,
1001
0000
0000
0000
0100
0010
0100
0000
0000
0000
0001
0000
0100
0000
0000
0000
,
0010
0000
1000
0000
0001
0000
1000
0001
1000
0000
0010
0000
0010
0000
0000
0000
,
1000
0010
0002
0013
0200
0301
0200
1300
,
0200
0310
1000
0100
0200
0301
0100
0010
,
0001
0010
0001
0010
0100
0010
0100
0010
,
0100
1000
0100
1000
0010
1000
0010
1000
,
0001
0100
2000
3100
0020
1030
0020
0031
,
0020
0130
0001
0010
0020
1030
0010
0100
,
1000
0100
1000
0100
0010
0100
0010
0100
,
0010
0001
0010
0001
0100
0001
0100
0001
,
1000
0010
0002
0013
0200
0301
0200
1300
,
0200
0310
1000
0100
0200
0301
0100
0010
,
0001
0010
0001
0010
0100
0010
0100
0010
,
0100
1000
0100
1000
0010
1000
0010
1000
,
0001
0100
2000
3100
0020
1030
0020
0031
,
0020
0130
0001
0010
0020
1030
0010
0100
,
2000
3100
2000
3100
0020
0130
0020
0130
,
0010
0001
0001
1000
0001
0000
2002
0000
,
0020
0000
0000
3000
,
M003
M00M
M10M
M00M
,
0202
0000
0000
0003
,
030M
0M0M
1M0M
0M0M
,
2200
0000
0000
3000
,
M300
MM00
MM01
MM00
,
2002
0000
0030
0010
,
0020
0030
0020
3033
,
1001
0000
0000
0000
0100
0010
0100
0000
0000
0000
0001
0000
0100
0000
0000
0000
,
0010
1000
0010
0000
0000
0000
1000
0000
0001
0000
0000
0000
0010
0000
0000
0000
,
1001
0000
0000
0000
0010
0100
0010
0000
0000
0000
1000
0000
0010
0000
0000
0000
,
0100
0000
0100
0000
0100
0000
0001
0100
0001
0000
1000
0000
0100
0000
0000
0000
,
1001
0000
0000
0000
0100
0010
0100
0000
0000
0000
0001
0000
0100
0000
0000
0000
,
0010
0000
0000
0000
0010
1000
0010
0000
0000
0000
1000
0000
0010
0000
0000
0000
,
1000
0000
0010
0000
0100
0000
0001
0010
0001
0000
0100
0000
0010
0000
1000
0000
,
1001
0010
1001
0010
1001
0010
1001
0000
,
0001
0100
0001
0100
1000
0100
1000
0100
,
0001
0010
0001
0010
1000
0010
1000
0010
,
0100
0001
0100
0001
0100
1000
0100
1000
,
0010
1000
0010
1000
0010
0001
0010
0001
,
1000
0100
1000
0100
0001
0100
0001
0100
,
0001
0010
0001
0010
1000
0010
1000
0010
,
0001
0100
0001
0100
1000
0100
1000
0100
,
0010
1000
0010
1000
0001
0010
0001
0010
,
0001
1100
0010
1001
1001
0010
0101
0101
,
0010
1100
0010
1001
1001
0100
1010
1010
,
0100
0011
0100
1010
1010
0100
0011
0011
,
0100
1001
0010
0101
0101
0010
1001
1001
,
1000
0011
0100
1001
1001
0100
1010
1010
,
0100
0011
0100
1001
1001
0010
0101
0101
,
0000
0101
1010
1100
0011
0000
0101
0101
,
0000
1010
0101
0011
1100
0000
1010
2002
,
0000
0000
0000
3003
0000
0000
0000
0000
;
