#TITLE:Help Me, Erin!!;
#SUBTITLE:;
#ARTIST:Beat Ball;
#TITLETRANSLIT:;
#SUBTITLETRANSLIT:;
#ARTISTTRANSLIT:;
#CRChallenge:;
#BANNER:erin-banner.avi;
#BACKGROUND:erin-bg.jpg;
#LYRICSPATH:;
#CDTITLE:!cdtitle.png;
#MUSIC:erin.ogg;
#OFFSET:0.000;
#SAMPLESTART:29.378;
#SAMPLELENGTH:12.000;
#SELECTABLE:YES;
#BPMS:0.000=195.000;
#STOPS:;
#BGCHANGES:;
#NOTES:
     dance-single:
     Renard:
     Medium:
     9:
     0.704,0.707,0.578,0.196,0.055:
0000
0000
0000
0000
,
0000
0000
0000
0000
,
0000
0000
0000
0000
,
0000
0000
0000
0000
,
1100
1100
0011
0011
,
0000
0000
1000
0100
0010
0001
1000
0000
,
0011
0011
1100
1100
,
0000
0000
0001
0010
0100
1000
0001
0000
,
1000
0100
1000
0100
1000
0010
1000
0010
,
1000
1010
0100
0101
,
0001
0010
0001
0010
0001
0100
0001
0100
,
0001
0011
1000
1100
,
1000
0100
0010
0000
0001
0010
0100
0000
,
1000
0100
0010
0000
0001
0010
0100
0000
,
1000
0010
0100
0001
0100
0010
1000
0010
,
1000
0010
0000
1000
0000
0010
0000
1000
0020
0000
0000
0000
2030
0000
0000
0000
,
3020
0000
0130
0000
0002
0000
0013
0100
,
1000
0100
0010
0001
1000
0000
0001
0010
,
0100
1000
0010
0100
,
0101
0000
0110
0000
1001
0000
1000
0100
,
0020
0000
0031
0010
0200
0000
1300
0010
,
0100
0001
0100
0010
1000
0000
0010
1000
,
0001
0000
0100
0001
0010
0100
1000
0001
,
0010
0000
0000
0000
0001
0000
0010
0000
0100
1000
0100
0000
1000
0000
0000
0000
,
0001
0000
0001
0000
0001
0000
0010
0100
,
0000
1000
0100
0010
0000
0001
0010
0100
,
1000
0000
0010
0000
0100
0010
1000
0002
,
0010
0000
0010
0000
0100
0000
0103
0001
,
0100
0000
0010
0000
1000
0000
0100
0010
,
0000
0001
0010
0100
0000
1000
0010
0100
,
0001
0000
0100
0000
0010
1000
0001
2000
,
0100
0010
0001
3100
,
1100
0000
1100
0000
0011
0000
0001
0010
,
0000
0010
0100
1000
0000
0010
0100
0001
,
1000
0000
0001
0100
0001
0010
0001
2000
,
0100
0010
0001
3001
,
2001
3100
1001
0110
,
2010
0000
0001
0010
3010
0000
1000
0010
,
0200
0000
0301
0010
0200
0000
2300
0000
,
3100
1100
0110
0011
,
1100
1001
1100
1001
,
1000
0100
0010
0001
1000
0000
0001
0000
,
0011
0000
1001
0000
0001
0100
0010
1000
,
0000
1000
0010
0100
0001
0000
1000
0000
,
0011
1001
0101
1001
,
0001
0000
0000
0010
0000
0000
0100
0000
1000
0000
0000
0000
0001
0000
0000
0000
,
1000
0100
1000
0100
1000
0010
1000
0010
,
1000
0000
0100
0000
0010
0000
0001
0000
0010
0000
0100
1000
0100
0000
1000
0000
,
0001
0000
0001
0000
0001
0000
1000
0100
,
0000
0010
0001
1000
0000
0001
0010
0100
,
1000
0000
0001
0000
0100
0010
1000
0020
,
0100
0000
0100
0000
1000
0000
1030
0010
,
0100
0000
0010
0000
0010
1000
0100
0010
,
0000
0010
0001
0010
0000
0100
1000
0100
,
0010
0000
0001
0000
0010
0100
1000
0020
,
0100
0001
0100
1030
,
1010
0000
1010
0000
1010
0000
0100
0001
,
0000
0010
0100
1000
0000
0001
0010
0100
,
1000
0000
1000
0000
0010
0100
0001
0020
,
0100
0100
0001
0031
,
0011
0000
0010
0000
0100
1000
0010
0100
,
0000
0100
0010
0000
1000
0000
0100
0010
,
0001
0000
0000
0000
1000
0000
0000
0000
0011
0000
0000
0110
0000
0000
1100
0000
,
2001
0010
0100
3100
,
1000
1100
1000
1100
,
1000
0100
0010
0001
1000
0000
1100
0000
,
1000
0100
0010
0001
0010
0100
1000
0001
,
0000
0100
0010
1000
0001
0100
0010
1000
,
0001
0101
0001
0011
,
0001
0000
0000
0010
0000
0000
0100
0000
1000
0000
0000
0000
0001
0000
1000
0000
,
0010
1000
0010
1000
0100
1000
0100
1000
,
0011
0000
0000
0110
0000
0000
1100
0000
1001
0000
0000
0000
0000
0000
0000
0000
,
0110
0000
0000
0000
;
#NOTES:
     dance-single:
     pyroko:
     Easy:
     6:
     0.425,0.589,0.055,0.109,0.022:
0000
0000
0000
0000
,
0000
0000
0000
0000
,
0000
0000
0000
0000
,
0000
0000
0000
0000
,
1000
1000
0100
0100
,
0000
0000
0000
0000
,
0010
0010
0001
0001
,
0000
0000
0000
0000
,
0100
0100
0010
0010
,
0000
0000
0000
0000
,
0001
0001
1000
1000
,
0000
0000
0000
0000
,
0100
0100
0010
0010
,
0001
0001
1000
1000
,
0010
0010
0100
0100
,
0001
0000
0000
0010
0000
0001
0000
0002
0000
0000
0000
0000
0000
0000
0000
0000
,
2003
0000
3020
0000
,
0230
0310
1000
0000
,
0100
0010
0001
1000
,
0001
0010
0001
0100
,
0020
0000
2030
0000
,
3100
0010
0100
1000
,
0001
0010
0001
0100
,
0001
0000
0010
0000
0001
0010
0001
0000
,
0200
0001
1000
0001
,
1000
0001
1000
0001
,
1000
0001
1000
0001
,
1000
0001
1000
0001
,
1000
0001
1000
0001
,
1000
0001
1000
0001
,
1000
0001
1000
0001
,
1000
0000
0001
0000
1000
0000
0001
0300
,
0020
0001
1000
0001
,
1000
0001
1000
0001
,
1000
0001
1000
0001
,
1000
0001
1000
0001
,
1000
0001
1000
0001
,
1000
0001
1000
0001
,
1000
0001
1000
0001
,
1000
0000
0001
0000
1000
0000
0001
0030
,
0010
0001
1000
0010
,
0100
0010
1000
0100
,
0010
0010
0001
0001
,
1000
0000
1000
0000
0010
0100
0010
0000
,
1000
1000
0100
0100
,
0010
0001
0010
0001
,
1000
0010
0100
0010
,
1000
0000
0100
0010
0001
0000
1000
0000
,
0200
0001
1000
0001
,
1000
0001
1000
0001
,
1000
0001
1000
0001
,
1000
0001
1000
0001
,
1000
0001
1000
0001
,
1000
0001
1000
0001
,
1000
0001
1000
0001
,
1000
0000
0001
0000
1000
0000
1000
0300
,
0020
0001
1000
0001
,
1000
0001
1000
0001
,
1000
0001
1000
0001
,
1000
0001
1000
0001
,
1000
0001
1000
0001
,
1000
0001
1000
0001
,
1000
0001
1000
0001
,
1000
0000
0001
0000
1000
0000
0001
0030
,
1000
0010
0100
0010
,
1000
0000
0100
0000
0010
0100
0010
0000
,
0001
1000
0001
0100
,
0010
0100
0010
1000
,
1100
1100
0110
0110
,
0001
0000
1000
0000
0001
0010
0001
0100
,
0010
1000
0100
0010
,
0100
0000
0000
1000
0000
0000
0001
0000
1000
0000
0000
0000
0000
0000
0000
0000
,
1001
0000
0000
0000
;
#NOTES:
     dance-single:
     pyroko:
     Beginner:
     2:
     0.243,0.393,0.142,0.175,0.000:
0000
0000
0000
0000
,
0000
0000
0000
0000
,
0000
0000
0000
0000
,
0000
0000
0000
0000
,
0000
0000
0000
0000
,
0000
0000
0000
0000
,
0000
0000
0000
0000
,
0000
0000
0000
0000
,
1001
0000
1001
0000
,
0000
0000
0000
0000
,
0110
0000
0110
0000
,
0000
0000
0000
0000
,
1001
0000
1001
0000
,
0110
0000
0110
0000
,
1000
0100
1000
0100
,
1000
0001
0010
0000
,
0002
0000
0203
0000
,
0310
1000
0010
0000
,
0100
0001
0100
0000
,
0001
0010
0001
0000
,
2000
0000
3020
0000
,
0130
0010
0100
0000
,
0002
0000
2003
0000
,
3200
0000
0320
0000
,
0031
0000
0000
0000
,
0100
0000
0000
0000
,
0010
1000
0010
0000
,
0100
0000
0000
0000
,
0001
0000
0010
0000
,
0100
0000
1000
0000
,
0100
1000
0100
0000
,
0010
0001
0010
0000
,
0001
0000
0000
0000
,
0100
0000
0000
0000
,
0010
1000
0010
0000
,
0100
0000
0001
0000
,
0010
0000
0100
0000
,
1000
0000
0100
0000
,
0010
0001
0010
0001
,
1000
0001
0100
0001
,
0010
0000
0001
0000
,
1000
0000
0010
0000
,
0200
0000
0000
0000
,
0000
0000
0000
0300
,
0001
0000
1000
0000
,
0001
0000
0100
0000
,
0010
0000
0000
0000
,
1000
1000
1000
1000
,
0001
0000
0000
0000
,
0010
0000
0000
0000
,
0100
1000
0100
0000
,
0000
0000
0000
0000
,
0010
0000
0000
0000
,
0001
0000
0000
0000
,
0100
0001
0100
0000
,
0010
0000
1000
0000
,
0010
0100
0010
0000
,
0000
0000
0000
0000
,
1000
0001
1000
0000
,
0000
0000
0000
0000
,
0002
0000
0023
0000
,
0230
0000
2300
0000
,
3200
0000
0320
0000
,
0031
1000
0001
0100
,
1001
0000
1001
0000
,
0001
0000
0100
0000
,
0020
0000
0000
0000
,
0000
0000
0000
0030
,
0110
0000
0110
0000
,
0010
0000
1000
0000
,
0100
0000
0010
0000
,
0001
1000
0001
0000
,
1001
0000
0000
0000
;
#NOTES:
     dance-single:
     Renard:
     Challenge:
     14:
     1.000,1.000,1.000,1.000,0.000:
0000
0000
0000
0000
,
0000
0000
0000
0000
,
0000
0000
0000
0000
,
0000
0000
0000
0000
,
0000
0000
0000
0000
,
0000
0000
0000
0000
,
0000
0000
0000
0000
,
0000
0000
0000
0000
,
2002
3013
2002
3103
,
0010
0010
0010
0010
,
2002
3103
2002
3013
,
0100
0100
0100
0100
,
0202
0313
2200
3310
,
2002
3013
0202
0313
,
2200
3310
2002
3013
,
1110
1101
1110
1101
1110
0000
0000
0000
,
1011
0000
0002
0200
0313
0000
0002
2000
,
0010
0000
0100
0000
3113
0000
0010
2000
,
0200
0000
0010
0001
0011
0000
0311
0000
,
0002
0000
3110
0000
0200
0000
0010
1303
,
1111
0000
0002
0200
0313
0000
0002
2000
,
0010
0100
3013
0000
0110
0000
0020
2000
,
0001
0031
0200
0001
,
0010
0001
0010
0000
3322
2233
3311
0000
,
1011
0000
1101
0000
1011
0000
0101
0111
,
0000
1001
1011
0000
1110
0000
1001
0101
,
0220
0000
0001
0030
0002
0010
1000
1313
,
0000
2020
3131
0000
0202
0000
1313
0000
,
2002
0000
3013
0000
1011
0000
1011
0111
,
0000
0202
0010
0000
0310
0000
2000
0010
,
0013
0000
0200
0000
0010
0001
0010
3301
,
0000
0020
0001
0031
0011
0000
1111
0000
,
0111
0000
1011
0000
0111
0000
0002
0200
,
0000
0010
1000
0313
0000
0020
2030
0200
,
0010
0000
0001
0000
0010
3302
2000
0200
,
0003
0001
0010
0000
3311
0000
1110
1101
,
1100
0010
0101
0010
,
1011
1101
1011
0100
,
1010
0100
0011
0100
,
0111
1011
1110
1011
,
2002
3013
2002
3103
,
0202
1313
0202
1313
0202
0000
1313
0000
,
0001
0001
0001
0001
0100
0100
0100
0100
,
0010
0010
0010
0010
1000
1000
1000
1000
,
2200
3311
2200
3311
,
2200
3311
2200
3311
2200
0000
3311
0000
,
1000
1000
0100
0100
0010
0010
0001
0001
,
1001
1000
1010
1000
1100
1000
1011
0000
,
0202
0313
2002
3013
1001
0000
1010
2200
,
0000
0010
0001
3310
0000
0011
0000
2200
,
3311
0000
1001
0000
0202
0010
1303
0002
,
0200
1000
0010
0000
1313
0000
1011
0000
,
0101
0000
0111
0000
1100
0000
2200
3310
,
0000
1100
0010
1001
0000
0202
0000
0010
,
1000
0000
1313
0000
0202
0010
1000
0313
,
0111
1011
0111
1011
,
0202
0313
2002
3013
2200
3310
1001
2002
,
3000
0200
0020
2000
3333
0001
0100
0010
,
0101
0000
0111
0000
0102
1000
0010
1000
,
0103
0111
0001
1001
,
2200
3310
0202
0313
,
2002
3013
2002
3103
,
0101
0110
1100
0110
,
0101
0000
0110
0000
0101
0110
1010
0000
,
2002
3013
2002
3103
,
0002
0200
0020
1030
1010
0000
1313
0000
,
0001
0100
0010
0000
1010
0000
0101
0000
,
1000
0010
0100
0000
0101
0000
1010
0000
,
2000
0200
3310
0000
2000
0200
3310
0000
,
2000
0200
0010
0001
0010
0000
3311
0000
,
1100
0001
1010
0100
1001
0010
0101
0000
,
0111
1101
0111
1101
0111
0000
1001
0000
,
1111
0000
0000
0000
;
