#TITLE:Helena;
#SUBTITLE:;
#ARTIST:My Chemical Romance;
#TITLETRANSLIT:;
#SUBTITLETRANSLIT:;
#ARTISTTRANSLIT:;
#CRChallenge:;
#BANNER:helena.png;
#BACKGROUND:helena-bg.png;
#LYRICSPATH:;
#CDTITLE:!cdtitle.png;
#MUSIC:helena.ogg;
#OFFSET:-0.483;
#SAMPLESTART:15.046;
#SAMPLELENGTH:19.000;
#SELECTABLE:YES;
#BPMS:0.000=125.877,32.000=251.754,160.000=62.938,180.000=125.877,244.000=62.938;
#STOPS:;
#BGCHANGES:;
#NOTES:
     dance-single:
     Renard:
     Medium:
     9:
     0.637,1.000,0.285,0.050,0.577:
0000
0000
0000
0000
,
0000
0000
0000
0000
,
0000
0000
0000
0000
,
0000
0000
0000
0000
,
0000
0000
0000
0000
,
0000
0000
0000
0000
,
0000
0000
0000
0000
,
0000
0000
0000
0000
0000
0000
0000
0000
0000
0000
0000
0000
0001
0010
0100
1000
,
0001
0000
0010
0000
0001
0010
0001
0000
,
1000
0100
1000
0000
0010
1000
0010
0000
,
0100
0000
0001
0000
0010
0100
0010
0000
,
0001
1000
0001
1000
0001
1000
0010
1000
,
0100
0000
1000
0000
0100
1000
0100
0000
,
1000
0001
1000
0000
0001
0100
0001
0000
,
1000
0000
0100
0000
1000
0001
1000
0000
,
0001
0000
0100
0001
1000
0100
0010
0001
,
1000
0000
0100
0000
1000
0001
1000
0000
,
0001
0100
0001
0000
0100
0010
0100
0000
,
0010
0000
1000
0000
0001
1000
0001
0000
,
0010
0001
0010
0100
0010
0001
0010
0000
,
0100
0000
1000
0000
0001
0100
0001
0000
,
1000
0010
1000
0000
0001
0100
0001
0000
,
0100
0000
0010
0000
1000
0100
1000
0000
,
0001
0000
0001
0100
0010
1000
0100
0010
,
0001
0000
0001
0010
0100
1000
0001
0100
,
0010
0000
0010
1000
0100
0010
0001
1000
,
0010
0000
0010
0100
0001
0010
0100
1000
,
0001
0000
0001
0100
0010
1000
0100
0010
,
0001
0000
0001
0010
0100
1000
0001
0100
,
0010
0000
0010
1000
0100
0010
0001
1000
,
0100
0000
0100
1000
0001
0100
0010
1000
,
0100
0000
0100
0010
0001
0010
0100
1000
,
0001
0000
0001
0100
0010
1000
0100
0010
,
0001
0000
0001
0010
0100
1000
0001
0100
,
0010
0000
0010
1000
0100
0010
0100
1000
,
0001
0000
0001
0100
0010
1000
0100
0010
,
0001
0000
0001
0010
0100
1000
0001
0100
,
0010
0000
0010
1000
0100
0010
0100
1000
,
0010
0000
0010
0100
0010
1000
0001
0010
,
0100
1000
0001
0100
0010
1000
0100
0010
,
0001
0000
0001
0010
0011
0000
0010
0100
0110
0000
0100
1000
1010
1010
0101
0101
,
1001
0000
0000
0000
0001
0000
0100
0000
0101
0000
0000
0000
0100
0000
0010
0000
0110
0000
0000
0000
0010
0000
1000
0000
0010
0000
1000
0001
1000
0001
1000
0001
,
1000
0000
0100
1000
1100
0000
0100
0010
0001
0000
0001
0010
0011
0000
0001
0100
,
0010
0000
0010
1000
1010
0010
0010
1000
0100
0010
0001
1000
1001
0001
0110
0010
,
1001
0000
0000
0000
,
0200
0301
0000
0000
,
0001
0100
0010
1000
0001
0000
0000
0000
0000
0000
0000
0000
0000
0000
0000
0000
,
2000
3100
0000
0000
,
0100
1000
0100
0000
0011
0000
0100
1000
0100
0000
1000
0100
1000
0000
0000
0000
,
0001
0100
0010
1000
0001
0000
0100
0010
1000
0100
0010
0000
0001
0000
0001
0000
,
0010
0100
1000
0001
0100
0000
0010
1000
0100
0010
0001
0000
1000
0000
1000
0000
,
0001
0010
0100
1000
0001
0000
0100
0010
1000
0100
0010
0000
0001
0000
0001
0000
,
0010
0100
1000
0001
0100
0000
0010
1000
0001
0100
0010
1000
0100
0010
0001
0010
,
0100
1000
0100
1000
0100
0000
1000
0001
1000
0001
1000
0001
1000
0001
0000
0000
,
0100
0001
0100
0001
0100
0000
0001
0010
0001
0010
0001
0010
0001
0010
0000
0000
,
0100
1000
0100
1000
0100
0000
1000
0010
1000
0010
1000
0010
1000
0010
0000
0000
,
0100
0001
0100
0001
0100
0000
0001
0010
0001
0010
0001
0010
0100
1000
0001
0010
,
0100
1000
0100
1000
0100
0000
1000
0001
1000
0001
0100
0001
0010
0000
0001
0000
,
1000
0100
1000
0001
0100
0000
0010
1000
0100
0010
0001
0000
0010
0000
0100
0000
,
1000
0100
0010
0001
0010
0100
1000
0100
0010
0001
1000
0100
0010
0001
0010
0100
,
1000
0100
0010
0001
0010
0100
1000
0001
0010
0100
1000
0100
0010
0001
0010
0100
,
1000
0000
1000
0100
1100
0000
0100
0010
0110
0000
0010
0001
0101
0101
1010
1010
,
1001
0000
0000
0000
1000
0000
0010
0000
1010
0000
0000
0000
0010
0000
0100
0000
0110
0000
0000
0000
0100
0000
0001
0000
0100
0000
0001
1000
0001
1000
0001
1000
,
0001
0000
0010
0001
0011
0000
0010
0100
1000
0000
1000
0100
1100
0000
1000
0010
,
0100
0000
0000
0000
0100
0000
0001
0000
0101
0000
0100
0000
0100
0000
0001
0000
0010
0000
0100
0000
1000
0000
0001
0000
1001
0000
0001
1000
0001
1000
0001
1000
,
0001
0100
0010
1000
1100
1000
1010
1000
0100
0010
0001
0100
0101
0001
0011
0010
,
0100
0000
1000
0000
0010
0000
0100
0000
0110
0000
0100
0000
0101
0000
0100
0000
0010
0000
1000
0000
0100
0000
0010
0000
0110
0000
0001
1000
0001
1000
0001
1000
,
0001
0010
0100
1000
1100
1000
0010
0100
0001
0010
0100
1000
1001
1000
0010
0100
,
0001
0010
0100
1000
1001
0100
0010
1000
0100
0010
0001
1000
1001
0001
0100
0010
,
2000
0000
0000
0000
,
3200
0000
0320
0002
,
0000
2000
0000
0000
3033
0000
0000
0000
;
#NOTES:
     dance-single:
     Renard:
     Easy:
     6:
     0.357,0.715,0.207,0.299,0.000:
0000
0000
0000
0000
,
0000
0000
0000
0000
,
0000
0000
0000
0000
,
0000
0000
0000
0000
,
0000
0000
0000
0000
,
0000
0000
0000
0000
,
0000
0000
0000
0000
,
0000
0000
0000
0000
,
0001
0100
0001
1000
,
0100
1000
0001
0010
,
0001
1000
0010
1000
,
0100
0010
0001
1000
,
0001
0000
0100
0000
,
0010
0000
1000
0000
,
0100
1000
0001
0010
,
0100
1000
0001
1000
,
0001
0100
0001
0100
,
0001
1000
0001
1000
,
0100
1000
0100
1000
,
0001
1000
0001
1000
,
0001
0100
0001
1000
,
0100
1000
0001
0100
,
0001
1000
0100
1000
,
0001
0010
0100
1000
,
0001
0000
0001
0100
,
0010
0000
0010
1000
,
0200
0000
0320
0000
,
0032
0000
2003
0000
,
3010
0000
0100
0001
,
0100
0000
0010
1000
,
0100
0000
1000
0001
,
0020
0000
0032
0000
,
2003
0000
3100
1000
,
0001
0000
0100
0010
,
2000
0000
3010
0100
,
0002
0000
0103
0010
,
2000
0000
3100
0010
,
0002
0000
0013
0100
,
2000
0000
3001
0100
,
0010
1000
0100
0010
,
0001
0001
0011
0010
0100
1000
1100
1000
,
0010
0100
0110
0100
0001
1000
1001
1100
,
0010
0010
0011
0110
0100
0100
1100
0110
,
1000
1000
0110
0101
0010
0010
1001
1100
,
2000
0000
0000
0000
,
3002
0000
0000
0000
,
0103
0010
2000
0000
0000
0000
0000
0000
,
3100
0010
0002
0000
0000
0000
0000
0000
,
0013
0100
1000
0000
0001
0100
0010
0000
,
1000
0100
0010
0000
1000
0100
0010
0000
,
0001
0010
0100
0000
0001
0010
0100
0000
,
1000
0010
0100
0000
1000
0010
0100
0000
,
0001
0100
0010
0000
0001
0100
0010
0000
,
1000
0000
0010
0000
1000
0010
1000
0000
,
0001
0000
0100
0000
0001
0100
0001
0000
,
0010
0000
0001
0000
0010
0001
0010
0000
,
0100
0000
1000
0000
0100
1000
0100
1000
,
0001
0000
1000
0000
0001
1000
0001
0000
,
0100
0000
0001
0000
0100
0001
0100
0000
,
0010
1000
0010
1000
,
0100
0010
0001
0010
0100
1000
0001
0100
,
0020
1000
0130
0100
0200
0001
0310
0010
,
1000
0100
0020
0001
0130
0010
0001
0101
,
2001
0100
0010
3010
1020
0100
0001
0031
,
0012
0000
0100
0003
0120
0000
1000
0030
,
2100
0001
3010
1000
1100
1100
0011
0011
,
0101
0101
1010
1010
0102
0010
1000
0103
,
0201
0000
0320
2030
0000
3200
0320
0032
,
2003
0000
3020
0230
0000
0302
0023
0230
,
2300
0000
0000
0000
,
3200
0000
0320
0032
,
0000
2000
0000
0000
0000
0000
3003
0000
;
#NOTES:
     dance-single:
     Renard:
     Beginner:
     3:
     0.248,0.460,0.235,0.185,0.000:
0000
0000
0000
0000
,
0000
0000
0000
0000
,
0000
0000
0000
0000
,
0000
0000
0000
0000
,
0000
0000
0000
0000
,
0000
0000
0000
0000
,
0000
0000
0000
0000
,
0000
0000
0000
0000
,
1000
0001
0000
0100
,
0000
0010
0000
1000
,
0001
0010
0000
0100
,
0000
1000
1000
1000
,
0001
0000
0100
0000
,
0010
0000
1000
0000
,
0001
0000
0010
0000
,
0001
1000
0001
1000
,
0010
0000
0010
0000
,
0100
0000
0100
0000
,
0001
0000
0001
0000
,
1000
0000
0100
1000
,
0100
0000
1000
0000
,
0001
0000
0100
0000
,
0010
0000
1000
0000
,
0001
0010
0001
0010
,
0001
0000
1000
0000
,
0100
0000
1000
0000
,
0020
0000
0000
0000
,
0230
0000
0000
0000
,
0302
0000
0000
0000
,
1003
0000
0100
0000
,
1000
0000
0001
0100
,
0001
0000
1000
0001
,
1000
0000
0100
0000
,
1000
0000
0010
0000
,
0100
0000
0001
0000
,
0010
0000
0001
1000
,
0001
0000
1000
0000
,
0010
0000
0100
0010
,
0100
0000
0010
0000
,
1000
0000
0001
0000
,
0210
0301
0120
1030
,
1002
0103
2001
3010
,
0201
0310
1020
0130
,
0102
0013
2100
3010
,
2002
0000
0000
3003
,
2000
0010
0000
0000
,
0001
3001
0000
0000
,
0002
0010
0000
0000
,
1000
1003
0000
0110
,
0100
0101
0000
1001
,
1000
1100
0000
0110
,
0010
0011
0000
1001
,
0001
1000
0010
1010
,
0010
0110
0000
0101
,
0001
1001
0000
1100
,
0100
0110
0000
0011
,
0001
1001
0000
1010
,
0010
0110
0000
0101
,
0001
1001
0000
1100
,
0100
0100
0010
0010
,
0001
1000
0001
1000
,
0201
0310
1020
0130
,
1002
0103
2001
3010
,
1000
0100
0001
0010
,
1000
0010
0001
0100
,
1000
0100
0010
0100
0010
0100
0010
0100
,
0010
0000
0001
0000
0100
0010
0100
0010
,
2000
0000
3001
0100
0000
0010
1000
0100
,
0010
0000
0001
0010
0000
0100
1000
0002
,
2000
0000
0000
0003
,
3200
0000
0320
0032
,
0000
2000
0000
0000
0000
0000
3003
0000
;
