#TITLE:Heart's Desire;
#SUBTITLE:;
#ARTIST:Eclipse feat. Lisa Marie;
#TITLETRANSLIT:;
#SUBTITLETRANSLIT:;
#ARTISTTRANSLIT:;
#CRChallenge:;
#BANNER:desire.png;
#BACKGROUND:desire-bg.png;
#LYRICSPATH:;
#CDTITLE:;
#MUSIC:desire.ogg;
#OFFSET:0.000;
#SAMPLESTART:71.269;
#SAMPLELENGTH:12.000;
#SELECTABLE:YES;
#BPMS:0.000=188.000;
#STOPS:155.000=1.277
;
#BGCHANGES:;
#NOTES:
     dance-single:
     Renard:
     Challenge:
     11:
     0.935,0.979,0.670,0.540,0.261:
0000
0000
0000
0000
,
0000
0000
0000
0000
,
0000
0000
0000
0000
,
0000
0000
0000
0000
,
0000
0000
0000
0000
,
0000
0000
0000
0000
,
0000
0000
0000
0000
,
0000
0000
0000
0000
,
0001
0001
0001
0001
,
0100
0010
0000
0010
0000
0010
0000
0010
,
1000
1000
1000
1000
,
0100
0010
0000
0010
0000
0010
0000
0010
,
0001
0001
0001
0001
,
0001
0100
0000
0100
0000
0100
0000
0100
,
0010
0010
0010
0010
,
2000
0000
0002
3003
,
0001
0100
1010
0100
0001
0010
1100
0010
,
0001
0100
1010
0100
0001
0010
1100
0000
,
1000
0100
0011
0100
1000
0010
0101
0010
,
1000
0100
0011
0100
1000
0010
0101
0000
,
0001
0100
1010
0100
0001
0010
1100
0010
,
0001
0100
1010
0100
0001
0010
0100
1000
,
0100
1000
0011
1000
0001
0100
1010
0100
,
0001
1000
0011
1000
0001
0100
1010
0000
,
1000
0000
0010
1000
0010
0000
0100
0001
0100
0000
0001
1000
0001
0000
1000
0100
,
1000
0100
0010
0010
0001
0100
0010
0010
,
1000
0000
0010
1000
0010
0000
0100
0001
0100
0000
0001
1000
0001
0000
1000
0100
,
1000
0100
0010
0010
0001
0100
0010
1000
,
0001
0000
0100
0001
0100
0000
0010
1000
0010
0000
1000
0001
1000
0000
0001
0010
,
0001
0010
0100
0100
1000
0010
0100
0100
,
0001
0000
0100
0001
0100
0000
0010
1000
0010
0000
1000
0001
1000
0000
0001
0010
,
0001
0000
0010
0000
0100
0000
0100
0000
1000
0000
0010
0000
0100
0001
0100
0000
,
2001
3010
2001
3010
2001
3010
2001
3010
,
1000
1000
0100
0010
0100
0010
0100
0010
,
1002
0103
1002
0103
1002
0103
1002
0103
,
0001
0010
0100
0010
0010
0100
1000
0010
,
2001
3010
2001
3010
2001
3010
2001
3010
,
1000
1000
0100
0010
0100
0010
0100
0000
,
1M11
1M11
11M1
11M1
,
0001
0000
0100
0001
1000
0000
0100
1000
0001
0000
0100
0001
1000
0000
0100
1000
,
0001
0100
0010
0010
1000
0100
0010
0010
,
0001
0000
0100
0001
1000
0000
0100
1000
0001
0000
0100
0001
1000
0000
0100
1000
,
0001
1000
0100
0100
1000
0001
0100
0010
,
1000
0000
0010
1000
0001
0000
0010
0001
1000
0000
0010
1000
0001
0000
0010
0001
,
1000
0010
0100
0100
0001
0010
0100
0100
,
1000
0000
0010
1000
0001
0000
0010
0001
1000
0000
0010
1000
0001
0000
0010
0001
,
1000
0001
0010
0010
0001
0000
1001
0000
,
0001
0010
0100
1000
0001
0000
1000
0000
0100
0000
0010
0000
0001
0000
0000
0000
,
1000
0100
0010
0001
1000
0000
0001
0000
0010
0000
0010
0000
0100
0000
1000
0000
,
0001
0010
0100
1000
0001
0000
0010
0000
0100
0000
0100
0000
0010
0000
0000
0000
,
0001
1000
0100
0010
0001
0000
1000
0000
1000
0000
0001
0000
0001
0000
0100
0000
,
0001
0000
1000
0100
1000
0000
0001
0100
0001
0000
1000
0100
1000
0000
0001
0100
,
0001
0100
0010
1000
0010
1000
0010
1000
,
1000
0010
1000
0010
1000
0010
1000
0010
,
1001
0000
0000
0000
,
1001
0000
0010
0000
1001
0000
0000
0000
2000
3200
0320
0030
0000
0000
0000
0000
,
0002
0023
0230
0300
0000
0000
0000
0000
2000
3200
0320
0030
0000
0000
0000
0000
,
1001
0000
0010
0000
1001
0000
0000
0000
0002
0203
0320
0030
0000
0000
0000
0000
,
2000
3020
0230
0300
0000
0000
0000
0000
0002
0203
0320
0030
0000
0000
0000
0000
,
1001
0000
0010
0000
1001
0000
0000
0000
2000
3200
0320
0030
0000
0000
0000
0000
,
0002
0023
0230
0300
0000
0000
0000
0000
2000
3200
0320
0030
0000
0000
0000
0000
,
1001
0000
0010
0000
1001
0000
0000
0000
0002
0203
0320
0030
0000
0000
0000
0000
,
2000
3020
0230
0300
0000
0000
0000
0000
0002
0203
0320
0030
0000
0000
0000
0000
,
1000
1000
0010
0010
0200
0301
0010
0100
,
2000
3100
0010
0001
2000
3010
0100
0001
,
0010
0010
0100
1000
0020
0031
0010
0100
,
2000
3100
0001
0100
0020
1030
0100
0010
,
0001
0001
0010
0100
2000
3100
0001
0100
,
0020
0031
0010
1000
0020
0130
1000
0010
,
0200
0301
0100
0010
2000
3100
0020
0031
,
1001
0000
0000
0000
0000
0000
0000
0000
0001
0010
0100
1000
0001
0000
1000
0000
,
0101
0010
0101
0010
0101
0010
0101
0010
,
1000
1000
0010
0100
0010
1000
0010
0100
,
1010
0001
1010
0001
1010
0001
1010
0001
,
0100
0100
0001
0010
0001
0100
0001
0010
,
0101
0010
0101
0010
0101
0010
0101
0010
,
1000
1000
0010
0100
0010
1000
0010
0100
,
1010
0001
1010
0001
1010
0001
1010
0001
,
0100
0000
0100
0000
0001
0000
0010
0000
0001
0000
0100
0100
0001
0000
0001
0000
,
1010
0100
1010
0100
1010
0100
1010
0100
,
0001
0001
0100
0010
0100
0001
0100
0010
,
0101
1000
0101
1000
0101
1000
0101
1000
,
0010
0010
1000
0100
1000
0010
1000
0100
,
1010
0100
1010
0100
1010
0100
1010
0100
,
0001
0001
0100
0010
0100
0001
0100
0010
,
0101
1000
0101
1000
0101
1000
0101
0010
,
1101
0111
1110
0000
;
