#TITLE:Hatred;
#SUBTITLE:;
#ARTIST:Novasonic;
#TITLETRANSLIT:;
#SUBTITLETRANSLIT:;
#ARTISTTRANSLIT:;
#CRChallenge:;
#BANNER:hatred.png;
#BACKGROUND:hatred-bg.png;
#LYRICSPATH:;
#CDTITLE:;
#MUSIC:hatred.ogg;
#OFFSET:0.000;
#SAMPLESTART:28.055;
#SAMPLELENGTH:12.000;
#SELECTABLE:YES;
#BPMS:0.000=136.000;
#STOPS:;
#BGCHANGES:;
#NOTES:
     dance-single:
     Renard:
     Hard:
     10:
     0.756,0.803,0.908,0.186,0.536:
0000
0000
0000
0000
,
0000
0000
0000
0000
,
0000
0000
0000
0000
,
0000
0000
0000
0000
,
0001
0010
0001
0010
0001
0000
0011
0000
0000
0000
0110
0000
0000
0000
0000
0000
,
0100
1000
0100
1000
0100
0000
1100
0000
0000
0000
1010
0000
0000
0000
0000
0000
,
0010
1000
0010
1000
0010
0000
1010
0000
0000
0000
0110
0000
0000
0000
0000
0000
,
0101
0111
1100
1110
,
1000
0100
1000
0100
0010
0001
0010
0000
0001
0000
1000
0000
0001
0100
0001
0100
,
0010
0000
1000
0100
1000
0100
1000
0000
0001
0000
0100
0000
0010
0000
0000
0000
,
1000
0010
1000
0010
1000
0000
0010
1000
0001
0100
0001
0100
0001
1000
0001
1000
,
0100
1000
0100
1000
0001
0010
0001
0010
0001
0100
0001
0000
0101
0000
0000
0000
,
0010
1000
0010
1000
0001
0100
0001
0100
0010
0000
0010
0000
1000
0010
0100
0000
,
0001
0000
1000
0100
0010
0001
1000
0100
1000
0100
0010
0000
0001
0000
0000
0000
,
1000
0010
1000
0010
0100
0001
0100
0001
0010
0000
0001
0000
1000
0100
1000
0100
,
0010
0001
0010
0001
1000
0010
0100
0001
1000
0000
0001
0000
0100
0010
1000
0000
,
0002
0000
0010
1000
0100
0000
0100
1000
,
0013
0000
0001
0010
0100
0000
1000
0000
1100
0000
0000
0110
0000
0000
0012
0000
,
2003
0000
0010
0001
0100
0000
0100
0001
,
3010
0000
0100
0000
0001
0000
0000
0000
0101
0000
0000
0110
0000
0000
2010
0000
,
3002
0000
0010
1000
0100
0000
0100
1000
,
0013
0000
0001
0010
0100
0000
1000
0000
1100
0000
0000
0110
0000
0000
0011
0000
,
0011
0000
0000
0110
0000
0000
1100
0000
1100
0000
0000
0110
0000
0000
0011
0000
,
0011
0000
0000
0101
0000
0000
2002
0000
3013
0000
0000
0000
0001
0010
0100
0000
,
1100
0000
1100
0010
1001
0100
1010
0101
,
0000
0011
0000
0101
0010
1001
0100
0000
,
0010
1000
0010
0000
0000
0000
0100
0001
0010
0000
0100
1000
0100
0000
1000
0001
,
0100
0001
0100
0010
1000
0010
1000
0100
0010
0000
0001
0000
0011
0000
0110
0000
,
0011
0000
0011
0100
1001
0010
0101
1010
,
0000
1100
0000
1010
0100
1001
0010
0000
,
0100
0001
0100
0000
0000
0000
0010
1000
0100
0000
0010
0000
0001
0010
0001
1000
,
0010
1000
0010
0100
0001
0100
0001
0010
0100
1000
0001
0100
0010
0000
0000
0000
,
2000
0010
0001
0100
,
3002
0100
1000
0010
,
2003
0010
0001
0100
,
3002
1000
0100
0013
,
2001
0000
0100
0001
0010
0000
0010
0001
,
3100
0000
1000
0100
0010
0000
0001
0000
0011
0000
0000
0110
0000
0000
2100
0000
,
3002
0000
0100
1000
0010
0000
0010
1000
,
0103
0000
0010
0000
1000
0000
0000
0000
1010
0000
0000
0110
0000
0000
0102
0000
,
2003
0000
0100
0001
0010
0000
0010
0001
,
3100
0000
1000
0100
0010
0000
0001
0000
0011
0000
0000
0110
0000
0000
1100
0000
,
1100
0000
0000
0110
0000
0000
0011
0000
0011
0000
0000
0110
0000
0000
1100
0000
,
1100
0000
0000
1010
0000
0000
2002
0000
3013
0000
0000
0000
1000
0100
0010
0000
,
0011
0000
0011
0100
1001
0010
0101
1010
,
0000
1100
0000
1010
0100
1001
0010
0000
,
0100
0001
0100
0000
0000
0000
0010
1000
0100
0000
0010
0001
0010
0000
0001
1000
,
0010
1000
0010
0100
0001
0100
0001
0010
0100
0000
1000
0000
1100
0000
0110
0000
,
1100
0000
1100
0010
1001
0100
1010
0101
,
0000
0011
0000
0101
0010
1001
0100
0000
,
0010
1000
0010
0000
0000
0000
0100
0001
0010
0000
0100
0000
1000
0100
1000
0001
,
0100
0001
0100
0010
1000
0010
1000
0100
0010
0001
1000
0010
0100
0000
0000
0000
,
0101
0111
1100
1110
,
1000
0100
0010
0001
0000
0000
0001
0010
0100
1000
0001
0010
0000
0000
0000
0000
;
#NOTES:
     dance-single:
     Renard:
     Medium:
     7:
     0.545,0.692,0.619,0.103,0.010:
0000
0000
0000
0000
,
0000
0000
0000
0000
,
0000
0000
0000
0000
,
0000
0000
0000
0000
,
0001
0100
1000
0000
1100
0000
0101
0000
,
0001
0010
1000
0000
1010
0000
0011
0000
,
1000
0010
0001
0000
0011
0000
1010
0000
,
1000
0100
0001
0000
0101
0000
1100
0000
,
0001
0100
1000
0100
0001
0100
0001
0000
,
0001
0010
1000
0010
0001
0010
0001
0000
,
1000
0100
0001
0100
1000
0100
1000
0000
,
1000
0010
0001
0010
0001
0010
0001
0000
,
0010
0100
0010
0000
1000
0010
1000
0000
,
0010
0001
0010
0000
1000
0010
1000
0000
,
0010
0100
1000
0100
0001
0100
0010
0100
,
0001
0100
0010
0100
1000
0100
0010
0000
,
0110
0000
0010
0100
0001
0000
1000
0100
,
0010
0000
0100
1000
0001
0000
0101
0000
,
0110
0000
0010
0100
1000
0000
1000
0100
,
0001
0101
1001
1100
,
1001
0000
0001
0010
0100
0000
0100
0010
,
1000
0000
1000
0010
0001
0000
0011
0000
,
1010
0000
1000
0010
0001
0000
0001
0010
,
0100
0000
0100
1000
1100
0000
1001
0000
,
0101
0000
0101
0100
0010
1000
1010
0000
,
1100
0000
1100
0100
0010
0001
0011
0000
,
0101
0000
0001
0100
0010
1000
1010
0000
,
1100
0000
0100
0010
0001
1000
1001
0000
,
0101
0000
0110
0000
1010
1000
1010
0000
,
1100
0000
0110
0000
0011
0001
0101
0000
,
0110
0010
1000
0100
0010
0001
0010
0100
,
1000
0100
1000
0010
1000
0001
0100
0000
,
0002
0103
0020
0130
,
0002
0103
0020
0130
,
0002
0103
0020
0130
,
0001
0100
0010
0100
1000
0100
0010
0000
,
1000
0000
0010
0001
0010
0000
1000
0010
,
1000
0000
0100
1000
0100
0000
0001
0100
,
0001
0000
0100
1000
0100
0000
1000
0001
,
1000
0000
0001
0010
0001
0000
0010
1000
,
0010
0000
1000
0010
1000
0000
0010
0001
,
0010
0000
0001
0100
0001
0000
0100
1000
,
0100
0001
1000
0010
0001
0010
0100
0010
,
0100
1000
0100
0001
1000
0000
1001
0000
,
1000
0000
1000
1000
0100
0100
0010
0010
,
0001
0000
0001
0001
0010
0010
0100
0000
,
0110
0000
0010
0001
0100
0010
0110
0000
,
1010
0000
1000
0010
0100
0001
0100
0000
,
0110
0100
0101
0000
0101
0001
1001
0000
,
1100
0100
0110
0000
0110
0010
0011
0000
,
1001
1000
1010
0010
0110
0100
0101
0001
,
1001
1000
1100
0100
0110
0010
0011
0000
,
2002
3013
0202
0313
,
0001
0000
0100
0000
1000
0000
0100
0000
0001
1000
0001
1000
0000
0000
0000
0000
;
#NOTES:
     dance-single:
     Renard:
     Easy:
     5:
     0.348,0.442,0.062,0.052,0.000:
0000
0000
0000
0000
,
0000
0000
0000
0000
,
0000
0000
0000
0000
,
0000
0000
0000
0000
,
0001
0000
1000
0000
0001
1000
0001
0000
,
0100
0000
0010
0000
0100
0010
0100
0000
,
0010
0000
1000
0000
0010
1000
0010
0000
,
0100
0000
0001
0000
0100
0001
0100
0000
,
0001
1000
0001
1000
,
0010
0000
0100
0000
0010
0000
0100
0010
,
1000
0000
0001
0000
1000
0000
0001
1000
,
0100
0000
0010
0001
1000
0000
0001
0000
,
0100
0100
0010
1000
,
0010
0100
0001
0000
0100
0010
1000
0000
,
0001
0001
1000
1000
,
0001
0010
1000
0010
0001
0000
0001
0000
,
0000
0000
1000
0001
1000
0000
0010
0100
,
0010
0000
0010
0100
,
0000
0000
0001
1000
0001
0000
0100
0010
,
0100
0000
0010
0010
,
0100
0000
0001
1000
0001
0000
0100
0010
,
0100
0000
0010
0010
,
1000
1000
0010
0010
,
0100
0100
0001
0000
,
1000
1000
0001
0001
,
0100
0010
0100
0010
0100
0010
0100
0000
,
0010
1000
0100
0010
,
0001
1000
0010
0100
,
0001
0001
1000
1000
,
0001
0100
0010
1000
0010
0100
0001
0000
,
1000
0100
1000
0100
1000
0100
1000
0100
,
0010
0001
0010
0001
1000
0001
1000
0000
,
0001
0001
0001
0001
,
1000
1000
1000
1000
,
0010
0110
0100
0110
,
1010
0110
0101
0110
,
0010
0000
0100
0010
0100
0000
0010
0100
,
0010
1000
0001
1000
,
0000
0000
0010
0100
0010
0000
0100
0010
,
0100
0010
1000
0001
,
0000
0000
1000
0001
1000
0000
0001
1000
,
0001
1000
0010
0000
,
0200
0000
0320
0000
,
2030
0000
3001
0000
,
1000
1000
0001
0001
,
0100
0100
0010
0010
,
1000
0010
0000
0100
0001
0000
1000
0000
,
0100
0000
0010
0000
0001
1000
0001
0000
,
1000
0000
0010
0000
0100
0000
0001
1000
,
0000
0001
0000
1000
0001
0000
1000
0000
,
0100
0100
0010
0010
,
0001
1000
0010
0010
,
0200
0000
0320
0000
,
1030
0001
0000
0100
0010
1000
0000
0000
;
#NOTES:
     dance-single:
     Renard:
     Beginner:
     3:
     0.276,0.359,0.052,0.134,0.000:
0000
0000
0000
0000
,
0000
0000
0000
0000
,
0000
0000
0000
0000
,
0000
0000
0000
0000
,
1001
0000
0000
0010
0000
0100
0000
0000
,
1001
0000
0000
0100
0000
0010
0000
0000
,
1001
0000
0000
0010
0000
0100
0000
0000
,
0010
0100
0001
1000
,
0001
0001
1000
1000
,
0010
0100
0010
0000
,
1000
1000
0001
0001
,
0100
0010
0100
0000
,
0001
0001
1000
1000
,
0010
0100
0010
0000
,
1000
1000
0010
0010
,
0100
0001
0100
0000
,
0001
0000
1000
0000
0100
0000
0000
0010
,
0000
0000
0001
0001
,
1000
0000
0010
0000
0100
0000
0000
0001
,
0000
0000
1000
1000
,
0001
0000
0010
0000
0100
0000
0000
1000
,
0000
0000
0001
0001
,
1000
1000
0010
0010
,
0100
0001
2002
3003
,
1000
1000
0001
0001
,
0100
0000
0010
0000
1000
0001
1000
0000
,
0002
0103
0020
1030
,
0100
0010
0001
1000
,
0002
0103
0020
1030
,
0200
0310
0002
1003
,
0001
0001
1000
1000
,
0010
0100
0010
1000
,
0210
0000
0001
0000
,
1000
0000
0010
0000
,
0001
0010
0001
0010
,
0001
0000
0010
0000
0010
0010
0310
0000
,
0100
0000
0010
0000
0100
0000
0000
0010
,
0000
1000
0010
0100
,
0001
0000
1000
0000
0100
0000
0000
0010
,
0000
0000
0001
1000
,
0100
0000
1000
0000
0001
0000
0000
0100
,
0000
0010
1000
0001
,
2000
0000
0002
0000
,
0000
0000
3013
0000
,
1000
1000
1000
0000
,
0001
0001
0001
0000
,
0100
0100
0010
0010
,
1000
0001
1000
0000
,
0001
0001
0001
0000
,
1000
1000
1000
0000
,
0010
0100
0010
0010
,
1000
0010
0100
0001
,
2000
3001
0002
1003
,
0001
0000
0000
1000
0000
0001
0000
0000
;
