#TITLE:Harder, Better, Axle Grinder;
#SUBTITLE:;
#ARTIST:Pendulum vs Daft Punk;
#TITLETRANSLIT:;
#SUBTITLETRANSLIT:;
#ARTISTTRANSLIT:;
#CRChallenge:;
#BANNER:axle.jpg;
#BACKGROUND:axle-bg.jpg;
#LYRICSPATH:;
#CDTITLE:;
#MUSIC:axle.ogg;
#OFFSET:0.000;
#SAMPLESTART:22.029;
#SAMPLELENGTH:12.000;
#SELECTABLE:YES;
#BPMS:0.000=174.000;
#STOPS:;
#BGCHANGES:;
#NOTES:
     dance-single:
     Renard:
     Medium:
     9:
     0.591,0.794,0.199,0.069,0.246:
0000
0000
0000
0000
,
0000
0000
0000
0000
,
0000
0000
0000
0000
,
0000
0000
0000
0000
,
0000
0000
0000
0000
,
0000
0000
0000
0000
,
0000
0000
0000
0000
,
0000
0000
0000
0000
,
2000
0000
0000
0000
,
0000
0000
0000
0000
,
0200
0000
0000
0000
,
0000
0000
0000
0000
,
0020
0000
0000
0000
,
0000
0000
0000
0000
,
0002
0000
0000
0000
,
0000
0000
0000
3333
,
1000
0001
0000
0000
0100
0010
0000
0000
,
1000
0100
0000
0000
0010
0001
0000
0000
,
1000
1000
0001
0001
,
1000
1000
0001
0001
,
1000
0000
0001
0010
0000
0000
0100
1000
,
0000
0000
0001
0010
0000
0000
0100
1000
,
0000
0001
0001
0100
,
0010
1000
0100
0010
,
0001
0010
0001
0010
0100
0010
0100
0010
,
0100
1000
0100
1000
0010
1000
0010
1000
,
0010
0010
0100
0100
,
0001
0001
0010
0010
,
0100
1000
0100
1000
0001
1000
0001
1000
,
0001
0100
0001
0100
0001
0010
0001
0010
,
0001
0010
0100
1000
0100
0010
0001
0010
0100
1000
0100
0010
,
0001
0100
0010
1000
0010
0100
0001
0010
0100
1000
0000
0000
,
0001
0100
0110
0010
1000
0100
0010
0001
,
0010
0100
1100
1000
0010
0100
0001
0010
,
0100
1000
1010
1000
0001
0100
0101
0001
,
0010
0100
0110
0100
1000
0010
1010
1000
,
0001
0100
0001
0010
0100
1000
0001
0100
,
0010
0000
1001
0000
0001
0100
0010
1000
,
0100
0010
0100
1000
0010
0100
0001
0010
,
0200
0010
0310
0001
2000
0010
3010
0100
,
0010
0000
0100
0000
0001
0000
0000
0010
0100
0000
1000
0000
0010
0000
0000
0000
,
0100
0000
0001
0000
0010
0000
0000
0100
1000
0000
0001
0000
0100
0000
0000
0000
,
0010
0000
1000
0000
0100
0000
0000
0010
0001
0000
0010
0000
0100
0000
0000
0000
,
1000
0000
0010
0000
0100
0000
0000
0001
0010
0000
0100
0000
1000
0000
0000
0000
,
0001
0100
1000
0100
0010
0100
0001
0100
,
0001
0010
0100
0010
1000
0010
0100
0010
,
0001
0010
0100
1000
0010
0100
0001
0010
,
0100
0100
1000
1000
0010
0010
0100
0100
,
0001
0000
0010
0000
0100
0000
1000
0000
0001
0100
0000
0001
0000
0010
0000
0100
,
0000
0000
1000
0000
0001
0000
0100
0000
0010
1000
0000
0001
0000
0000
0000
0000
,
0100
0001
0000
1000
0000
0100
0010
0000
0001
0000
0010
0000
0100
0000
1000
0001
,
0000
0100
0000
0010
0000
1000
0100
0000
0010
0000
0001
0000
0010
0000
0100
0000
,
1000
1000
0001
0100
0010
1000
0100
0010
,
0001
0001
0010
0100
1000
0001
0100
0010
,
1000
0010
1000
0010
0100
0001
0100
0001
,
0010
0100
1000
0001
0100
0100
0100
0100
,
0010
0000
1000
0000
0010
0000
0100
0000
0001
0010
0000
0100
0000
0000
0000
1001
,
0000
0000
0100
0000
0010
0000
1000
0000
0100
0000
0010
0001
0000
0000
0000
0000
,
0010
0000
0100
0000
1000
0000
0001
0000
0100
0000
0000
0010
0000
0000
1000
0000
,
0100
0000
0010
0000
0001
0000
0010
0100
0000
1000
0000
0001
0000
0100
0000
0010
,
0000
0000
1000
0000
0010
0000
0100
0000
0001
0010
0000
0100
0000
1000
0000
0001
,
0000
0000
0100
0000
0010
0000
1000
0000
0100
0010
0000
0001
0000
0010
0000
0100
,
1000
0000
0001
0000
0100
0000
0010
0000
1000
0010
0000
1000
0010
0000
1000
0000
,
0001
0000
0100
0000
0001
0000
0010
0000
0100
1000
0000
0001
0010
0000
0100
0000
,
1000
0100
1100
0000
0010
0001
1000
0001
,
0100
0001
0101
0000
0001
0010
0100
1000
,
0001
0100
0010
1000
0100
0010
0001
0000
,
0010
0100
1000
0001
0100
0010
0110
0000
,
0010
1000
1010
0000
1000
0100
0010
0000
,
0001
0000
0110
0000
0010
0001
1000
0000
,
0001
0000
0101
0000
0100
1000
0001
0000
,
0021
0000
2000
0000
0000
0000
0000
3030
,
1000
0000
0000
0010
0100
0000
0000
0000
0001
0000
0000
0000
0110
0000
0000
0000
,
0100
0000
0000
1000
0010
0000
0000
0000
0100
0000
0000
0000
0011
0000
0000
0000
,
0010
0000
0000
0100
1000
0000
0000
0000
0101
0000
0000
0000
0110
0000
0000
0000
,
1010
0000
0000
1000
0100
0000
0000
0000
1001
0000
0000
0000
1010
0000
0000
0000
,
0010
0100
1000
0100
0001
0010
0100
0010
,
1000
0010
0100
0001
0100
1000
0010
0100
,
0001
0100
1000
0001
0010
1000
0100
0001
,
0100
0010
0001
0010
1000
0001
1000
0001
,
1001
0000
0000
0000
;
#NOTES:
     dance-single:
     Renard:
     Hard:
     10:
     0.622,0.863,0.164,0.060,0.410:
0000
0000
0000
0000
,
0000
0000
0000
0000
,
0000
0000
0000
0000
,
0000
0000
0000
0000
,
0000
0000
0000
0000
,
0000
0000
0000
0000
,
0000
0000
0000
0000
,
0000
0000
0000
0000
,
0002
0000
0000
0000
,
0000
0000
0000
0000
,
0020
0000
0000
0000
,
0000
0000
0000
0000
,
0200
0000
0000
0000
,
0000
0000
0000
0000
,
2000
0000
0000
0000
,
0000
0000
0000
3333
,
0001
1000
00M0
0M00
0010
0100
000M
00M0
,
0001
0010
0M00
M000
0100
1000
000M
0000
,
M001
M001
100M
100M
,
M001
M001
100M
100M
,
M001
0M00
1000
0100
00M0
000M
0010
0001
,
M000
0M00
1000
0100
00M0
000M
0010
0001
,
M000
100M
10M0
0M10
,
010M
00M1
0M10
M100
,
100M
01M0
100M
01M0
M010
010M
M010
010M
,
M010
0M01
M010
M001
01M0
M001
01M0
M001
,
01M0
0100
0M10
0M10
,
10M0
10M0
M100
M100
,
M010
0M01
M010
0M01
10M0
0M01
10M0
0M01
,
100M
0M10
100M
0M10
100M
01M0
100M
01M0
,
100M
0100
0010
0001
0010
0100
1000
0100
0010
0001
0010
0100
,
1000
0010
0100
0001
0100
0010
1000
0100
0010
0001
0000
0000
,
1000
0010
0110
0100
0001
0010
0100
1000
,
0100
0010
0011
0001
0100
0010
1000
0100
,
0010
0001
0101
0001
1000
0010
1010
1000
,
0100
0010
0110
0010
0001
0100
0101
0001
,
1000
0010
1000
0100
0010
0001
1000
0010
,
0100
0000
1001
0000
1000
0010
0100
0001
,
0010
0100
0010
0001
0100
0010
1000
0100
,
0020
0100
0130
1000
0002
0100
0103
0010
,
0100
0000
0010
0000
1000
0000
0000
0100
0010
0000
0001
0000
0100
0000
0000
0000
,
0010
0000
1000
0000
0100
0000
0000
0010
0001
0000
1000
0000
0010
0000
0000
0000
,
0100
0000
0001
0000
0010
0000
0000
0100
1000
0000
0100
0000
0010
0000
0000
0000
,
0001
0000
0100
0000
0010
0000
0000
1000
0100
0000
0010
0000
0001
0000
0000
0000
,
1000
0010
0001
0010
0100
0010
1000
0010
,
1000
0100
0010
0100
0001
0100
0010
0100
,
1000
0100
0010
0001
0100
0010
1000
0100
,
0010
0010
0001
0001
0100
0100
0010
0010
,
1000
0000
0100
0000
0010
0000
0001
0000
1000
0010
0000
1000
0000
0100
0000
0010
,
0000
0000
0001
0000
1000
0000
0010
0000
0100
0001
0000
1000
0000
0000
0000
0000
,
0010
1000
0000
0001
0000
0010
0100
0000
1000
0000
0100
0000
0010
0000
0001
1000
,
0000
0010
0000
0100
0000
0001
0010
0000
0100
0000
1000
0000
0100
0000
0010
0000
,
0001
0001
1000
0010
0100
0001
0010
0100
,
1000
1000
0100
0010
0001
1000
0010
0100
,
0001
0100
0001
0100
0010
1000
0010
1000
0001
0100
0001
0100
0010
1000
0010
1000
,
0100
0010
0001
1000
0010
0010
0010
0010
,
0100
0000
0001
0000
0100
0000
0010
0000
1000
0100
0000
0010
0000
0000
0000
1001
,
0000
0000
0010
0000
0100
0000
0001
0000
0010
0000
0100
1000
0000
0000
0000
0000
,
0100
0000
0010
0000
0001
0000
1000
0000
0010
0000
0000
0100
0000
0000
0001
0000
,
0010
0000
0100
0000
1000
0000
0100
0010
0000
0001
0000
1001
0000
0110
0000
1001
,
0000
0000
0001
0000
0100
0000
0010
0000
1000
0100
0000
0010
0000
0001
0000
1000
,
0000
0000
0010
0000
0100
0000
0001
0000
0010
0100
0000
1000
0000
0100
0000
0010
,
0001
0000
1000
0000
0010
0000
0100
0000
0001
0100
0000
0001
0100
0000
0001
0000
,
1000
0000
0010
0000
1000
0000
0100
0000
0010
0001
0000
1000
0100
0000
0010
0000
,
0001
0010
0011
0000
0100
1000
0001
1000
,
0010
1000
1010
0000
1000
0100
0010
0001
,
1000
0000
0001
0000
0100
0000
0010
0000
1000
0001
0000
1001
0000
0000
0000
0000
,
1000
0100
0000
0010
0000
0000
0001
0000
0010
0100
0000
1000
0000
0001
0000
0010
,
0000
0000
0100
0000
1000
0000
0001
0000
0100
0010
0000
1000
0000
0010
0000
0100
,
0000
0000
0001
0000
0100
0000
0010
0000
1000
0100
0000
0010
0000
0001
0000
0010
,
0000
0000
0100
0000
1000
0000
1000
0000
1000
0001
0000
0100
0000
0000
0000
0000
,
1200
0000
0010
0000
0001
0000
0001
0000
0000
0001
0000
0000
0001
0000
0300
0000
,
0001
0100
0000
0010
0000
1000
0000
0100
0000
0010
0000
0001
0000
0000
0000
0010
,
0000
0000
0100
0000
1000
0000
0010
0100
0000
0001
0000
0100
0000
0010
1000
0000
,
0100
0000
0010
0000
0001
0000
0010
0000
0100
1000
0000
0001
0000
0000
0000
0000
,
1001
0000
0000
0110
0000
0000
1001
0000
0100
0000
0001
0100
0000
0000
0010
0000
,
0100
0010
0001
0010
1000
0100
0010
0100
,
0001
0100
0010
1000
0010
0001
0100
0010
,
1000
0010
0001
1000
0100
0001
0010
1000
,
0010
0100
1000
0100
0001
1000
0001
1000
,
1001
0000
0000
0000
;
#NOTES:
     dance-single:
     Renard:
     Easy:
     6:
     0.381,0.518,0.199,0.043,0.000:
0000
0000
0000
0000
,
0000
0000
0000
0000
,
0000
0000
0000
0000
,
0000
0000
0000
0000
,
0000
0000
0000
0000
,
0000
0000
0000
0000
,
0000
0000
0000
0000
,
0000
0000
0000
0000
,
0002
0000
0000
0000
,
0000
0000
0000
0000
,
2003
0000
0000
0000
,
0000
0000
0000
0000
,
0002
0000
0000
0000
,
0000
0000
0000
0000
,
0020
0000
0000
0000
,
0000
0000
0000
3033
,
1000
0001
0000
0000
1000
0001
0000
0000
,
0100
0010
0000
0000
0100
0010
0000
0000
,
0100
0100
0100
0100
,
0100
0100
0100
0100
,
0000
0000
0001
1000
0000
0000
0001
1000
,
0000
0000
0010
0100
0000
0000
0010
0100
,
0000
0010
0010
0010
,
0010
0010
0010
0010
,
1000
0000
1000
0000
0010
1000
0010
0000
,
0100
0000
0100
0000
0001
0100
0001
0000
,
0001
0000
0100
0000
,
0010
0000
1000
0000
,
0100
0000
1000
0000
0100
0010
0100
0000
,
0010
0000
0001
0000
1000
0001
1000
0000
,
0001
0100
0010
1000
,
0100
0010
0001
1001
,
0001
0000
0110
0000
0010
1000
0100
0000
,
1000
0000
1100
0000
1000
0100
0010
0000
,
0001
0000
1000
0000
0001
0100
0001
0000
,
1000
0000
0100
0000
1000
0001
1000
0000
,
0001
0110
1000
0010
,
1000
1100
1000
0001
,
0010
0001
1000
0001
,
0100
0010
0100
0010
1000
0010
1000
0010
,
1000
1010
0000
0101
,
1000
0101
1000
0011
,
1000
0101
1000
0011
,
1000
0101
1000
0011
,
1000
0001
0000
0100
,
0010
1000
0000
0100
,
0010
0001
1000
0010
,
0100
0100
0010
0010
0100
0000
0001
0000
,
1000
0100
1000
0000
0001
0000
0010
0000
,
0100
1000
0100
0000
1000
0000
0001
0000
,
0100
0010
0100
0000
0010
1000
0010
0000
,
1000
0001
1000
0000
0001
0100
0001
0000
,
1000
1000
0000
0000
0100
0000
0010
0000
,
0001
0001
0000
0000
0010
0000
0100
0000
,
1000
0100
0010
0001
,
1000
0001
1000
0000
0010
0100
0010
0000
,
0100
0001
1000
0100
,
1000
0001
0100
0010
,
1000
0100
0010
0001
,
1000
0110
1000
0110
,
1000
0010
0100
0001
,
0010
0100
2000
0000
,
3001
0100
0001
1000
,
0100
1000
0001
0000
0100
0000
0100
0000
,
0001
0101
0000
1001
,
0000
1010
0000
1001
,
1000
1100
1000
1010
,
1000
1001
1000
1100
,
1000
0001
0100
0001
,
1000
0001
0010
0001
,
1000
0001
0100
0010
,
1000
0000
0100
0000
1000
0001
1000
0000
,
0001
0100
0001
0010
,
0001
0000
1000
0000
0001
0100
0001
0000
,
1000
0100
1000
0001
,
0010
0000
0001
0000
1000
0010
1000
0000
,
0001
0001
0100
0100
,
0010
0010
1000
1000
,
0100
1000
0100
0000
1000
0001
1000
0000
,
0001
0010
0001
1000
0001
0100
0001
1000
,
0001
0000
0000
0000
;
#NOTES:
     dance-single:
     Renard:
     Beginner:
     3:
     0.265,0.345,0.147,0.086,0.000:
0000
0000
0000
0000
,
0000
0000
0000
0000
,
0000
0000
0000
0000
,
0000
0000
0000
0000
,
0000
0000
0000
0000
,
0000
0000
0000
0000
,
0000
0000
0000
0000
,
0000
0000
0000
0000
,
2000
0000
0000
0000
,
0000
0000
0000
0000
,
3002
0000
0000
0000
,
0000
0000
0000
0000
,
0200
0000
0000
0000
,
0000
0000
0000
0000
,
0020
0000
0000
0000
,
0000
0000
0000
0333
,
0001
0000
1000
0000
,
0001
0000
1000
0000
,
0010
0010
0010
0000
,
0010
0010
0010
0000
,
0000
1000
0000
0001
,
0000
1000
0000
0001
,
0000
0100
0100
0100
,
0000
0100
0100
0100
,
0001
0001
1000
1000
,
0001
0001
1000
1000
,
0010
0000
0010
0000
,
0100
0000
0100
0000
,
0001
1000
0001
0000
,
1000
0001
1000
0000
,
0010
0010
0010
0010
,
0010
0010
0010
1001
,
1000
1100
0000
0011
,
0000
0101
0000
1010
,
0000
1010
0000
0101
,
0000
0011
0000
1100
,
0000
1000
0000
0001
,
0000
0100
0000
0010
,
0000
0100
0000
0001
,
0000
1000
0000
0000
,
0001
0001
0000
1000
,
0000
0001
0000
0100
,
0010
0010
0000
1000
,
0000
0001
0000
0100
,
0000
0001
0000
1000
,
0000
0100
0000
1000
,
0001
0010
0000
0001
,
1000
0010
0200
0000
,
0301
0001
0000
1000
,
0000
0100
0000
0010
,
0001
0001
0000
1000
,
0000
0010
0000
0100
,
0010
0010
1000
0010
,
1000
0010
1000
0010
,
0100
0002
0000
0000
,
1003
0100
0010
0001
,
0010
0000
0001
1000
,
0001
0000
0100
0010
,
1000
0000
0010
0100
,
0001
0000
1000
0100
,
1000
0000
0001
0000
0020
0000
0000
0030
,
0001
1000
2000
0000
,
3010
0100
0001
1000
,
0100
0010
0002
0000
,
1003
0001
0000
0100
,
0010
1000
0000
0001
,
0100
0001
0000
1000
,
0100
0010
0000
0001
,
1000
0010
0100
0010
,
0100
0001
0100
0001
,
1000
0100
1000
0100
,
0010
0010
0002
0000
,
1003
0001
0000
0110
,
0000
1010
0000
1001
,
0000
1100
0000
0110
,
0000
0011
0000
1001
,
0001
0100
0001
0100
,
0010
1000
0010
1000
,
0100
1000
0001
0010
,
0001
1000
0010
0010
,
1001
0000
0000
0000
;
