#TITLE:Hardcore Vibes;
#SUBTITLE:;
#ARTIST:Sample Rippers;
#TITLETRANSLIT:;
#SUBTITLETRANSLIT:;
#ARTISTTRANSLIT:;
#CRChallenge:;
#BANNER:;
#BACKGROUND:;
#LYRICSPATH:;
#CDTITLE:;
#MUSIC:vibes.ogg;
#OFFSET:0.000;
#SAMPLESTART:16.500;
#SAMPLELENGTH:12.000;
#SELECTABLE:YES;
#DISPLAYBPM:80:160;
#BPMS:0.000=160.000,36.000=80.000,69.000=160.000,102.000=80.000,118.000=160.000,122.000=320.000,123.000=160.000,151.000=320.000,152.000=160.000;
#STOPS:36.000=2.250
,69.000=1.125
,118.000=1.125
,122.000=0.063
,122.333=0.063
,122.667=0.062
,151.000=0.188
;
#BGCHANGES:;
#NOTES:
     dance-single:
     Renard:
     Medium:
     9:
     0.591,0.768,0.123,0.195,0.770:
0000
0000
0000
0000
,
0000
0000
0000
0000
,
0000
0000
0000
0000
,
0000
0000
0000
0000
,
0000
0000
0000
0000
,
0000
0000
0001
0010
0000
0000
0100
1000
0000
0000
0001
0000
0100
0000
0010
0000
,
0000
0000
1000
0010
0000
0000
0100
0001
0000
0000
1000
0000
0100
0000
0010
0000
,
0000
0000
0001
0010
0000
0000
0100
1000
0000
0000
0001
0000
0100
0000
0010
0000
,
1000
0000
0100
0010
0000
0000
0001
0010
0000
0000
0100
0000
1000
0000
0001
0000
,
0010
0000
0000
0000
0000
0000
0001
0000
0000
1000
0000
1000
0100
0000
0000
1000
0000
1000
0001
0000
0000
1000
0000
1000
,
0100
0000
0000
1000
0000
1000
0001
0000
0000
0100
0000
0100
0001
0000
0000
1000
0000
1000
0100
0000
0000
1000
0000
1000
,
0001
0000
0001
0010
0000
0010
0001
0000
0000
1000
0000
1000
0010
0000
0000
0100
0000
0100
0010
0000
0000
1000
0000
1000
,
0100
0000
0000
0010
0000
0010
0001
0000
0000
0010
0000
0010
0100
0000
0000
1000
0000
1000
0010
0000
0000
0100
0000
0100
,
0010
0000
0010
1000
0000
1000
0010
0000
0000
0101
0000
0010
1000
0000
0000
0101
0000
0010
1000
0000
0000
0101
0000
0010
,
1000
0100
1000
0100
0000
0000
1000
0000
0000
0011
0000
0100
1000
0000
0000
0011
0000
0100
1000
0000
0000
0011
0000
0100
,
1000
0100
1000
0100
0000
0000
1000
0000
0000
0101
0000
0010
1000
0000
0000
0101
0000
0010
1000
0000
0000
0101
0000
0000
,
0010
1000
0010
1000
0000
0000
0100
0000
0000
0011
0000
0000
0100
0000
0000
0011
0000
0000
0100
1000
0100
1000
0000
0000
,
0001
1000
0001
1000
0000
0010
0100
0000
0000
0000
0000
0000
0001
0000
0000
0000
0002
0000
0200
0000
0000
0000
0000
0000
,
0313
0000
0000
0001
0000
0000
1000
0000
2000
0200
0000
0000
,
3310
0000
0000
1000
0000
0000
0001
0000
0002
2000
0000
0000
,
3013
0000
0000
0001
0000
0000
0100
0000
0200
0001
0000
0001
,
0301
0000
0000
1001
0000
0000
0100
0000
0000
0001
0000
0002
,
0200
0000
0000
0313
0000
0000
0001
0000
0000
1000
0000
2000
,
0200
0000
0000
3310
0000
0000
1000
0000
0000
0001
0000
0002
,
2000
0000
0000
3013
0000
0000
0001
0000
0000
0100
0000
0200
,
0001
0000
0000
0000
0001
0000
0301
0000
0000
0000
0000
0000
0001
0000
0000
1000
0000
1000
0100
0000
0000
1000
0000
1000
,
0001
0000
0000
1000
0000
1000
0100
0000
0000
1000
0000
1000
0001
0000
0000
0010
0000
0010
0001
0000
0000
1000
0000
1000
,
0010
0000
0000
0100
0000
0100
0001
0000
0001
0100
0000
0100
0010
0000
0000
1000
0000
1000
0010
0000
0000
0100
0000
0100
,
0001
0000
0000
0010
0000
0010
0100
0000
0000
1000
0000
1000
0100
0000
0100
0010
0000
0010
0001
0000
0001
1000
0000
1000
,
0010
0000
0010
0100
0000
0100
0001
1000
0100
1000
0000
1000
0001
0000
0000
0000
0000
0000
1000
0000
0000
0000
1000
0000
,
0001
0000
0001
1000
0000
1000
0010
0100
0010
0100
0000
0100
,
0010
0000
0010
1000
0010
1000
0010
0000
1000
0001
0000
0001
,
0100
0000
0100
0001
1000
0001
1000
0000
0100
0010
0000
0001
,
0010
0000
0100
1000
0100
1000
0001
0000
1000
0010
0000
0010
,
0100
0000
0100
0001
0000
0001
1000
0000
0000
0100
0010
0100
,
0010
0000
0010
0001
0000
0001
1000
0000
1000
0010
0100
0010
,
0100
0000
0100
0001
0000
0001
1000
0000
0000
0100
1000
0100
,
1000
0000
0001
1000
0010
1000
0001
0000
2000
0002
0000
0000
,
3013
0000
0000
1000
0000
1000
0001
0000
0000
0100
0000
0100
,
0001
0000
0001
1000
0100
1000
0100
0000
1000
0001
0000
0001
,
0010
0000
0010
1000
0010
1000
0010
0000
0010
0001
0000
0001
,
0100
0000
0100
1000
0100
1000
0100
0000
0100
0001
0000
0001
,
0010
0000
0010
0100
0000
0100
0001
0000
0001
0100
1000
0100
,
1000
0000
1000
0010
0000
0010
0001
0000
0001
0010
0100
0010
,
0100
0000
0100
1000
0000
1000
0100
0000
0100
0001
0000
0001
,
0010
0000
0010
0100
1000
0100
1000
0000
0002
0100
0000
0000
,
0100
0000
0100
0000
0200
0020
1333
0000
;
#NOTES:
     dance-single:
     Renard:
     Easy:
     6:
     0.394,0.624,0.318,0.123,0.103:
0000
0000
0000
0000
,
0000
0000
0000
0000
,
0000
0000
0000
0000
,
0000
0000
0000
0000
,
0000
0000
0000
0000
,
1000
0101
1000
0101
,
0010
1100
0010
1100
,
0001
1100
0001
1100
,
0010
1000
0101
1001
,
0110
0000
0010
1000
0001
1000
0010
1000
,
0001
1000
0010
1000
0001
1000
0010
1000
,
0001
1000
1000
0001
0010
0001
1000
0001
,
0010
0001
1000
0001
0010
0001
1000
0001
,
0010
0001
1001
0100
1001
0100
1001
0100
,
1001
0100
1001
0010
1001
0010
1001
0010
,
1001
0010
1100
0010
1100
0010
0101
0010
,
0101
0010
0011
1100
1100
0011
1010
1010
,
0101
0101
1001
0000
0001
0000
1000
0000
,
0001
1000
0010
0100
,
0010
0100
0001
1000
,
0100
0010
0001
0010
,
0100
1000
0010
0100
,
0001
0000
0000
1000
0000
0001
1000
0000
0000
0010
0000
0000
,
0100
0000
0000
0001
0000
1000
0001
0000
0000
1000
0000
0000
,
0010
0000
0000
0100
0000
0010
0100
0000
0000
0001
0000
0000
,
1000
0000
0000
0100
0000
1000
0200
0000
0000
2300
0000
0000
,
0010
0001
0010
0001
3002
0000
2003
0000
,
3020
0100
1000
0100
0230
0000
0302
0000
,
0010
1000
0010
1000
2000
0003
0020
3000
,
0200
0030
0002
0300
1003
0000
0001
0000
,
0001
0000
0000
1000
0000
0000
0010
0100
0010
0100
0000
0000
,
0001
0000
0000
1000
0000
1000
0100
0000
0000
1000
0000
0000
,
0001
0000
0000
0100
0000
0100
0001
0000
0000
1000
0000
0000
,
0100
0000
0000
0010
0000
0010
0001
0000
0000
1000
0000
0000
,
0010
0100
0010
1000
,
0001
0000
0000
0100
0000
0100
0001
0000
0000
1000
0000
0000
,
0100
0000
0000
0010
0000
0010
0001
0000
0000
1000
0000
0000
,
0010
0000
0000
0100
0000
0100
0010
0000
0010
1000
0000
0000
,
0001
0000
0000
1000
0000
1000
0100
0000
0000
1000
0000
0000
,
0001
0000
0000
0010
0000
0010
0001
0000
0000
1000
0000
0000
,
0010
0000
0000
0100
0000
0100
0001
0000
0000
1000
0000
0000
,
0001
0000
0000
0010
0000
0010
0100
0000
0000
1000
0000
0000
,
0001
0000
0000
0100
0000
0100
0010
0000
0000
1000
0000
0000
,
0010
0000
0000
0100
0000
0100
0001
0000
0000
1000
0000
0000
,
0100
0000
0000
0010
0000
0010
0001
0000
0000
0010
0000
0000
,
0100
1000
0001
0102
,
0100
0100
0100
1003
;
#NOTES:
     dance-single:
     Renard:
     Beginner:
     4:
     0.337,0.384,0.534,0.267,0.000:
0000
0000
0000
0000
,
0000
0000
0000
0000
,
0000
0000
0000
0000
,
0000
0000
0000
0000
,
0000
0000
0000
0000
,
2000
0010
0000
0010
,
3002
0010
0000
0010
,
2003
0010
0000
0010
,
3002
0010
0000
0010
,
1003
2000
0200
0010
,
0010
0001
0001
3310
,
0000
0002
0200
0010
,
0010
1000
1000
0313
,
0000
0001
0002
1000
,
2000
0010
0000
3013
,
0000
1000
2000
0001
,
0002
0010
0000
3013
,
1001
1001
0001
0101
,
1000
1100
0001
0101
,
1000
1100
0001
0101
,
1000
1100
0001
0101
,
1000
1100
1000
1010
,
0001
0011
1000
1010
,
0001
0011
1000
1010
,
0001
0011
1000
1010
,
0001
0011
2000
3002
,
1003
0010
2000
3002
,
1003
0010
2000
3002
,
1003
0010
2000
3002
,
1003
0010
1001
0220
,
0000
0000
0330
0001
,
0101
1000
1100
0001
,
0101
1000
1100
0001
,
0101
1000
1100
0001
,
0011
1000
1010
0001
,
0011
1000
1010
0001
,
0011
1000
1010
0001
,
0011
1010
1001
2002
,
3003
1000
1010
1000
,
1100
1000
1010
1000
,
1100
1000
1010
1000
,
1100
1000
1010
0001
,
0011
0001
0101
0001
,
0011
0001
0101
1000
,
1010
0001
0101
1000
,
1100
0001
0011
2002
,
0000
0000
0000
3013
;
