#TITLE:Hardcore Hooligans;
#SUBTITLE:;
#ARTIST:Neophyte;
#TITLETRANSLIT:;
#SUBTITLETRANSLIT:;
#ARTISTTRANSLIT:;
#GENRE:;
#CRChallenge:;
#BANNER:hooligan.jpg;
#BACKGROUND:hooligan-bg.jpg;
#LYRICSPATH:;
#CDTITLE:;
#MUSIC:hooligan.ogg;
#OFFSET:0.000;
#SAMPLESTART:20.657;
#SAMPLELENGTH:16.000;
#SELECTABLE:YES;
#BPMS:0.000=185.000;
#STOPS:81.000=4.541
,206.000=0.973
;
#BGCHANGES:;
#KEYSOUNDS:;
#NOTES:
     dance-single:
     Renard:
     Medium:
     9:
     0.652,0.000,0.576,0.168,0.220:
0000
0000
0000
0000
,
0000
0000
0000
0000
,
0000
0000
0000
0000
,
0000
0000
0000
0000
,
0000
0000
0000
0000
,
0000
0000
0000
0000
,
0000
0000
0000
0000
,
0000
0000
0000
0000
,
1000
0100
0010
0000
0110
0000
0000
0000
,
0010
0001
0100
0000
0110
0000
1010
0000
,
1001
1001
1100
0000
,
1000
0100
0010
0000
0011
0000
0000
0000
,
0001
0010
0100
0000
0110
0000
0000
0000
,
0100
1000
0010
0100
0010
0000
0110
0000
,
0101
0101
1001
0000
,
1000
0100
0010
0000
1001
0000
0110
0000
,
0010
0000
0010
1000
0000
1000
0010
0000
0000
1010
0000
0000
,
0100
0000
0100
0001
0000
0001
0100
0000
0000
0101
0000
0000
,
0001
0000
0001
0010
0000
0010
0001
0000
0000
0011
0000
0000
,
1000
0000
1000
0100
0000
0100
1000
0000
0000
1100
0000
0000
,
2002
0000
0000
0000
3013
0000
0000
0000
1000
0000
0000
0001
0000
0000
1000
0000
,
0001
0000
0000
0000
1000
0000
0010
0000
1000
0000
0000
0001
0000
0000
1000
0000
,
0001
0000
1000
0000
0000
0000
0001
0000
0010
0000
0000
0100
0000
0000
0010
0000
,
0100
0000
0000
0000
0010
0000
0001
0000
0010
0000
0000
0100
0000
0000
0010
0000
,
0100
0000
1000
0000
0000
0000
0001
0000
1000
0000
0001
1000
0000
0000
0001
0000
,
0100
0000
0000
0000
0010
0000
1000
0000
0100
0000
0010
0001
0000
0000
0010
0000
,
0100
1000
0001
0010
1001
0000
0000
0000
,
0000
0000
0000
0000
0110
0110
0000
0000
,
0000
0000
0000
0000
1000
0001
1000
0001
1000
0000
0100
0010
0000
0000
0001
0000
,
0010
0000
0000
0000
0100
0000
1000
0000
0010
0000
1000
0001
0000
0000
1000
0000
,
0010
0000
0100
0000
0001
0000
0010
0000
0100
0000
1000
0001
0000
0000
0010
0000
,
0100
0000
0000
0000
1000
0000
0010
0000
0100
0000
0001
1000
0000
0000
0001
0000
,
0100
0000
0010
0000
1000
0000
1000
0000
0001
0000
0010
0100
0000
0000
1000
0000
,
0100
0000
0000
0000
0010
0000
0001
0000
0100
0000
0001
1000
0000
0000
0001
0000
,
0100
0000
0010
0000
1000
0000
0100
0000
0010
0000
0001
1000
0000
0000
0100
0000
,
0010
0000
0000
0000
0001
0000
0100
0000
0010
0000
1000
0001
0000
0000
1000
0000
,
0010
0100
0001
1000
0110
0000
0010
1000
,
0100
0010
0001
0000
0110
0000
0001
0000
,
0110
0000
1000
0000
0110
0000
0010
0001
,
0010
0100
1000
0000
0110
0000
0001
0000
,
0110
0000
1000
0000
0110
0000
0010
1000
,
0010
0100
0001
0000
0101
0000
1000
0000
,
0101
0000
0010
0000
1001
0000
0001
1000
,
0100
1000
0001
0000
1001
0000
0001
0100
,
0001
0000
0010
0000
0001
0000
0000
0000
1000
0000
0000
0000
0000
0100
1000
0000
,
0001
0000
0001
0000
0002
0000
0000
0000
0013
0000
0001
1000
0000
0000
0001
0000
,
1000
0020
0000
0230
0302
0000
0000
1000
,
0003
0000
1000
0000
2000
0000
0000
0000
3100
0000
1000
0001
0000
1000
0001
0000
,
1000
0002
0000
0013
0200
0000
0000
1300
,
0001
0000
1000
0000
2000
0000
0000
0000
3001
0000
1000
0100
0000
1000
0010
0000
,
0100
0002
0000
0023
0032
0000
0000
0103
,
0010
1000
2000
0000
3000
0000
0001
0001
,
0101
0000
1000
1000
1100
0000
0001
0001
,
0011
0000
0001
1000
0000
0010
0100
0100
,
0110
0000
0001
0001
1001
0000
1000
1000
,
1100
0000
0010
0001
1000
0010
0100
0100
,
0110
0000
0001
0001
0011
0000
0010
0010
,
0110
0000
0100
1000
0010
0100
0001
0001
,
1001
0000
0000
0000
1000
0000
1000
0000
1100
0000
0000
0000
0001
1000
0001
1000
,
0001
1000
0001
1000
0001
0000
2000
0000
0000
0000
3001
0000
0100
0000
0010
0000
,
0110
0000
0010
1000
1010
0000
0100
0001
,
0101
0000
0001
1000
0000
0100
1000
0010
,
1010
0000
0010
0100
0110
0000
0100
0001
,
0101
0000
0001
0010
0000
0100
1000
0100
,
1100
0000
1000
0001
1001
0000
0001
0100
,
0101
0000
0100
0010
0000
1000
0100
0010
,
0110
0000
0000
0000
0010
0000
0001
0000
0011
0000
0000
0000
0001
1000
0001
1000
,
0001
1000
0001
1000
0001
1000
0001
1000
0001
1000
0001
1000
0002
0000
0000
0000
,
0000
0003
0000
0000
;
#NOTES:
     dance-single:
     pyroko:
     Easy:
     6:
     0.356,0.000,0.126,0.042,0.000:
0000
0000
0000
0000
,
0000
0000
0000
0000
,
0000
0000
0000
0000
,
0000
0000
0000
0000
,
0000
0000
0000
0000
,
0000
0000
0000
0000
,
0000
0000
0000
0000
,
0000
0000
0000
0000
,
1000
0100
0010
0000
,
0001
1000
0001
0000
1000
0000
0001
0000
,
0100
0010
0100
0000
,
0010
0100
0010
0000
0100
0000
0010
0000
,
1000
0100
1000
0000
,
0100
0010
0100
0000
0010
0000
0100
0000
,
1000
0001
1000
0000
,
0001
1000
0001
0000
1000
0000
0001
0000
,
0100
0010
0100
0000
,
0010
1000
0010
0000
1000
0000
0100
0000
,
1100
0000
1001
0000
,
0001
1000
0001
0000
1000
0000
0000
0000
,
1001
0000
0000
0000
1000
0000
0000
0010
,
0000
0000
0100
0000
0010
0000
0000
1000
,
0000
0000
0100
0000
0010
0000
0000
0100
,
0000
0000
1000
0000
0100
0000
0000
0010
,
0000
0000
0100
0000
1000
0000
0000
0100
,
0000
0000
0010
0000
0100
0000
0000
1000
,
0000
0100
1100
0000
,
0000
0000
0000
0000
1000
1000
0000
0000
,
0000
0000
0100
1000
,
0100
0010
0001
1000
,
0001
1000
0001
0000
1000
0000
0001
0000
,
0100
0010
0100
0010
,
1000
0010
1000
0000
0100
0000
1000
0000
,
0100
0010
0001
1000
,
0001
1000
0001
0000
1000
0000
0000
0000
,
0001
0000
1000
0001
,
1000
0001
1000
0000
0001
0000
0000
0000
,
0100
0000
0010
0000
,
1000
0000
0100
0000
,
0010
0000
0100
0000
,
0010
0000
1001
0000
,
1100
0000
0101
0000
,
1001
0000
1001
0000
,
0110
0000
0101
0000
,
0011
0000
0100
0000
,
1000
0000
0100
0000
,
0010
0000
0100
0000
,
1000
0000
0100
0010
,
0100
0000
1000
0000
,
0100
0000
0010
0100
,
0010
0100
1000
0000
,
0001
0000
0000
0000
0100
0000
1000
0001
,
1000
0000
0001
1000
0001
0000
1000
0001
,
1000
0000
0001
0000
0000
0000
0100
0010
,
0100
0000
0010
0100
0010
0000
0100
0010
,
0100
0000
0010
0000
0000
0000
1000
0100
,
1000
0000
0100
1000
0100
0000
1000
0100
,
1000
0000
0100
0000
0000
0000
0010
0001
,
0010
0000
0001
0010
0001
0000
0010
0000
,
0001
0000
0010
0000
0001
0000
1000
0001
,
1000
0000
0001
0100
0010
0000
0100
0010
,
1000
0000
0100
0020
0000
0030
0010
0100
,
1000
0000
0100
0010
0001
0000
1000
0001
,
1000
0000
0001
0020
0000
0030
0100
1000
,
0100
0000
0010
0100
1000
0000
0001
0010
,
0001
0000
0100
0020
0000
0030
1000
0100
,
0010
0000
0100
1000
0100
0000
0010
0001
,
1000
0000
0001
0100
0010
0000
0200
0000
,
0000
0300
0000
0000
;
#NOTES:
     dance-single:
     pyroko:
     Beginner:
     2:
     0.217,0.000,0.031,0.073,0.000:
0000
0000
0000
0000
,
0000
0000
0000
0000
,
0000
0000
0000
0000
,
0000
0000
0000
0000
,
0000
0000
0000
0000
,
0000
0000
0000
0000
,
0000
0000
0000
0000
,
0000
0000
0000
0000
,
1000
0000
0001
0000
,
0100
0001
0100
0000
,
0010
0000
1000
0000
,
0010
1000
0010
0000
,
1000
0000
0100
0000
,
0010
0100
0010
0000
,
0001
0000
1000
0000
,
0010
1000
0010
0000
,
1000
0000
0100
0000
,
0010
0100
0010
0000
,
0100
0000
1000
0000
,
0001
1000
0001
0000
,
1001
0000
0001
0000
,
1000
0000
0010
0000
,
0100
0000
0010
0000
,
1000
0000
0100
0000
,
0010
0000
0100
0000
,
1000
0000
0010
0000
,
1000
0000
1001
0000
,
0000
0000
1001
0000
,
0000
0000
0010
0000
,
0100
0000
0010
0000
,
1000
0100
1000
0000
,
0100
0000
1000
0000
,
0001
0100
0001
0000
,
0010
0000
0100
0000
,
1000
0100
1000
0000
,
0010
0000
1000
0100
,
1000
0001
1000
0000
,
0010
0000
0100
0000
,
0001
0000
0010
0000
,
0100
0000
1000
0000
,
0001
0000
1000
0000
,
0010
0000
0100
0000
,
0001
0000
0010
0000
,
0100
0000
1000
0000
,
0001
0000
0100
0000
,
0010
0000
1000
0000
,
0100
0000
0010
0000
,
0010
0000
0100
0000
,
0100
0000
1000
0000
,
1000
0000
0001
0000
,
0001
0000
0100
0000
,
0100
0000
0010
1000
,
0000
0100
0000
0010
,
0000
0000
0100
0020
0000
0030
0100
0000
,
0000
1000
0000
0100
,
0000
0000
1000
0200
0000
0300
1000
0000
,
0000
0001
0000
0100
,
0000
0000
0001
0200
0000
0300
0010
0000
,
0000
1000
0000
0100
,
0000
0000
0000
0010
,
0000
0100
0000
1000
,
0000
0000
0100
2000
0000
3000
0001
0000
,
0000
1000
0000
0001
,
0000
0000
0100
0002
0000
0003
0010
0000
,
0000
0100
0000
1000
,
0000
0000
0100
2000
0000
3000
0010
0000
,
0000
0100
0000
0001
,
0000
0010
0000
0200
,
0000
0300
0000
0000
;
