#TITLE:Happy;
#SUBTITLE:;
#ARTIST:Fischerspooner;
#TITLETRANSLIT:;
#SUBTITLETRANSLIT:;
#ARTISTTRANSLIT:;
#CRChallenge:;
#BANNER:Happy BN.png;
#BACKGROUND:Happy BG.png;
#LYRICSPATH:;
#CDTITLE:Astro Title.png;
#MUSIC:Fischerspooner - Happy.ogg;
#OFFSET:-0.120;
#SAMPLESTART:52.380;
#SAMPLELENGTH:12.000;
#SELECTABLE:YES;
#BPMS:0.000=137.950,160.000=68.975,188.000=137.945;
#STOPS:;
#BGCHANGES:;
#NOTES:
     dance-single:
     Bixby:
     Medium:
     8:
     0.502,0.573,0.172,0.180,0.196:
0000
0000
0000
0000
,
0000
0000
0000
0000
,
0000
0000
0000
0000
,
0000
0000
0000
0000
,
0001
0000
0000
0010
0000
0000
0001
0000
0000
0100
0000
0000
0010
0000
1000
0000
,
0010
0000
0000
0100
0000
0000
0001
0000
0000
0010
0000
0000
0100
0000
1000
0000
,
0010
0000
0000
0100
0000
0000
0010
0000
0000
1000
0000
0000
0010
0000
0001
0000
,
0010
0000
0000
1000
0000
0000
0100
0000
0000
1000
0000
0000
0010
0000
0100
0000
,
0001
1000
0100
0010
0001
0100
0010
0100
,
0001
1000
0100
1000
0001
0100
0010
0100
,
0001
1000
0100
1000
0001
0010
0100
1000
,
0100
0001
0100
1000
0010
0100
0001
1000
,
0100
1000
0001
0100
0010
1000
0010
0100
,
0001
0100
0010
0001
0010
0100
1000
0100
,
0001
0010
0100
1000
0100
0001
0001
0100
,
1000
0010
1000
0100
0001
0100
0010
0100
,
1100
0000
1000
0010
0100
0000
0001
1001
,
0000
0110
0000
0101
0000
0001
0001
0000
,
0010
0000
0100
0010
0001
0000
1000
1100
,
0000
1001
0000
0011
0000
0010
0100
0000
,
1000
0000
0002
1000
0010
0000
0100
0000
,
0103
0000
2000
0001
0010
0000
0100
0000
,
3100
0000
0001
0011
0000
1001
0000
0101
,
0000
0110
0000
1010
0000
0100
0001
0010
,
0011
0000
1000
0100
0010
0000
0001
0010
,
0000
1000
0000
0010
0000
0001
1000
0000
,
1001
0000
1000
0000
0010
0000
0100
0010
,
0000
1000
0100
0011
0000
0001
1000
0000
,
1000
0000
0002
0000
0010
0000
0010
0000
1000
0000
0000
0003
1000
0000
0000
0000
,
0010
0000
0200
0000
1000
0000
1000
0000
0010
0000
0000
0300
1000
0000
0000
0000
,
0001
0000
0020
0000
0100
0000
0100
0000
0001
0000
0000
0030
0001
0000
1000
0000
,
0000
0010
0000
0100
0001
1000
0001
0100
,
0101
0000
0000
0100
0001
0000
0010
0000
0100
0000
0010
0000
0100
0000
0010
0000
,
0001
0000
0000
0100
0010
0000
1000
0000
0010
0000
0100
0000
0001
0000
0100
0000
,
0010
1000
0100
0010
0001
0000
0100
1010
,
0000
1001
0000
0011
0000
0010
0010
0100
,
0100
0000
0000
1000
0100
0000
0010
0000
0100
0000
0000
0000
1000
0000
0010
0000
,
0100
0000
0000
0010
1000
0000
0001
0000
0010
0000
0100
0000
1000
0000
0000
0000
,
0001
0000
0000
0010
0100
0000
0010
0000
1000
0000
0000
0000
0100
0000
0100
0000
,
0000
1001
0000
0011
0000
0010
0100
1000
,
0200
0000
0000
2000
0300
0000
3020
0000
0002
0030
0000
0020
0003
0000
2030
0000
,
0020
3000
0000
0200
0030
0000
0320
0000
0002
0000
0000
0000
0000
0000
0030
0000
,
2003
0000
0000
0200
0000
3000
0320
0000
2000
0030
0000
0200
0000
3000
0320
0000
,
0230
0000
0000
0000
,
1300
0000
1000
0000
0010
0000
0010
0000
0100
0001
1000
0010
0100
0000
0001
0000
,
0010
0001
1000
0001
0100
0000
0001
0010
0000
0100
0000
0010
0000
0100
0010
0001
,
0010
0100
1000
0001
1000
0000
0000
0000
0010
1000
0010
0100
0100
0000
0001
0000
,
0100
0000
0010
0000
1000
0000
0001
0000
0000
0000
0100
0000
0010
1000
0010
0000
,
0100
0000
0010
0000
1000
0000
0010
0000
0001
0000
0010
1000
0100
0000
0010
0000
,
0100
0000
0000
1000
0100
0000
0010
0000
0000
0000
0001
0000
1000
0000
0100
0000
,
0010
0000
0000
0001
0100
0000
0010
0000
0000
0000
1000
0000
0100
0000
0001
0000
,
0100
0000
0000
1000
0100
0000
1000
0000
0000
0000
1000
0000
0100
0000
0001
0000
,
0100
0000
0000
0010
0001
0000
0001
0000
0000
0000
1000
0000
0100
0000
0000
0000
,
1000
0000
0000
0001
0100
0000
0010
0000
1000
0000
0100
0000
0010
0000
0000
0000
,
0010
0000
0000
0100
1000
0000
0100
0000
0010
0000
0001
0000
0100
0000
0000
0000
,
0010
0000
0000
1000
0100
0000
0010
0000
0001
0000
0010
0000
0100
0000
0000
0000
,
1000
0000
0010
1000
0010
0000
0100
0000
0001
0000
1000
0000
0001
0010
0001
0010
,
0001
0000
0000
1000
0100
0000
0010
0000
0001
0000
0100
0000
0010
0000
0000
0000
,
0100
0000
0010
0100
0010
0000
0100
0000
0001
0000
0001
0000
0001
0000
1000
0000
,
0100
0000
0010
0100
1000
0000
0001
0000
0100
0000
0010
0000
1000
0000
0000
0000
,
1000
0000
1000
0000
0100
0000
0100
0000
0010
0000
0010
0000
0001
1000
0001
1000
;
#NOTES:
     dance-single:
     Bixby:
     Easy:
     6:
     0.406,0.523,0.114,0.188,0.045:
0000
0000
0000
0000
,
0000
0000
0000
0000
,
0000
0000
0000
0000
,
0000
0000
0000
0000
,
1000
0001
0000
0100
0000
0010
0000
1000
,
0001
0010
0000
0100
0000
1000
0000
0100
,
0010
0001
0000
0100
0000
0010
0000
0100
,
0001
0010
0000
0001
0000
0100
0000
0010
,
1000
0100
0010
0000
0000
0001
1000
0000
,
0010
0100
0010
0000
0000
0010
1000
0000
,
0001
0000
0100
0000
0000
0100
0001
0000
,
0100
0010
1000
0000
0001
1000
0001
0100
,
0001
0000
0001
0000
0000
1000
0001
0010
,
0001
0000
1000
0000
0000
0001
1000
0010
,
1000
0000
0001
0000
0100
0000
0010
1000
,
0001
0000
0001
1000
0000
1000
0001
0000
,
1001
0000
1000
0001
0100
0000
0010
1000
,
0000
0100
0010
0100
0000
1000
0100
0000
,
1000
0000
0010
0100
0010
0000
0100
0001
,
0000
1000
0010
0100
0000
0001
0100
0000
,
0100
0000
0100
0001
0100
0000
0010
0000
,
0010
0000
0010
1000
0010
0000
1000
0000
,
1000
0000
1000
0001
0000
1000
0000
0100
,
0000
0001
0000
0100
0000
1000
0010
0000
,
1001
0000
0010
0100
0001
0000
0001
1000
,
0000
0001
1000
0000
0000
0010
1000
0010
,
0100
0000
0001
0000
1000
0000
0100
0010
,
0000
0010
0001
0000
0100
0010
1000
0000
,
2002
0000
0000
0000
0000
3003
0000
0000
,
0202
0000
0000
0000
0000
0303
0000
0000
,
2020
0000
0000
3030
,
0000
0001
1000
0000
1000
0010
1000
0100
,
1000
0000
0001
0010
0100
1000
0000
1001
,
0000
1000
0100
0010
0001
0010
0000
1001
,
0000
1000
0010
0100
0010
0000
0010
0100
,
0000
0010
1000
0100
0000
0010
0001
0000
,
0001
1000
0010
0100
0010
1000
0000
1001
,
0000
0010
0100
0001
0010
0000
1000
1001
,
0000
1000
0010
0100
0000
0100
0010
1000
,
0000
0010
1000
0010
1000
0001
0100
0001
,
0200
0300
0200
0302
0023
0030
0002
0023
,
0230
0300
2000
3002
0203
0000
0000
0000
,
0302
0000
0003
1000
0200
0000
0320
0000
0032
0000
0003
0100
0020
0000
0130
0000
,
2002
0000
0000
0000
,
3013
0000
0010
0000
1000
0010
0000
1000
0010
0000
0010
0100
0010
0100
0000
0001
,
0000
1000
0010
0000
0010
0000
0100
0001
0000
0010
0000
0100
0000
0000
1000
0000
,
0010
0100
0001
0001
0010
0100
1000
1000
,
0000
1000
0001
1000
0000
0100
0010
0100
,
0000
0010
0001
0010
0100
0001
0100
0010
,
0001
0000
1000
0010
0000
0010
0100
0000
,
0101
0000
1000
0001
0000
0010
0100
0000
,
1100
0000
1000
0100
0000
0100
0010
0000
,
0011
0000
0010
0100
0000
0100
1000
0000
,
1000
0001
0010
0000
0010
0100
1000
0000
,
1000
0001
0100
0000
0100
0010
1000
0000
,
1000
0001
0100
0000
0100
0001
1000
0000
,
1000
0100
0010
0001
0010
0000
1000
0001
,
0100
0001
1000
0000
0100
0010
0100
0000
,
0100
1000
0100
0000
0010
0001
0010
0000
,
1001
0000
1000
0100
0010
0001
0100
0000
,
0010
1000
0010
1000
0001
0100
0001
0100
;
#NOTES:
     dance-single:
     Bixby:
     Beginner:
     3:
     0.215,0.298,0.106,0.164,0.000:
0000
0000
0000
0000
,
0000
0000
0000
0000
,
0000
0000
0000
0000
,
0000
0000
0000
0000
,
0001
0000
0010
0000
,
0100
0000
1000
0000
,
0100
0000
0010
0001
,
0010
0000
0100
0000
,
1001
0000
0100
0000
,
1001
0000
0010
0000
,
1001
0000
0001
0000
,
1001
0000
1000
0000
,
0001
0001
0001
0000
,
1000
1000
1000
0000
,
0010
0010
0010
0000
,
0100
0100
0100
0000
,
0010
0000
1000
0000
,
0001
0100
0100
0010
,
1000
0000
0100
0000
,
0010
0001
1000
1000
,
0020
0000
1030
0000
,
0002
0000
0013
0000
,
2000
0000
3100
0000
,
1000
0001
1000
0000
,
1001
0000
0001
0000
,
1000
0000
0010
0100
,
0001
0000
1000
0000
,
0010
0000
0100
0001
,
0110
2000
0000
0100
,
3100
0002
0000
0100
,
0103
2000
0000
0100
,
3100
1000
0001
1000
,
1001
0000
1000
0002
,
0013
0000
0010
0002
,
1003
0000
1000
0002
,
0103
0000
0100
0002
,
1003
0000
1001
0000
,
1000
0001
1001
0000
,
0001
1000
1001
0000
,
1000
0100
0010
0100
,
1000
0001
0100
0010
,
1000
0100
0020
0000
,
0031
0100
0010
1000
,
0200
0000
0000
0000
,
0301
0000
1000
0000
1000
0001
0100
0000
,
0010
0000
1000
0000
0100
0010
0001
0000
,
0011
0000
1100
0000
,
2000
0000
3001
0010
,
0100
1000
0001
0010
,
1100
0000
1000
0001
,
0100
0000
0010
1000
,
0001
0000
1000
0100
,
0001
0000
0010
0100
,
2000
0000
0000
0000
,
3020
0000
0000
0000
,
0230
0000
0000
0000
,
0302
0000
0000
0000
,
0023
0000
0000
0000
,
0230
0000
0000
0000
,
2300
0000
0000
0000
,
3001
0100
0010
1000
;
#NOTES:
     dance-single:
     Bixby:
     Hard:
     10:
     0.632,0.797,0.327,0.237,0.437:
0000
0000
0000
0000
,
0000
0000
0000
0000
,
0000
0000
0000
0000
,
0000
0000
0000
0000
,
0102
0000
0000
1000
0000
0000
0100
0000
0000
1000
0003
0000
0010
0000
0100
0001
,
0200
0010
0000
0001
0000
0000
0010
0000
0000
0001
0300
0000
1000
0000
0010
0100
,
0002
0010
0000
0100
0000
0000
1000
0000
0000
0010
0003
0000
0010
0000
0001
0100
,
0020
1000
0000
0100
0000
0000
1000
0000
0030
1000
0001
0000
0010
0000
0001
0000
,
0100
0000
1000
0000
0100
0000
0001
0000
0010
0000
0100
0000
1000
0000
0100
0010
,
0001
0000
0100
0000
0010
0000
0001
0000
0010
0000
0100
0000
1000
0000
0100
0001
,
0010
0000
0100
0000
1000
0000
0100
0000
0010
0000
0001
0000
1000
0000
0001
0010
,
0100
0000
0010
0000
1000
0000
0010
0000
0100
0000
0010
0000
0001
0010
0100
1000
,
0100
0000
0100
0000
1000
0000
0010
0000
0100
0000
0010
0000
0001
0000
0010
1000
,
0100
0000
1000
0000
0100
0000
0001
0000
0100
0000
1000
0000
0010
0000
0100
0001
,
0100
0000
0010
0000
0001
0000
0010
0000
1000
0000
0001
0000
0010
0000
0100
1000
,
0010
0000
1000
0000
0001
0000
0010
0000
0001
0000
1000
0000
0001
0100
0010
1000
,
0100
0010
0001
0100
0010
1000
0100
0020
,
0000
0000
0130
0000
0000
0000
0011
0000
0000
0000
0100
0010
0001
0000
0000
0000
,
1000
0010
0100
0001
0010
0000
0011
1001
,
0000
0000
1100
0000
0000
0000
0022
0000
0030
0003
0010
0100
1000
0000
0000
0000
,
1010
0000
1000
0200
0010
0300
0010
0200
,
1000
0300
0001
0020
0100
0030
0100
0020
,
0001
0030
1000
1001
0000
1010
0000
0101
,
0000
0000
1010
0000
0000
0000
1001
0000
0000
0000
1000
0010
1000
0000
0010
0000
,
1010
0001
1000
0100
0010
0000
0001
1000
,
0000
0000
1001
0000
0000
0000
0011
0000
0000
0000
0100
1000
0100
0000
0000
0000
,
0011
0000
1000
0100
0010
0100
1000
0010
,
0000
0000
1000
0000
0100
0000
0001
0000
0000
0000
0001
0100
1000
0000
0000
0000
,
1010
1000
0100
0010
0001
0000
0001
1000
,
1100
0100
0010
0100
1000
0000
0100
0010
,
0011
0010
0100
0010
0001
0000
1000
0010
,
0100
0001
0101
0001
1000
1010
0010
0100
,
0001
1000
0000
1000
0100
0000
1000
0000
0100
0000
0001
0000
0100
0000
0010
0000
,
0100
1000
0000
1000
0010
0000
0100
0000
0001
0000
1000
0000
0100
0000
0010
0000
,
0001
0010
0000
0010
0100
0000
1000
0000
0100
0000
0010
0000
0001
0000
0020
0000
,
0000
0000
1000
0000
0000
0000
0100
0000
0030
0000
0010
0000
0100
1000
0000
1000
,
0100
0000
0010
0000
0001
0000
0100
0000
0010
0000
0100
0000
1000
0100
0000
0100
,
0001
0000
0010
0000
0100
0000
1000
0000
0100
0000
1000
0000
1000
0100
0000
0100
,
0010
0000
0001
0000
0100
0000
0010
0000
1000
0100
0010
0000
0100
0000
0000
0000
,
0100
1000
0100
0010
0001
0010
0001
0010
0100
1000
0100
0010
0001
0010
0001
0010
,
0002
0000
0000
0200
0000
0000
0020
0000
2000
0030
0000
0020
3000
0000
2300
0000
,
0200
0030
0000
0020
3000
0000
2300
0000
0200
0000
0000
0000
0000
0000
0003
0000
,
0002
0300
0000
0200
0030
0000
0320
0000
0200
0003
0000
0002
0030
0000
3020
0000
,
2000
0000
0000
0000
0000
0000
0000
0000
0000
0000
0000
0000
0003
0030
0300
3000
,
0001
0000
0010
0100
1000
0100
0001
0100
1000
0010
1000
0100
0001
0100
1000
0001
,
0100
0001
0010
1000
0010
0001
0100
0010
0001
0010
0100
0001
1000
0010
0100
0001
,
1000
0001
0010
0001
0100
0010
1000
0001
1000
0100
1000
0010
1000
0001
0010
0001
,
1000
0000
1100
0000
0001
0000
1100
0000
0000
0000
1000
0000
0001
0100
0010
0100
,
0001
0000
1000
0000
0100
0000
0010
0000
1000
0000
0010
0100
1000
0010
0100
0001
,
0010
0000
0000
0100
0010
0000
0001
0000
1000
0000
0100
0000
0010
0001
0000
0010
,
0001
0000
1000
0000
0100
0000
0010
0000
0100
0000
1000
0000
0010
0100
0000
0100
,
0010
0000
1000
0000
0100
0000
0001
0000
0100
0000
1000
0000
0100
0010
0000
0010
,
1000
0010
0100
1000
0010
0100
0100
0000
,
0101
0000
0000
0010
1000
0000
0010
0000
0100
0000
0101
0000
1010
0000
0000
0000
,
1100
0000
0000
0001
0010
0000
0100
0000
1000
0000
1100
0000
0011
0000
0000
0000
,
0011
0000
0000
0001
0100
0000
0010
0000
1000
0000
1010
0000
0101
0000
0000
0000
,
0011
0000
1000
0100
1000
0000
0100
0000
1000
0000
0100
0000
0010
0001
0010
0001
,
0010
0000
0000
0001
1000
0000
0010
0000
0100
0000
0101
0000
1010
0000
0000
0000
,
0101
0000
1000
0010
1000
0000
0100
0000
0010
0000
0011
0000
1100
0000
1000
0000
,
0001
0000
0001
0010
0001
0000
1000
0000
0100
0000
0110
0000
1100
0000
0000
0000
,
0100
0010
0001
0010
0001
0010
0100
1000
0100
1000
0100
0010
0001
0010
0001
1000
;
