#TITLE:Happiness;
#SUBTITLE:;
#ARTIST:Nonstop;
#TITLETRANSLIT:;
#SUBTITLETRANSLIT:;
#ARTISTTRANSLIT:;
#CRChallenge:;
#BANNER:Happiness.png;
#BACKGROUND:Happiness-bg.png;
#LYRICSPATH:;
#CDTITLE:;
#MUSIC:happiness.ogg;
#OFFSET:0.000;
#SAMPLESTART:96.000;
#SAMPLELENGTH:12.000;
#SELECTABLE:YES;
#BPMS:0.000=180.000;
#STOPS:;
#BGCHANGES:;
#NOTES:
     dance-single:
     Nonstop:
     Challenge:
     10:
     0.521,0.629,0.080,0.000,0.000:
0000
0000
0000
0000
,
0000
0000
0000
0000
,
0000
0000
0000
0000
,
0000
0000
0000
0000
,
1100
0000
0000
0010
0000
0001
0000
0100
,
0000
0000
0000
0000
,
0101
0000
0000
0010
0000
1000
0100
0000
,
0010
0000
0000
0001
0000
1000
0000
0000
,
0010
1000
0010
1000
0000
0010
1000
0000
,
0001
0100
0001
0100
0000
0001
0100
0000
,
0001
0010
0001
0010
0000
0001
0010
0000
,
0100
1000
0100
1000
0000
0100
1000
0000
,
0001
0100
0001
0100
0001
0000
0100
0000
,
0010
1000
0010
1000
0010
0000
1000
0000
,
0100
0000
0000
0010
0000
0001
0000
0000
,
1000
0000
0000
0000
,
0001
0000
0001
0100
0000
0100
0010
1000
,
0100
0000
0100
1000
0000
1000
0010
0100
,
0001
0000
0001
0010
0000
0010
0001
0100
,
0010
0000
0010
1000
0000
1000
0100
1000
,
0010
0000
0010
0100
0000
0100
0001
0010
,
0100
0000
0100
0010
0000
0010
0001
0100
,
0010
0000
0010
1000
0000
1000
0100
0010
,
0001
0000
0000
0000
,
1000
0000
0000
0100
0000
0000
0010
0000
,
0001
0000
0000
0010
0000
0000
0100
0000
,
1000
0000
0000
0100
0000
0000
0010
0000
,
0001
0000
1000
0000
,
0001
0000
0000
0100
0000
0000
0010
0000
,
1000
0000
0000
0010
0000
0000
0100
0000
,
0001
0000
0000
0100
0000
0000
0010
0000
,
1000
0000
0010
0000
1000
0000
0010
1000
,
0100
0000
0000
0010
0000
0000
0001
0000
,
1000
0000
0000
0001
0000
0000
0100
0000
,
0010
0000
0000
1000
0000
0000
0100
0000
,
0010
0000
0010
0000
0001
0000
0001
1000
,
0010
0000
0000
0100
0000
0000
0001
0000
,
1000
0000
1000
0100
,
0010
0000
0000
0001
0000
0000
1000
0000
,
0010
0000
0000
0000
0100
0100
0100
0000
,
0010
0000
1000
0010
0000
0100
0000
0001
,
0000
0010
0100
0000
1000
0000
0100
0010
,
0001
0000
0010
0100
0000
1000
0000
0001
,
0000
0100
0010
0000
1000
0000
0010
0100
,
0001
0000
1000
0100
0000
1000
0000
0010
,
0000
0100
0001
0000
1000
0000
0100
0010
,
0001
0000
0001
0010
0000
0010
0100
0000
,
1000
0001
0100
0010
1000
0000
0100
0000
,
1000
0100
1000
0001
0000
1000
0010
1000
,
0001
0100
0001
1000
0000
0001
0010
0001
,
1000
0100
1000
0010
0000
1000
0001
0100
,
0001
0010
0001
1000
0000
0001
1000
0010
,
0100
0001
0010
0100
0000
1000
0010
0100
,
0001
0010
0100
0010
0000
0010
0100
1000
,
0010
0100
0001
0100
0010
1000
0100
0010
,
0001
0000
0000
0000
,
1000
0000
1000
0000
0001
0100
0010
1000
,
0001
0000
0001
0000
1000
0100
0010
0001
,
1000
0000
1000
0000
0001
0100
0010
1000
,
0001
0000
0000
0000
,
1000
0000
1000
0000
0100
0010
0001
0000
,
0010
0000
0010
0000
0001
0010
0100
0000
,
1000
0000
1000
0000
0100
0010
0001
0000
,
1000
0000
0001
0000
0100
0010
1000
0000
,
0001
0000
0001
0000
0100
0010
0100
0000
,
0001
0000
0001
0000
0100
0010
0100
0000
,
0001
0000
0001
0000
0100
0010
0100
0000
,
0001
0000
0001
0000
0100
0010
0100
0000
,
0001
0000
0001
0000
1000
0100
1000
0000
,
0001
0000
0001
0000
1000
0100
1000
0000
,
0001
0000
0001
0000
1000
0100
1000
0000
,
0001
0010
0100
1000
,
0001
0000
0100
0000
0010
1000
0100
0010
,
0001
0010
0100
0110
,
0100
0000
1000
0000
0001
0100
0010
1000
,
0100
0010
0100
1001
,
1000
0000
0001
0000
0100
0010
1000
0001
,
0100
0010
1000
1001
,
1000
0000
0100
0010
0001
0000
0010
0100
,
1000
0000
0001
0010
0100
0000
1000
0000
,
1001
0000
0000
0000
,
0000
0000
0000
0000
,
1000
0000
1000
0000
0001
0100
0010
1000
,
0000
1000
0000
1000
0010
0000
0010
0000
,
1000
0000
1000
0000
0001
0100
0010
1000
,
0000
1000
0000
1000
0010
0000
0010
0000
,
1000
0000
1000
0000
0001
0100
0010
1000
,
0000
1000
0000
1000
0010
0000
0010
0000
,
1000
0000
1000
0000
0001
0100
0010
1000
,
1000
0000
0000
0000
,
0001
0000
0100
0000
0010
1000
0100
0010
,
0000
0010
0000
0001
0010
0000
0100
0000
,
1000
0000
0001
0000
0100
0010
1000
0100
,
0000
0010
0000
0001
0010
0000
0100
0000
,
1000
0000
0001
0000
0100
0010
1000
0001
,
0000
1000
0000
0100
0010
0000
0001
0000
,
0010
0000
0100
0000
1000
0001
0000
0000
,
0100
0010
0000
1000
0100
0010
0000
0000
,
0001
0000
0010
0000
0100
1000
0001
0010
,
0000
0001
0000
1000
0010
0000
0100
0000
,
0001
0000
1000
0000
0100
1000
0010
0100
,
0000
0001
0000
0010
0001
0000
0100
0000
,
0001
0000
0010
0000
0100
1000
0001
0100
,
0000
0010
0000
1000
0001
0000
0010
0000
,
0001
0000
1000
0000
0010
0100
0000
0001
,
0100
0010
1000
0100
0010
0001
0010
0010
,
0001
0000
0010
0000
0100
1000
0100
0000
,
0010
0000
0001
0000
0010
0100
1000
0000
,
0100
0000
0010
0000
0001
0010
0100
0000
,
1000
0000
0100
0000
0010
0100
1000
0000
,
0100
0000
0010
0000
0001
0010
0100
0000
,
1000
0000
0100
0000
0010
0100
1000
0000
,
0001
0000
0010
0000
0100
1000
0001
0000
,
0100
0001
1000
0100
,
1000
0000
1001
0000
0100
0010
1000
0100
,
0010
0000
0110
0000
0010
0001
0100
0010
,
0100
0000
0110
0000
0010
0001
1000
0100
,
1000
0000
1100
0000
1000
0010
0100
0000
,
0110
0000
0101
0000
0001
0100
0010
0000
,
1010
0000
0110
0000
0010
1000
0100
0000
,
0110
0000
0011
0000
0010
0100
1000
0000
,
1001
0000
0001
1000
0010
1000
0001
0000
,
1000
0100
1000
0100
,
1000
0100
1000
0100
,
1000
0100
1000
0100
,
1000
0100
1000
0100
,
1000
0100
0010
0001
0010
0100
1000
0001
,
0010
0100
1000
0100
0010
0001
0010
0100
,
1000
0001
0010
0100
1000
0100
0010
0001
,
0010
0100
1000
0100
0010
0001
0010
0100
,
1000
0000
1000
0000
0100
0010
0001
0000
,
0010
0000
0010
0000
0001
0010
0100
1000
,
0001
0000
0100
0000
0010
1000
0001
0000
,
0100
0000
0010
0000
1000
0100
0010
0001
,
0010
0000
0010
0000
0001
0010
0100
1000
,
0001
0000
0001
0000
0100
0010
1000
0100
,
0010
0001
0010
0100
1000
0001
0100
0010
,
1000
0000
0000
0000
,
0001
0000
0000
0000
,
1000
0100
0010
0001
,
0000
0010
0000
0000
,
0100
1000
0010
0100
,
0000
0000
0000
0000
0000
0000
0000
0001
,
0100
0000
0010
1000
0000
0100
0010
0000
,
0000
0000
0001
0010
,
0100
1000
0000
0100
0010
0000
0001
0010
,
0000
0000
0000
0000
0000
0000
0100
1000
,
0001
0100
0010
0000
1000
0000
0001
0000
,
0000
0100
0000
0010
,
0000
0000
1000
1000
,
0000
0000
0000
0000
,
0000
0000
0100
0100
,
0000
0000
0000
0000
0000
0000
0010
0001
,
0010
0100
1000
0001
,
0100
0010
0000
0000
,
0000
0000
0010
0000
0000
1000
0000
0000
,
0010
1000
0100
0010
,
0000
0000
0001
0010
,
0100
0010
0100
0010
0100
1000
0100
1000
,
0001
0010
0001
0010
0001
1000
0001
1000
,
0010
0000
1000
0000
0001
0100
0010
1000
,
0000
1000
0000
0010
0000
0100
0010
0000
,
0100
0010
1000
0100
0010
0001
0010
0001
,
0000
0001
0000
0001
0000
0001
0000
0001
,
0010
0100
1000
0001
0100
0010
1000
0100
,
0000
0100
0000
0100
0000
0100
0000
0100
,
1000
0010
0100
0001
0010
0100
1000
0001
,
0000
0001
0000
0001
0000
0001
0000
0100
,
0010
1000
0100
0010
0001
0010
0100
1000
,
0000
1000
0000
1000
0000
1000
0000
1000
,
0010
0100
0001
0010
0100
1000
0001
0100
,
0000
0010
0000
0100
0000
0010
0000
0100
,
0001
0010
0100
1000
0001
0100
0010
1000
,
0000
0001
0000
1000
0000
0001
0000
1000
,
0010
0100
0001
0010
0100
1000
0001
0100
,
0000
0001
0000
0100
0000
0001
0000
0100
,
0010
1000
0100
0010
0001
0010
0100
1000
,
0000
0001
0000
0100
0000
0010
0000
1000
,
0001
0000
0101
0000
0100
0010
1000
0000
,
0100
0000
1100
0000
1000
0100
0010
0000
,
0001
0000
0101
0000
0100
0010
1000
0000
,
0100
0000
1100
0000
1000
0010
0100
0001
,
0010
0000
0011
0000
0001
0100
0010
1000
,
0100
0000
1100
0000
1000
0010
0100
0000
,
0001
0000
0101
0000
0100
0010
1000
0100
,
0010
0000
0011
0000
0010
0100
1000
0000
,
0001
0100
0110
0000
0010
1000
0010
0000
,
1000
0100
1100
0000
1000
0100
0010
0000
,
0001
0100
0101
0000
0100
0010
1000
0100
,
0010
0001
0010
0100
1000
1000
0001
0001
,
1000
0010
1010
0000
1000
0010
0100
0000
,
0001
0010
0011
0000
0010
0100
1000
0000
,
0001
1000
1001
0000
0001
0100
0010
0000
,
1000
0000
0000
0000
,
0010
0000
0010
0000
,
0010
0000
0000
0000
0010
0000
0010
1000
,
0100
0000
0100
0000
,
0100
0000
0010
0000
0001
0010
0100
0000
,
1000
0000
0000
0000
,
0000
0001
0010
0100
,
0000
0010
0000
0000
,
0000
0001
0010
0100
,
0100
0000
0000
0000
,
0000
0000
0010
0000
,
0001
0000
0000
0000
,
0000
0000
0010
0000
0001
0100
0010
0000
,
1000
0000
0000
0100
,
1000
0000
0010
0100
0000
0001
0100
0000
,
0010
0000
1000
0100
,
0010
0000
0001
0000
0010
0100
1000
0000
,
0001
0010
0001
1000
0000
0000
0001
1000
,
0100
1000
0000
0000
0001
0100
0010
0000
,
1000
0001
1000
0010
0000
0000
1000
0001
,
0100
0001
0000
0000
1000
0010
1000
0000
,
0001
0010
0100
1000
0000
0000
0001
0100
,
0001
0010
0000
0000
0001
1000
0010
0000
,
1000
0100
1000
0001
0000
0000
0100
0001
,
0010
0001
0000
0000
1000
0010
1000
0000
,
0001
0010
0100
1000
0000
0000
0001
0100
,
0010
1000
0000
0000
0010
1000
0100
0000
,
1000
0010
0100
0001
0000
0000
0010
0001
,
0100
0010
0000
0000
1000
0100
1000
0000
,
0010
0100
0001
1000
0000
0000
0001
0010
,
0100
1000
0000
0000
0100
1000
0010
0000
,
0100
0001
0010
0100
0000
0000
1000
0010
,
0100
0001
0000
0000
0010
0100
1000
0000
,
0001
0000
0000
0000
,
0100
0000
0000
0000
,
0010
0000
0000
0000
,
1000
0000
0000
0000
,
0100
0000
0000
0000
,
0010
0010
0010
0010
,
1000
1000
0001
0001
1000
1000
0001
0001
,
1000
1000
0001
0001
1000
0100
0010
0001
,
1000
1000
0001
0001
1000
1000
0001
0001
,
1000
1000
0001
0001
1000
0010
0100
0001
,
1000
1000
0001
0001
1000
1000
0001
0001
,
1000
1000
0001
0001
1000
0100
0010
0001
,
1000
1000
0001
0001
1000
1000
0001
0001
,
1000
1000
0001
0001
1000
0010
0100
0001
,
1000
0100
1000
0000
0001
0100
0001
0000
,
1000
0100
1000
0000
0001
0100
0001
0000
,
1000
0100
1000
0000
0001
0100
0001
0000
,
1000
0100
1000
0000
0001
0100
0001
0000
,
1000
0010
1000
0000
0001
0010
0001
0000
,
1000
0010
1000
0000
0001
0010
0001
0000
,
1000
0010
1000
0001
0010
0001
1000
0010
,
1000
0000
0001
0001
1000
0000
0001
0000
,
0001
0100
1000
0000
1000
0100
0001
0000
,
0001
0010
1000
0000
1000
0010
0001
0000
,
0001
0100
1000
0000
1000
0100
0001
0000
,
0001
0010
1000
0010
0001
0100
1000
0100
,
0001
1000
0100
0000
0100
0001
0100
0000
,
0100
1000
0010
0000
0010
0001
0010
0000
,
0010
1000
0100
0000
0100
0001
0100
1000
,
0010
0100
0001
0010
0100
1000
0001
0100
,
0010
0000
1000
0100
0010
0001
0100
0010
,
1000
0000
0010
1000
0100
0010
0001
0010
,
0100
0000
0010
0001
0100
0010
1000
0100
,
1000
0000
0010
0100
0001
1000
0100
0010
,
0001
0000
0010
0100
1000
0001
0100
0010
,
0100
0000
0001
0010
0100
1000
0001
0100
,
0010
0000
1000
0010
0100
0001
0010
0100
,
1000
0000
0001
0010
0100
0000
1000
0000
,
1001
0000
0000
0000
,
0100
0000
0010
0000
,
1000
0000
0001
0000
,
0100
0000
0000
0000
,
0010
0000
0000
0000
,
1000
0000
0100
0000
,
1000
0000
0001
0000
,
0010
0000
0000
0000
,
0001
0000
0000
0000
,
1000
0000
0010
0000
,
1000
0000
0001
0000
,
0100
0000
0000
0000
,
0001
0000
0000
0000
,
1000
0000
0010
0000
,
1000
0000
0100
0000
,
1000
0000
0000
0000
,
0000
0000
0000
0000
,
0000
0000
1000
1000
1000
0000
1000
0000
,
1000
1000
0001
0001
,
1000
1000
0001
0001
,
1000
1000
0001
0001
,
1000
0001
1000
0001
,
0100
0100
0010
0100
0100
0100
0010
0100
,
0100
0100
0010
0100
0100
0100
0010
0100
,
0010
0100
0010
0100
0010
0100
0010
0100
,
0001
0000
0100
0001
1000
0000
0001
0000
,
1000
0001
0100
1000
0100
0001
0010
1000
,
0010
0100
0001
0100
1000
0010
0100
1000
,
0100
0001
0010
0100
0001
0100
1000
0010
,
0100
1000
0100
0010
1000
0100
0010
0100
,
0001
0100
1000
0010
0100
1000
0100
0010
,
0100
0001
0010
0100
0001
0100
1000
0010
,
0100
1000
0100
0001
0010
0100
0001
0100
,
1000
0010
0100
1000
0100
0010
0100
0001
,
0010
0100
0010
1000
0010
0100
0010
0001
,
0100
1000
0100
0010
0100
0001
0010
0100
,
0010
1000
0010
0100
1000
0010
0100
1000
,
0100
0010
0100
0001
0010
0100
0001
0100
,
0010
0100
1000
0010
0100
1000
0100
0010
,
1000
0100
0001
0100
1000
0010
0100
1000
,
0100
0010
0100
0001
0010
0100
0001
0100
,
1000
0010
0100
0001
0010
0000
0100
0000
,
1001
0000
0000
0000
;
