#TITLE:Grazing Gazelle Under the Moon;
#SUBTITLE:;
#ARTIST:Sonitus Vir feat N. Sato;
#TITLETRANSLIT:;
#SUBTITLETRANSLIT:;
#ARTISTTRANSLIT:;
#CRChallenge:;
#BANNER:gazelle-banner.avi;
#BACKGROUND:gazelle-bg.png;
#LYRICSPATH:;
#CDTITLE:!cdtitle.png;
#MUSIC:gazelle.ogg;
#OFFSET:0.000;
#SAMPLESTART:51.934;
#SAMPLELENGTH:12.000;
#SELECTABLE:YES;
#BPMS:0.000=115.000;
#STOPS:;
#BGCHANGES:;
#NOTES:
     dance-single:
     Renard:
     Hard:
     10:
     0.660,0.941,0.146,0.898,0.679:
0000
0000
0000
0000
,
2000
0000
0000
3200
0000
0000
0320
0000
0032
0000
0000
0000
2003
0000
0000
0000
,
0000
3002
0203
0320
2030
0000
0000
0000
,
0000
3020
2030
3200
0320
0000
0032
0000
,
0000
2003
3002
0203
0320
0000
0000
0000
,
2030
0000
0000
3020
0000
0000
0230
0000
0302
0000
0000
0000
2003
0000
0000
0000
,
0000
3002
0023
0230
2300
0000
0000
0000
,
0000
3002
0203
0320
2030
0000
3002
0000
,
0000
2003
3200
0320
0032
2003
3200
0320
,
0032
0000
0000
0100
0000
0000
0013
0000
0001
0000
0000
0001
0010
0000
0001
0000
,
0200
0000
0000
0001
0000
0000
0310
0000
0100
0000
0000
0001
1000
0000
0001
0000
,
2000
0000
0000
0010
0000
0000
3100
0000
1000
0000
0000
0100
1000
0000
0001
0000
,
0200
0000
0000
0010
0000
0000
0301
0000
1000
0000
0010
0000
1001
0000
0000
0000
,
1000
0000
0000
0100
1000
0000
0001
0000
0100
0000
0000
0001
1000
0000
0001
0000
,
0010
0000
0000
0001
1000
0000
0010
0000
0100
0000
0000
0001
1000
0000
0001
0000
,
0010
0000
0000
0001
1000
0000
0001
0000
0100
0000
0000
0010
1000
0000
0001
0000
,
0010
0000
0000
0100
1000
0000
0001
0000
0010
0000
0100
1000
1100
0000
0000
0000
,
1000
0000
0100
0010
0001
0000
0010
0100
1000
0000
0000
0000
0001
0000
0000
0000
,
1000
0000
0000
0001
0000
0000
0100
0000
0010
0000
1000
0010
0000
0000
1000
0000
,
0001
0000
0100
0001
0000
0000
0100
0000
0010
0000
1000
0010
0000
0000
1000
0000
,
0100
0000
0100
1000
0000
0000
0002
0000
0100
0000
0000
0000
0013
0000
0000
0000
,
0001
0000
0010
0100
1000
0000
0001
0010
0100
0000
0000
0000
1000
0000
0000
0000
,
1000
0000
0000
0001
0000
0000
0100
0000
0001
0000
1000
0100
0000
0000
1000
0000
,
0001
0000
0001
0100
0000
0000
0001
0000
1000
0000
0100
0010
0000
0000
0001
0000
,
0010
0000
0010
0001
0000
0000
0010
0100
1000
0000
0000
0000
1001
0000
0000
0000
,
1000
0000
0000
1000
0001
0000
0100
0000
0001
0000
0000
0000
0011
0000
0000
0000
,
0001
0000
0000
1000
0001
0000
1000
0000
0100
0000
0000
0000
1100
0000
0000
0000
,
1000
0000
1000
0000
0001
0000
0100
0000
0001
0000
0000
0001
0010
0000
0000
0010
,
0100
0000
1000
0000
0001
0000
0100
0000
0010
0000
0000
0010
1000
0000
0100
0000
,
0010
0000
0000
0010
0001
0000
0100
0000
0001
0000
0000
0000
1001
0000
0000
0000
,
1000
0000
0000
0001
1000
0000
0100
0000
1000
0000
0000
0000
1001
0000
0000
0000
,
1000
0000
0001
0100
0001
0000
1000
0000
0100
0000
0000
0000
1100
0000
0000
0000
,
1000
0000
0001
0010
0001
0000
0010
0000
0100
0000
1000
0000
0001
0000
0100
0000
,
0001
0000
0000
0000
0000
0000
0000
0000
0000
0000
0000
0000
1000
0000
0000
0000
0100
0000
0000
0000
0010
0000
0000
0000
0001
0000
0000
0000
0000
0000
0000
0000
0000
0000
0000
0000
1001
0000
0000
0000
0000
0000
0001
0000
0000
0100
0000
0000
,
0001
0000
0000
0000
0000
0000
0000
0000
0000
0000
0000
0000
0000
0000
0000
0000
0000
0000
0000
0000
0000
0000
0000
0000
1000
0000
0000
0000
0000
0000
0000
0000
0000
0000
0000
0000
0000
0000
0000
0000
0000
0000
0000
0000
0000
0000
0000
0000
0100
0000
0000
0000
0000
0000
0000
0000
0000
0000
0000
0000
0000
0000
0000
0000
0000
0000
0010
0000
0000
0000
0000
0000
0000
0000
0000
0000
0000
0000
0000
0000
0000
0000
0000
0000
0001
0000
0000
0000
0000
0000
0000
0000
0000
0000
0000
0000
1000
0000
0000
0000
0000
0000
0000
0000
0000
0000
0000
0000
0000
0000
0000
0000
0000
0000
0000
0000
0000
0000
0000
0000
0100
0000
0000
0000
0000
0000
0000
0000
1000
0000
0000
0000
0000
0000
0000
0000
0100
0000
0000
0000
0000
0000
0000
0000
1000
0000
0000
0000
0000
0000
0000
0000
0000
0000
0000
0000
0000
0000
0000
0000
0000
0000
0000
0000
0000
0000
0000
0000
0100
0000
0000
0000
0000
0000
0000
0000
0000
0000
0000
0000
0000
0000
0000
0000
0000
0000
0000
0000
0000
0000
0000
0000
,
1000
0000
0001
0000
1000
0100
0010
0001
1000
0000
0000
0000
1001
0000
1000
0010
,
1000
0000
0000
0000
0000
0000
0000
0000
0000
0000
0000
0000
0000
0000
0000
0000
0000
0000
0000
0000
0000
0000
0000
0000
0001
0000
0000
0000
0000
0000
0000
0000
0000
0000
0000
0000
0000
0000
0000
0000
0000
0000
0000
0000
0000
0000
0000
0000
0010
0000
0000
0000
0000
0000
0000
0000
0000
0000
0000
0000
0000
0000
0000
0000
0000
0000
0100
0000
0000
0000
0000
0000
0000
0000
0000
0000
0000
0000
0000
0000
0000
0000
0000
0000
1000
0000
0000
0000
0000
0000
0000
0000
0000
0000
0000
0000
0001
0000
0000
0000
0000
0000
0000
0000
0000
0000
0000
0000
0000
0000
0000
0000
0000
0000
0000
0000
0000
0000
0000
0000
0001
0000
0000
0000
0000
0000
0000
0000
0100
0000
0000
0000
0000
0000
0000
0000
0010
0000
0000
0000
0000
0000
0000
0000
1000
0000
0000
0000
0000
0000
0000
0000
0000
0000
0000
0000
0000
0000
0000
0000
0000
0000
0000
0000
0000
0000
0000
0000
0001
0000
0000
0000
0000
0000
0000
0000
0000
0000
0000
0000
0000
0000
0000
0000
0000
0000
0000
0000
0000
0000
0000
0000
,
1000
0000
0000
0000
0000
0000
0000
0000
0000
0000
0000
0000
0001
0000
0000
0000
0010
0000
0000
0000
0100
0000
0000
0000
1000
0000
0000
0000
0000
0000
0000
0000
0000
0000
0000
0000
1001
0000
0000
0000
0000
0000
1000
0000
0000
0010
0000
0000
,
1000
0000
0000
0000
0000
0000
0000
0000
0000
0000
0000
0000
0000
0000
0000
0000
0000
0000
0000
0000
0000
0000
0000
0000
0001
0000
0000
0000
0000
0000
0000
0000
0000
0000
0000
0000
0000
0000
0000
0000
0000
0000
0000
0000
0000
0000
0000
0000
0010
0000
0000
0000
0000
0000
0000
0000
0000
0000
0000
0000
0000
0000
0000
0000
0000
0000
0100
0000
0000
0000
0000
0000
0000
0000
0000
0000
0000
0000
0000
0000
0000
0000
0000
0000
1000
0000
0000
0000
0000
0000
0000
0000
0000
0000
0000
0000
0001
0000
0000
0000
0000
0000
0000
0000
0000
0000
0000
0000
0000
0000
0000
0000
0000
0000
0000
0000
0000
0000
0000
0000
0010
0000
0000
0000
0000
0000
0000
0000
0001
0000
0000
0000
0000
0000
0000
0000
0010
0000
0000
0000
0000
0000
0000
0000
0001
0000
0000
0000
0000
0000
0000
0000
0000
0000
0000
0000
0000
0000
0000
0000
0000
0000
0000
0000
0000
0000
0000
0000
0010
0000
0000
0000
0000
0000
0000
0000
0000
0000
0000
0000
0000
0000
0000
0000
0000
0000
0000
0000
0000
0000
0000
0000
,
0001
0000
1000
0000
0001
0010
0100
1000
0001
0000
0000
0000
1001
0000
0001
0100
,
0001
0000
0000
0000
1000
0000
0000
0000
0100
0000
0000
0010
0000
0000
0001
0000
1000
0000
0000
0000
0000
0000
0000
0000
1110
0000
0000
0000
0000
0000
0000
0000
,
0000
2000
0000
0000
0000
0000
0000
0000
0000
0000
0000
0000
0000
0000
0000
0000
0000
3002
0000
0000
0000
0023
0000
0000
0000
0230
0000
0000
0000
2300
0000
0000
0000
3002
0000
0000
0000
0000
0000
0000
0000
0000
0000
0000
0000
0000
0000
0000
0000
0000
0000
0000
0000
0000
0000
0000
0000
2003
0000
0000
0000
0000
0000
0000
,
0000
0000
0000
0000
0000
0000
0000
0000
0000
3002
0000
0000
0000
0000
0000
0000
0000
0203
0000
0000
0000
0320
0000
0000
0000
2030
0000
0000
0000
3002
0000
0000
0000
2003
0000
0000
0000
0000
0000
0000
0000
3002
0000
0000
0000
0000
0000
0000
0000
0023
0000
0000
0000
0230
0000
0000
0000
2300
0000
0000
0000
3002
0000
0000
,
0000
0000
0000
0000
0000
0000
0000
0000
0000
2003
0000
0000
0000
0000
0000
0000
0000
3002
0000
0000
0000
0023
0000
0000
0000
0230
0000
0000
0000
2300
0000
0000
0000
3002
0000
0000
0000
0000
0000
0000
0000
0000
0000
0000
0000
0000
0000
0000
0000
0000
0000
0000
0000
0000
0000
0000
0000
2003
0000
0000
0000
0000
0000
0000
,
0000
0000
0000
3020
0000
0000
0000
0000
0000
0000
0000
0000
0000
0000
0000
0000
0000
0000
0000
0230
0000
0000
0000
0000
0000
0000
0000
0000
0000
0000
0000
0000
0000
0000
0000
0302
0000
0000
0000
0000
0000
0000
0000
0000
0000
0000
0000
0000
0000
0000
0000
2003
0000
0000
0000
0000
0000
0000
0000
0000
0000
0000
0000
0000
0000
0000
0000
3020
0000
0000
0000
0000
0000
0000
0000
0000
0000
0000
0000
0000
0000
0000
0000
0230
0000
0000
0000
0000
0000
0000
0000
0000
0000
0000
0000
0000
0000
0000
0000
0302
0000
0000
0000
0000
0000
0000
0000
0000
0000
0000
0000
0000
0000
0000
0000
0000
0000
0000
0000
0000
0000
0000
0000
0000
0000
0000
0000
0000
0000
0000
0000
0000
0000
0000
0000
0000
0000
0000
0000
0000
0000
0000
0000
0000
0000
0000
0000
0203
0000
0000
0000
0000
0000
0000
0000
0000
0000
0000
0000
0000
0000
0000
0000
0000
0000
0000
0000
0000
0000
0000
0000
0302
0000
0000
0000
0000
0000
0000
0000
0000
0000
0000
0000
2003
0000
0000
0000
0000
0000
0000
0000
0000
,
0000
0000
0000
3002
0000
0000
0000
0000
0000
0000
0000
0000
0000
0000
0000
0000
0000
0000
0000
0023
0000
0000
0000
0000
0000
0000
0000
0000
0000
0000
0000
0000
0000
0000
0000
0230
0000
0000
0000
0000
0000
0000
0000
0000
0000
0000
0000
0000
0000
0000
0000
2300
0000
0000
0000
0000
0000
0000
0000
0000
0000
0000
0000
0000
0000
0000
0000
3002
0000
0000
0000
0000
0000
0000
0000
0000
0000
0000
0000
0000
0000
0000
0000
0023
0000
0000
0000
0000
0000
0000
0000
0000
0000
0000
0000
0000
0000
0000
0000
0230
0000
0000
0000
0000
0000
0000
0000
0000
0000
0000
0000
0000
0000
0000
0000
0000
0000
0000
0000
0000
0000
0000
0000
2300
0000
0000
0000
0000
0000
0000
0000
0000
0000
0000
0000
3200
0000
0000
0000
0000
0000
0000
0000
0000
0000
0000
0000
0000
0000
0000
0000
0000
0000
0000
0000
0000
0000
0000
0000
0320
0000
0000
0000
0000
0000
0000
0000
0000
0000
0000
0000
0000
0000
0000
0000
0000
0000
0000
0000
0000
0000
0000
0000
0032
0000
0000
0000
0000
0000
0000
0000
0000
,
0000
0000
0000
0000
0000
0000
0000
0000
0000
0023
0000
0000
0000
0000
0000
0000
0000
0230
0000
0000
0000
2300
0000
0000
0000
3002
0000
0000
0000
0023
0000
0000
0000
0000
0000
0000
0000
0230
0000
0000
0000
0000
0000
0000
0000
2300
0000
0000
0000
0000
0000
0000
0000
3020
0000
0000
0000
0000
0000
0000
0000
0230
0000
0000
,
0000
0000
0000
0000
0000
0000
0000
0000
0000
0302
0000
0000
0000
0000
0000
0000
0000
0203
0000
0000
0000
0320
0000
0000
0000
2030
0000
0000
0000
3002
0000
0000
0000
0000
0000
0000
0000
0023
0000
0000
0000
0000
0000
0000
0000
0230
0000
0000
0000
0000
0000
0000
0000
2300
0000
0000
0000
0000
0000
0000
0000
3002
0000
0000
,
0000
0000
0000
0000
0000
0203
0000
0000
0000
0000
0000
0000
0000
0320
0000
0000
0000
0000
0000
0000
0000
2030
0000
0000
0000
3001
0000
0000
0000
0010
0000
0000
0000
0100
0000
0000
0000
1000
0000
0000
0000
0001
0000
1000
0000
0001
0000
1000
0000
0000
0000
0000
0000
0000
0000
0000
0000
0000
0000
0000
0000
0000
0000
0000
,
0010
0000
0000
0000
0000
0000
0000
0000
0000
0000
0000
0000
0100
0000
0000
0000
0001
0000
0000
0000
1000
0000
0000
0000
0010
0000
0000
0000
0000
0000
0000
0000
0000
0000
0000
0000
0110
0000
0000
0000
0000
0000
0010
0000
0000
0001
0000
0000
,
0010
0000
0000
0000
0000
0000
0000
0000
0000
0000
0000
0000
0000
0000
0000
0000
0000
0000
0000
0000
0000
0000
0000
0000
0100
0000
0000
0000
0000
0000
0000
0000
0000
0000
0000
0000
0000
0000
0000
0000
0000
0000
0000
0000
0000
0000
0000
0000
0001
0000
0000
0000
0000
0000
0000
0000
0000
0000
0000
0000
0000
0000
0000
0000
0000
0000
1000
0000
0000
0000
0000
0000
0000
0000
0000
0000
0000
0000
0000
0000
0000
0000
0000
0000
0010
0000
0000
0000
0000
0000
0000
0000
0000
0000
0000
0000
0100
0000
0000
0000
0000
0000
0000
0000
0000
0000
0000
0000
0000
0000
0000
0000
0000
0000
0000
0000
0000
0000
0000
0000
0001
0000
0000
0000
0000
0000
0000
0000
0100
0000
0000
0000
0000
0000
0000
0000
0001
0000
0000
0000
0000
0000
0000
0000
0100
0000
0000
0000
0000
0000
0000
0000
0000
0000
0000
0000
0000
0000
0000
0000
0000
0000
0000
0000
0000
0000
0000
0000
0001
0000
0000
0000
0000
0000
0000
0000
0000
0000
0000
0000
0000
0000
0000
0000
0000
0000
0000
0000
0000
0000
0000
0000
,
0100
0000
0010
0000
0100
0001
1000
0010
0100
0000
0000
0000
0110
0000
0100
1000
,
0100
0000
0000
0000
0000
0000
0000
0000
0000
0000
0000
0000
0000
0000
0000
0000
0000
0000
0000
0000
0000
0000
0000
0000
0010
0000
0000
0000
0000
0000
0000
0000
0000
0000
0000
0000
0000
0000
0000
0000
0000
0000
0000
0000
0000
0000
0000
0000
1000
0000
0000
0000
0000
0000
0000
0000
0000
0000
0000
0000
0000
0000
0000
0000
0000
0000
0001
0000
0000
0000
0000
0000
0000
0000
0000
0000
0000
0000
0000
0000
0000
0000
0000
0000
0100
0000
0000
0000
0000
0000
0000
0000
0000
0000
0000
0000
0010
0000
0000
0000
0000
0000
0000
0000
0000
0000
0000
0000
0000
0000
0000
0000
0000
0000
0000
0000
0000
0000
0000
0000
1000
0000
0000
0000
0000
0000
0000
0000
0001
0000
0000
0000
0000
0000
0000
0000
1000
0000
0000
0000
0000
0000
0000
0000
0001
0000
0000
0000
0000
0000
0000
0000
0000
0000
0000
0000
0000
0000
0000
0000
0000
0000
0000
0000
0000
0000
0000
0000
0010
0000
0000
0000
0000
0000
0000
0000
0000
0000
0000
0000
0000
0000
0000
0000
0000
0000
0000
0000
0000
0000
0000
0000
,
0100
0000
0000
0000
0000
0000
0000
0000
0000
0000
0000
0000
1000
0000
0000
0000
0100
0000
0000
0000
0010
0000
0000
0000
0001
0000
0000
0000
0000
0000
0000
0000
0000
0000
0000
0000
1001
0000
0000
0000
0000
0000
0001
0000
0000
0100
0000
0000
,
0001
0000
0000
0000
0000
0000
0000
0000
0000
0000
0000
0000
0000
0000
0000
0000
0000
0000
0000
0000
0000
0000
0000
0000
1000
0000
0000
0000
0000
0000
0000
0000
0000
0000
0000
0000
0000
0000
0000
0000
0000
0000
0000
0000
0000
0000
0000
0000
0100
0000
0000
0000
0000
0000
0000
0000
0000
0000
0000
0000
0000
0000
0000
0000
0000
0000
0010
0000
0000
0000
0000
0000
0000
0000
0000
0000
0000
0000
0000
0000
0000
0000
0000
0000
0001
0000
0000
0000
0000
0000
0000
0000
0000
0000
0000
0000
1000
0000
0000
0000
0000
0000
0000
0000
0000
0000
0000
0000
0000
0000
0000
0000
0000
0000
0000
0000
0000
0000
0000
0000
0100
0000
0000
0000
0000
0000
0000
0000
1000
0000
0000
0000
0000
0000
0000
0000
0100
0000
0000
0000
0000
0000
0000
0000
1000
0000
0000
0000
0000
0000
0000
0000
0000
0000
0000
0000
0000
0000
0000
0000
0000
0000
0000
0000
0000
0000
0000
0000
0100
0000
0000
0000
0000
0000
0000
0000
0000
0000
0000
0000
0000
0000
0000
0000
0000
0000
0000
0000
0000
0000
0000
0000
,
1000
0000
0001
0000
1000
0100
0010
0001
1000
0000
0000
0000
1001
0000
1000
0010
,
1000
0000
0000
0000
0001
0000
0000
0000
0010
0000
0000
0100
0000
0000
1000
0000
0001
0000
0000
0000
0000
0000
0000
0000
1011
0000
0000
0000
0000
0000
0000
0000
;
#NOTES:
     dance-single:
     Renard:
     Medium:
     7:
     0.398,0.367,0.138,0.000,0.081:
0000
0000
0000
0000
,
1000
0000
0000
1000
0000
0000
0100
0000
0010
0000
0000
0000
0010
0000
0000
0000
,
0000
0001
0010
0100
1000
0000
0000
0000
,
0000
0010
1000
0001
0100
0000
0001
0000
,
0000
1000
0100
0010
0001
0000
0000
0000
,
0001
0000
0000
0001
0000
0000
0010
0000
0100
0000
0000
0000
0100
0000
0000
0000
,
0000
1000
0010
0100
0001
0000
0000
0000
,
0000
0001
0100
0010
1000
0000
0010
0000
,
0000
1000
0010
0100
0001
1000
0100
0010
,
0001
0000
0001
0000
0001
0010
0100
0000
,
1000
0000
1000
0000
1000
0000
1000
0010
,
0100
0000
0100
0010
1000
0000
1000
0001
,
0100
0000
0100
0001
0010
0100
1001
0000
,
1000
0000
0100
0010
0001
1000
0000
0001
,
0100
0010
1000
0001
0010
0100
1000
0001
,
0100
0000
0010
1000
0100
0010
0001
0010
,
0001
1000
0010
0100
0001
0000
1001
0000
,
0000
1000
0100
0010
0001
0000
1000
0000
,
0001
0000
0000
0100
0000
0000
0010
0000
1000
0000
0010
1000
0000
0000
0000
0000
,
0001
0000
0001
0100
0000
0000
0010
0000
1000
0000
0000
0000
0100
0000
0000
0000
,
1000
0000
1000
0100
0000
0000
0010
0000
0001
0000
0000
0000
1001
0000
0000
0000
,
0001
0100
0010
1000
0010
0000
1000
0000
,
0010
0000
0000
0100
0000
0000
0001
0000
1000
0000
0100
0010
0000
0000
0000
0000
,
0001
0000
0001
0010
0000
0000
0100
0000
1000
0000
0010
0000
0100
0000
0000
0000
,
0001
0000
0001
0100
0000
0000
0010
0000
1000
0000
0000
0000
1001
0000
0000
0000
,
1000
0000
0000
1000
0000
0000
0100
0000
0010
0000
0000
0000
0011
0000
0000
0000
,
0000
0010
0100
1000
0001
0000
0101
0000
,
0000
0001
1000
0100
0010
0000
0011
0000
,
0000
0001
1000
0010
1000
0000
1010
0000
,
0100
0000
0000
0100
0000
0000
0001
0000
0010
0000
0000
0000
0011
0000
0000
0000
,
0000
0010
0100
1000
0001
0000
0101
0000
,
0000
0001
1000
0100
0010
0000
0001
0000
,
0000
1000
0010
0100
0010
0000
1010
0000
,
1000
0000
0000
0000
0000
0000
0001
0000
0100
0000
0001
0000
0100
0000
0000
0000
0000
0000
0001
0000
0000
0010
0000
0000
,
0000
0001
0010
0000
0100
1000
0001
0100
,
0000
0010
1000
0010
0100
0000
0110
0010
,
0000
1000
0100
0010
0001
0010
0100
1000
,
0001
0000
0000
0000
0000
0000
1000
0000
0010
0000
1000
0000
0010
0000
0000
0000
0000
0000
1000
0000
0000
0100
0000
0000
,
0000
1000
0100
0000
0010
0001
1000
0010
,
0000
0100
0001
0100
0010
0000
0110
0100
,
0000
0001
0010
0100
1000
0100
0010
0000
,
0001
0000
0010
0001
0100
0000
0000
0001
,
0000
1000
0100
0010
0001
0100
0010
1000
,
0010
0000
1000
0010
0100
0000
0000
0010
,
1000
1000
0100
0100
0010
0000
0000
0001
,
0010
0010
0001
0001
1000
0000
0100
1000
,
0010
1000
0010
0100
0001
0010
0001
1000
,
0100
0000
1000
0001
0010
0000
0001
1000
,
0010
0000
0100
0001
1000
0000
1100
0000
,
1000
0000
0000
0000
0000
0000
0001
0000
0100
0000
0001
0000
0100
0000
0000
0000
0000
0000
0001
0000
0000
0010
0000
0000
,
0000
0001
0010
0000
0100
1000
0001
0100
,
0000
0010
1000
0010
0100
0000
0110
0010
,
0000
1000
0100
0010
0001
0010
0100
1000
,
0001
0000
0000
0000
0000
0000
1000
0000
0010
0000
1000
0000
0010
0000
0000
0000
0000
0000
1000
0000
0000
0100
0000
0000
,
0000
1000
0100
0000
0010
0001
1000
0010
,
0000
0100
0001
0100
0010
0000
0110
0100
,
0000
0001
0010
0100
1000
0000
1011
0000
;
#NOTES:
     dance-single:
     Renard:
     Challenge:
     11:
     0.781,0.712,0.453,0.065,0.841:
0000
0000
0000
0000
,
1000
0000
0000
1000
0100
0000
0010
0000
0001
0000
0000
0001
0010
0000
0100
0000
,
1000
0000
0000
1000
0100
0000
0010
0000
0001
0000
0000
0001
0010
0000
0100
0000
,
1000
0000
0000
1000
0100
0000
0010
0000
0001
0000
0000
0001
0010
0000
0100
0000
,
1000
0000
0000
1000
0100
0000
0010
0000
0001
0000
0000
0001
0010
0000
0100
0000
,
1000
0000
0000
1000
0010
0000
0100
0000
0001
0000
0000
0001
0100
0000
0010
0000
,
1000
0000
0000
1000
0010
0000
0100
0000
0001
0000
0000
0001
0100
0000
0010
0000
,
1000
0000
0000
1000
0010
0000
0100
0000
0001
0000
0000
0001
0100
0000
0010
0000
,
1000
0100
0010
0001
0010
0100
1000
0000
,
0001
0100
1000
0100
0001
0100
1000
0100
0001
0000
0000
0000
0101
0000
0000
0000
,
0001
0010
1000
0010
0001
0010
1000
0010
0001
0000
0000
0000
0011
0000
0000
0000
,
1000
0100
0001
0100
1000
0100
0001
0100
1000
0000
0000
0000
1100
0000
0000
0000
,
1000
0010
0001
0010
1000
0000
0010
0000
0001
0000
0010
0000
1011
0000
0000
0000
,
1010
0000
0000
0010
1000
0000
0100
0000
0110
0000
0000
0010
0001
0000
0100
0000
,
0110
0000
0000
0010
1000
0000
0100
0000
0010
0000
0011
0000
0010
0000
0110
0000
,
1100
0000
0000
1000
0010
0000
0100
0000
0101
0000
0000
0100
0010
0000
0010
0000
,
1010
0000
0000
1000
0100
0000
0100
0000
0110
0000
0011
0000
1011
0000
0000
0000
,
1000
0000
0001
0100
0010
1000
0100
0010
0001
0000
0000
0000
0011
0000
0000
0000
,
0010
0100
1000
0001
0100
0000
0010
1000
0100
0000
0010
0001
0010
0000
0100
0000
,
1011
0000
0000
1011
0000
0000
0000
0000
1000
0100
0010
0001
0010
0000
0000
0000
,
1011
0000
0000
1011
0000
0000
0001
0010
0100
1000
0001
0100
0010
0000
0000
0000
,
0101
0000
0100
0010
1000
0100
0010
0000
0110
0000
0010
0100
1000
0000
0010
0000
,
0110
0000
0100
0001
0100
0000
0110
0000
0100
0001
0100
0000
0110
0000
0000
0000
,
1011
0000
0000
1011
0000
0000
1000
0100
0010
0001
0010
0100
1000
0000
0000
0000
,
1011
0000
0000
1011
0000
0000
0001
0010
0100
1000
0100
0010
0001
0000
0000
0000
,
1011
0000
0000
0010
0100
0000
0001
0000
1011
0000
0000
0010
0100
0000
0001
0000
,
0101
0100
1100
0110
0202
0000
0313
0000
,
1011
0000
0000
0100
0010
0000
1000
0000
1011
0000
0000
0100
0010
0000
1000
0000
,
1100
0100
0110
0011
2200
0000
3310
0000
,
1011
0000
0000
0010
0100
0000
0001
0000
1011
0000
0000
0010
0100
0000
0001
0000
,
0101
0100
1100
0110
0202
0000
0313
0000
,
1011
0000
0000
0100
0010
0000
1000
0000
1011
0000
0000
0100
0010
0000
1000
0000
,
1100
0100
0110
0011
2200
0000
3310
0000
,
001M
1000
010M
1000
001M
0100
001M
1000
010M
0010
010M
1000
001M
0000
010M
0000
,
M001
0010
M100
0010
M001
0100
M010
0100
M001
0010
M100
0010
M001
0000
M100
0000
,
001M
1000
010M
0010
010M
1000
001M
0100
001M
1000
010M
0010
010M
0000
100M
0000
,
M001
0100
M010
0100
M001
0010
M100
0010
M001
0100
M010
0100
M001
0000
M100
0000
,
00M1
0100
10M0
0100
00M1
1000
01M0
0001
01M0
1000
00M1
0100
10M0
0000
01M0
0000
,
0M01
0010
1M00
0010
0M01
1000
0M10
0001
0M10
1000
0M01
0010
1M00
0000
0M10
0000
,
00M1
0100
10M0
0100
00M1
1000
01M0
0001
01M0
1000
00M1
0100
10M0
0000
01M0
0000
,
0M01
0010
1M00
0010
0M01
1000
0M10
0001
0M10
1000
0M01
0000
1M11
0000
0000
0000
,
0001
1000
0100
1000
0001
1000
0010
1000
0001
1000
0100
1000
0010
1000
0001
0000
,
0001
1000
0001
0100
0001
0010
0001
1000
0001
0100
0001
0010
0001
1000
0001
0000
,
0001
0010
0100
0010
1000
0010
0100
0010
0001
0010
1000
0010
0100
0010
0001
0000
,
0010
0001
0010
0100
0010
1000
0010
0100
0010
0001
0010
0100
0010
0001
0010
0000
,
0001
1000
0010
1000
0100
0000
1000
0000
0001
1000
0001
0100
0001
0000
0010
0000
,
0001
1000
0010
1000
0100
0000
1000
0000
1000
0001
0100
0001
0010
0000
0001
0000
,
1000
0010
0100
0001
0100
0010
0100
0000
0010
1000
0010
0001
0010
0000
0100
0000
,
0001
0010
0100
1000
0001
0010
0100
1000
0001
0000
0000
0000
1011
0000
0000
0000
,
001M
1000
010M
1000
001M
0100
001M
1000
010M
0010
010M
1000
001M
0000
010M
0000
,
M001
0010
M100
0010
M001
0100
M010
0100
M001
0010
M100
0010
M001
0000
M100
0000
,
001M
1000
010M
0010
010M
1000
001M
0100
001M
1000
010M
0010
010M
0000
100M
0000
,
M001
0100
M010
0100
M001
0010
M100
0010
M001
0100
M010
0100
M001
0000
M100
0000
,
00M1
0100
10M0
0100
00M1
1000
01M0
0001
01M0
1000
00M1
0100
10M0
0000
01M0
0000
,
0M01
0010
1M00
0010
0M01
1000
0M10
0001
0M10
1000
0M01
0010
1M00
0000
0M10
0000
,
00M1
0100
10M0
0100
00M1
1000
01M0
0001
01M0
1000
00M1
0100
10M0
0000
01M0
0000
,
0M01
0010
1M00
0010
0M01
1000
0M10
0001
0M10
1000
0M01
0000
1M11
0000
0000
0000
;
#NOTES:
     dance-single:
     Renard:
     Easy:
     5:
     0.313,0.298,0.040,0.194,0.000:
0000
0000
0000
0000
,
2000
0100
0010
3001
,
0000
0000
0001
1000
0100
0000
0000
0000
,
0002
1000
0100
0013
,
0000
0000
0001
1000
0100
0000
0000
0000
,
2000
0100
0010
3001
,
0000
0000
1000
0001
0100
0000
0000
0000
,
0002
1000
0100
0013
,
0000
0000
0001
1000
0100
0000
1000
0000
,
0002
0000
0000
0203
,
0320
0000
2030
3200
,
0320
0000
0000
0000
,
0031
0000
0001
0000
1000
0100
1100
0000
,
1000
0000
1001
0000
0001
0100
0000
0010
,
0000
1000
0100
0010
0001
0000
0001
0000
,
1000
0000
0010
1000
0001
1000
0100
1000
,
0001
1000
0010
1000
0001
0000
1001
0000
,
0000
0001
0100
0000
0010
0000
0010
0000
,
1000
0000
1000
0010
0100
0001
1000
0000
,
0001
0000
0001
0000
1000
0100
1000
0000
,
0001
0000
0001
0000
1000
0100
1000
0000
,
0001
0010
0001
0010
,
0100
0000
0100
0000
1000
0010
1000
0000
,
0001
0001
0100
0100
,
0001
0000
0001
0000
1000
0100
1000
0000
,
0001
0000
0010
0100
0010
0000
0001
0000
,
0000
0000
1000
0010
1000
0000
0000
0000
,
0010
0100
0001
1000
,
0000
0100
1000
0001
1000
0000
0010
0000
,
1000
0000
0001
0100
0001
0000
0010
0000
,
0000
0001
0100
0010
1000
0000
0000
0000
,
0000
0010
1000
0001
1000
0000
0100
0000
,
0000
1000
0001
0100
0001
0000
0000
0000
,
2000
0000
0100
0000
3001
0000
0000
1000
,
0000
0100
1000
0001
0100
0000
0001
0000
,
2000
0000
0001
0000
3010
0000
0000
1000
,
0000
0010
1000
0000
0001
0100
0001
1000
,
0000
0000
0001
0000
0020
0000
0030
0001
,
0000
1000
0010
0100
0001
0000
1000
0000
,
0000
0000
0010
0000
0200
0000
0000
0300
,
0001
0000
1000
0000
0100
1000
0001
0000
,
2000
0000
3001
0000
0200
0000
0000
0310
,
0000
0000
0010
1000
0010
0000
0100
0000
,
0002
0000
1003
0100
0010
0000
0000
0001
,
1000
0000
1000
0000
0010
0000
0000
0100
,
0001
1000
0100
1000
,
0001
0000
0001
0100
0010
1000
0001
1000
,
0100
0100
1000
0001
,
0100
0001
1000
1100
,
2000
0000
0100
0000
3001
0000
0000
1000
,
0000
0100
1000
0000
0001
0000
0010
0000
,
0000
0001
1000
0010
0200
0000
0000
0301
,
0000
1000
0200
0000
1300
0000
0010
0100
,
0000
0000
0001
1000
0200
0000
0000
1300
,
0000
0010
0200
0000
0301
0000
1000
0100
,
0000
1000
0002
0000
0203
0000
0300
0001
,
0000
1000
0100
0010
0001
0000
1001
0000
;
#NOTES:
     dance-single:
     Renard:
     Beginner:
     2:
     0.203,0.184,0.049,0.121,0.000:
0000
0000
0000
0000
,
1000
1000
0001
0001
,
0000
0100
0020
0000
,
0030
1000
0001
1000
,
0000
0010
0200
0000
,
0310
0010
1000
1000
,
0000
0001
0200
0000
,
0300
0001
1000
0100
,
0000
1000
0001
0100
,
0020
0000
0000
1030
,
0200
0000
0310
0002
,
2003
0000
0000
0000
,
0000
0000
3010
1010
,
0000
1000
0010
1000
,
0000
0001
0100
0001
,
0000
1000
0100
1000
,
0000
0001
0010
0001
,
0000
1000
1000
0001
,
0100
0000
0010
0000
,
1010
0000
0000
0000
,
0101
0000
0000
0000
,
0001
1000
0100
0100
,
1000
0001
0010
0010
,
0011
0000
0000
0000
,
1100
0000
0000
0000
,
2000
0000
3001
0100
,
0000
0010
2000
0000
,
3001
0010
0001
1000
,
0000
0100
2000
0000
,
3001
0000
0100
0010
,
0000
1000
0010
0000
,
1000
0001
0100
0001
,
0000
1000
0001
0000
,
2000
0000
3001
0000
,
0100
0010
1000
0001
,
0020
0000
0130
0000
,
1000
0001
0100
0000
,
0010
0000
1000
0000
,
0001
0100
0001
1000
,
0100
0000
0010
0000
,
0001
1000
0020
0130
,
0010
0000
1000
0000
,
0010
0100
0001
0000
,
1000
0000
0001
0000
,
0100
0000
0010
1000
,
0001
0001
0100
0100
,
0010
0010
1000
0000
,
0010
0010
1000
0000
,
0100
0000
1000
1001
,
2000
0000
3001
0000
,
0100
0001
1000
0100
,
0100
1000
0001
0000
,
0100
0001
1000
0100
,
1000
0001
0100
0000
,
0001
0010
0001
1000
,
0010
1000
0001
0000
,
0100
0001
2000
3001
;
