#TITLE:Granite;
#SUBTITLE:;
#ARTIST:Pendulum;
#TITLETRANSLIT:;
#SUBTITLETRANSLIT:;
#ARTISTTRANSLIT:;
#CRChallenge:;
#BANNER:granite.png;
#BACKGROUND:Granite-bg.png;
#LYRICSPATH:;
#CDTITLE:!cdtitle.png;
#MUSIC:granite.ogg;
#OFFSET:0.000;
#SAMPLESTART:35.337;
#SAMPLELENGTH:12.000;
#SELECTABLE:YES;
#BPMS:0.000=87.000,36.000=174.000,196.000=87.000,228.000=174.000;
#STOPS:;
#BGCHANGES:;
#NOTES:
     dance-single:
     Renard:
     Medium:
     8:
     0.630,0.807,0.506,0.177,0.299:
0000
0000
0000
0000
,
2100
0002
3013
0000
0202
0000
1313
0000
,
0102
0000
2000
0000
3013
0000
0000
0000
1000
0100
0010
0001
1000
0000
1000
0000
,
0102
0000
2000
0000
3013
0000
0000
0000
2200
0000
0000
0000
3311
0000
0100
0010
,
0002
0000
2000
0000
3013
0000
0000
0000
0001
0010
0100
1000
0001
0000
0001
0000
,
1000
0000
0100
0010
0001
0010
0100
1000
0100
0000
1000
0100
0010
0001
0010
0100
,
1000
0000
0100
1000
0100
0010
0001
0010
0100
0000
1000
0100
0010
0001
0010
0100
,
1000
0000
0100
1000
0100
0010
0001
0010
0100
0000
1000
0100
0010
0001
0010
0100
,
1000
0100
0010
0001
0010
0100
1000
0001
0010
0100
1000
0100
0010
0000
0011
0000
,
0010
0011
1000
1100
,
1000
0100
0010
0001
1000
0000
1001
0000
,
0001
0011
1000
1100
,
1000
0001
0010
0100
1000
0000
1001
0000
,
1000
1010
0100
0101
,
0001
0100
0010
1000
0100
0000
1100
0000
,
1000
1100
0010
0011
,
0001
0010
0100
1000
0001
0000
1001
0000
,
0001
0000
0001
0100
0000
0100
0010
1000
,
0100
0000
0100
0010
0000
0010
0001
0010
,
0100
0000
0100
1000
0010
0000
0010
0100
,
0001
0000
0001
0010
0100
0000
0100
1000
,
0010
0000
0010
0100
0000
0100
0001
0010
,
0100
0000
0100
1000
0000
1000
0010
0100
,
0001
0000
0001
0010
0100
0000
0100
1000
,
0010
0000
0010
0100
0001
0000
0001
1000
,
0001
0100
0001
0100
0010
0100
0010
0100
,
0010
1000
0010
1000
0100
1000
0100
1000
,
0001
0010
0001
0010
0100
1000
0100
1000
,
0001
0100
0001
0100
0010
1000
0010
1000
,
0001
0100
0001
0100
0001
0010
0001
0010
,
0100
1000
0100
1000
0010
1000
0010
1000
,
0001
0100
0010
1000
0100
0010
0001
0010
,
0100
1000
0001
0100
0010
0000
1001
0000
,
0001
0100
0010
0000
1000
0000
1010
0000
,
0010
0100
0001
0010
0100
0000
0110
0000
,
0010
0001
0100
0000
0010
0000
1010
0000
,
1000
0100
0010
0001
1000
0000
1001
0000
,
0001
0100
0010
0000
0010
1000
0100
0000
,
0100
1000
0010
0000
0010
0100
0001
0000
,
0010
0100
1000
0100
0010
0001
0010
0100
,
1000
0000
0001
0010
0100
2000
0002
0000
,
3013
0101
1010
0101
,
0001
0100
0010
1000
0100
0000
0110
0000
,
0000
0011
1100
0011
,
0001
0010
0100
1000
0100
0000
0010
0000
,
0001
0101
1010
0101
,
0001
0100
0010
1000
0200
0000
0310
0000
,
0001
0011
1100
0011
,
0010
0100
1000
0001
0010
0000
0011
0000
,
0001
0010
0000
0011
0000
0000
1000
0100
0000
1100
0000
0000
1000
0100
0010
0001
,
0010
0100
0000
0110
0000
0000
0010
0001
0000
0011
0000
0000
0001
0010
0100
1000
,
0100
0010
0000
0110
0000
0000
0100
1000
0000
1100
0000
1000
0100
0010
0001
1000
,
0100
1000
0000
1100
0000
0000
1000
0100
0000
1100
0000
0100
1000
0001
0010
0100
,
1000
0000
1000
0000
0001
0000
0100
0020
0000
0000
1000
0000
0100
0000
0001
0000
,
0130
0000
0001
0000
0010
0000
0200
1000
0000
0000
0010
0000
0001
0000
0310
0100
,
0000
1000
0000
0010
0000
0100
0000
0001
0000
0010
0000
0100
0000
1000
0000
0020
,
0000
0230
0000
0001
0000
0010
0010
0000
0300
0001
0010
0100
1000
0000
1001
0000
,
0101
0000
0001
0100
0010
0000
1010
0000
,
1000
1100
0010
0011
,
1100
0000
0100
0010
0001
0000
1000
0000
,
0100
1001
0100
1001
,
0010
0000
1001
0000
0001
0100
0010
1000
,
0100
0000
1001
0000
0010
0001
1000
0010
,
0100
1001
0010
1001
,
0001
0100
0010
1000
0100
0010
0001
0010
,
2200
0000
0000
0000
,
3300
0000
0000
0000
;
#NOTES:
     dance-single:
     Renard:
     Hard:
     9:
     0.658,0.807,0.489,0.194,0.346:
0000
0000
0000
0000
,
2100
0002
3013
0000
0202
0000
1313
0000
,
0102
0000
2000
0000
3013
0000
0000
0000
1000
0100
0010
0001
1000
0000
1000
0000
,
0102
0000
2000
0000
3013
0000
0000
0000
2200
0000
0000
0000
3311
0000
0100
0010
,
0002
0000
2000
0000
3013
0000
0000
0000
0001
0010
0100
1000
0001
0000
0001
0000
,
1000
0000
0100
0010
0001
0010
0100
1000
0100
0000
1000
0100
0010
0001
0010
0100
,
1000
0000
0100
1000
0100
0010
0001
0010
0100
0000
1000
0100
0010
0001
0010
0100
,
1000
0000
0100
1000
0100
0010
0001
0010
0100
0000
1000
0100
0010
0001
0010
0100
,
1000
0000
0100
0000
0010
0000
0001
0000
0010
0000
0100
0000
1000
0000
0000
0000
0001
1000
0001
1000
0001
1000
0001
1000
0001
1000
0001
0000
0011
0000
0000
0000
,
0010
0000
0011
0100
1000
0000
1100
0000
,
1000
0100
0010
0001
1000
0000
1001
0000
,
0001
0000
0011
0100
1000
0000
1100
0000
,
1000
0001
0010
0100
1000
0000
1001
0000
,
1000
0000
1010
0001
0100
0000
0101
0000
,
0001
0100
0010
1000
0100
0000
1100
0000
,
1000
0000
1100
0001
0010
0000
0011
0000
,
0001
0010
0100
1000
0001
0000
1001
0000
,
0001
0000
0001
0100
0000
0100
0010
1000
,
0100
0000
0100
0010
0000
0010
0001
0010
,
0100
0000
0100
1000
0010
0000
0010
0100
,
0001
0000
0001
0010
0100
0000
0100
1000
,
0010
0000
0010
0100
0000
0100
0001
0010
,
0100
0000
0100
1000
0000
1000
0010
0100
,
0001
0000
0001
0010
0100
0000
0100
1000
,
0010
0000
0010
0100
0001
0000
0001
1000
,
0001
0100
1000
0100
0010
0001
0010
1000
,
0010
0001
0010
0100
0001
1000
0100
0001
,
0100
0010
0001
0010
1000
0010
0001
0010
,
0100
0001
0100
1000
0100
0010
0001
0010
,
1000
0001
0100
1000
0010
0001
0010
0100
,
1000
0100
0001
1000
0010
0001
0010
0100
,
0001
0100
0010
1000
0100
0001
1000
0010
,
0001
0010
0100
1000
0100
0001
0100
1000
,
0001
0100
0010
0000
1000
0000
1010
0000
,
0010
0100
0001
0010
0100
0000
0110
0000
,
0010
0001
0100
0000
0010
0000
1010
0000
,
1000
0100
0010
0001
1000
0000
1001
0000
,
0001
0100
0010
0000
0010
1000
0100
0000
,
0100
1000
0010
0000
0010
0100
0001
0000
,
0010
0100
1000
0100
0010
0001
0010
0100
,
1000
0000
0001
0010
0100
2000
0200
0000
,
3310
0000
1110
0000
1001
0010
0101
0000
,
0001
0100
0010
1000
0100
0000
0110
0000
,
0000
0000
0011
0100
1001
0000
0011
0000
,
0001
0010
0100
1000
0100
0000
0010
0000
,
0001
0000
0101
0010
1001
0000
0101
0000
,
0001
0100
0010
1000
0200
0000
0310
0000
,
0001
0000
0011
0100
1001
0000
0011
0000
,
0010
0100
1000
0001
0010
0000
0011
0000
,
0001
0010
0000
0011
0000
0000
1000
0100
0000
1100
0000
0000
1000
0100
0010
0001
,
0010
0100
0000
0110
0000
0000
0010
0001
0000
0011
0000
0000
0001
0010
0100
1000
,
0100
0010
0000
0110
0000
0000
0100
1000
0000
1100
0000
1000
0100
0010
0001
1000
,
0100
1000
0000
1100
0000
0000
1000
0100
0000
1100
0000
0100
1000
0001
0010
0100
,
1000
0000
1000
0000
0001
0000
0100
0020
0000
0000
1000
0000
0100
0000
0001
0000
,
0130
0000
0001
0000
0010
0000
0200
1000
0000
0000
0010
0000
0001
0000
0310
0100
,
0000
1000
0000
0010
0000
0100
0000
0001
0000
0010
0000
0100
0000
1000
0000
0020
,
0000
0230
0000
0001
0000
0010
0010
0000
0300
0002
0010
1000
0200
0000
0313
0000
,
0111
0000
0001
0100
0010
0000
1010
0000
,
1000
1100
0010
0011
,
1100
0000
0100
0010
0001
0000
1000
0000
,
0100
1001
0100
1001
,
0010
0000
1001
0000
0001
0100
0010
1000
,
0100
0000
1001
0000
0010
0001
1000
0010
,
0100
1001
0010
1001
,
0001
0000
0010
0100
1000
0100
0010
0001
0010
0100
1000
0100
0010
0001
0010
0000
,
2200
0000
0000
0000
,
3300
0000
0000
0000
;
#NOTES:
     dance-single:
     Renard:
     Easy:
     5:
     0.346,0.473,0.160,0.042,0.000:
0000
0000
0000
0000
,
0000
0000
0000
0000
,
0000
0000
0000
0000
,
0000
0000
0000
0000
,
0000
0000
0000
0000
,
0001
1000
1100
0000
1000
0001
0101
0000
,
0001
1000
1100
0000
1000
0001
0101
0000
,
0001
0001
1000
1000
0010
0010
0100
0100
,
0001
0001
1000
0100
0010
0001
1000
1001
,
0001
0000
0100
0001
0100
0000
0001
0000
,
1000
1000
0100
0100
,
1000
0000
0010
1000
0010
0000
1000
0000
,
0100
0010
1001
0000
,
0001
0000
0010
0001
0010
0000
0100
0000
,
1000
0000
0010
1000
0010
0000
1000
0000
,
0010
0000
0100
0001
0100
0000
0001
0000
,
1000
0001
1001
1000
,
0001
0000
0001
0100
0000
0000
0010
0000
,
1000
0000
1000
0100
0000
0000
0010
0000
,
0001
0001
1000
1000
,
0001
0001
1000
1000
,
0010
0000
0010
0100
0000
0000
0001
0000
,
1000
0000
1000
0100
0000
0000
0010
0000
,
0001
0001
1000
1000
,
0010
0000
0010
0100
0001
0000
0001
0100
,
0010
0010
0010
0010
,
0010
0000
0010
0000
0010
1000
0001
0100
,
0010
0000
0010
0000
0010
1000
0001
0100
,
0010
0000
0010
0000
0010
1000
0001
0100
,
0010
0010
1000
0100
,
0010
0010
0001
0100
,
0010
1000
0100
0010
,
0001
1000
0001
1001
,
0001
0000
1000
0000
0100
0000
1000
0001
,
1000
0001
0100
0010
,
1000
0000
0001
0000
0100
0000
0001
0010
,
0001
0010
0100
1000
,
0001
0000
0100
0000
0010
1000
0010
0000
,
1000
0010
0100
0001
,
0010
0001
1000
0100
,
0010
0001
1000
0001
1000
0000
1001
0000
,
0000
0110
0000
0010
,
0100
0000
0001
0100
0001
0000
0100
0000
,
0000
0010
1000
0100
,
1000
0000
0001
1000
0001
0000
0000
0000
,
1000
0100
0010
0001
,
1000
0001
1000
0001
1000
0000
0001
0000
,
0000
0000
0100
0010
0100
0000
0010
0000
,
1000
0010
1000
0010
1000
0000
0010
0000
,
1001
0000
0000
0000
,
0000
0000
0000
0000
,
0001
0000
0000
0001
0000
0000
0001
0000
,
1000
0000
0000
1000
0000
0000
1000
0000
,
0002
1000
1000
0100
0103
0000
0000
0000
,
2000
0001
0001
0100
3100
0000
0000
0000
,
1000
0010
0001
0100
,
2000
0000
0000
0000
0000
0001
0001
3001
,
0000
0000
0110
0000
0000
0000
0010
0100
,
0010
0000
0100
0000
0010
0100
0010
0100
,
0000
0101
0000
1001
,
0000
0000
0001
1000
0001
1000
0001
0000
,
0000
1100
0000
1001
,
0000
0000
0001
0100
0001
0100
0001
0000
,
0000
1001
0000
1100
,
0000
0000
1000
0010
1000
0010
1000
0000
,
2002
0000
0000
0000
,
3003
0000
0000
0000
;
#NOTES:
     dance-single:
     Renard:
     Beginner:
     3:
     0.217,0.250,0.093,0.135,0.000:
0000
0000
0000
0000
,
0000
0000
0000
0000
,
0000
0000
0000
0000
,
0000
0000
0000
0000
,
0000
0000
0000
0000
,
2000
0000
3200
0320
,
0032
0000
0000
0003
,
0002
0000
0023
0230
,
2300
0000
0000
0000
,
3001
0100
0010
1000
,
0000
1001
0000
1001
,
1000
0100
0010
0001
,
0000
1001
0000
1001
,
0001
0010
0100
1000
,
0000
1001
0000
1001
,
1000
0010
0100
0001
,
0000
1001
0000
1001
,
1000
0000
0001
0000
,
1000
0000
0001
0000
,
0100
0000
0010
0000
,
0100
0000
0010
0000
,
1000
0000
0001
0000
,
1000
0000
0001
0000
,
0100
0000
0010
0000
,
0100
0000
0010
0000
,
2000
0000
0000
0000
,
0000
0000
0000
0000
,
3002
0000
0000
0000
,
2000
0000
0000
0000
,
0010
0000
0000
3003
,
1000
0001
0000
0001
,
0001
1000
0000
1000
,
1000
0001
1000
0001
,
0100
0001
0001
0001
,
0001
0000
0001
0000
,
1000
0100
0100
0100
,
0100
0000
0100
0000
,
0010
0001
0010
0001
,
1000
0100
1000
0100
,
2000
0000
0000
0000
,
3000
0001
0100
0010
,
0000
1001
0000
0001
,
0000
1000
0000
0001
,
0000
0100
0000
0010
,
0000
0100
0010
0100
,
0000
0010
0000
1000
,
0000
0010
0000
1000
,
0000
0001
0000
0100
,
0001
1000
0001
1000
,
1001
0000
0000
0000
,
0000
0000
0000
0000
,
2000
0000
0000
0001
,
3002
0000
0000
1000
,
1003
1000
1000
0000
,
0001
0001
0001
0000
,
0100
0000
0010
0000
,
1000
0000
0001
0000
,
1000
0100
0010
0001
,
0100
0010
1000
0100
,
0010
0001
0100
0010
,
1000
0100
0010
0001
,
1000
0100
0010
0001
,
0100
0010
1000
0100
,
0010
0001
0100
0010
,
1000
0100
0010
0001
,
2002
0000
0000
0000
,
3003
0000
0000
0000
;
