#TITLE:Go 'Round;
#SUBTITLE:;
#ARTIST:The Upbeats;
#TITLETRANSLIT:;
#SUBTITLETRANSLIT:;
#ARTISTTRANSLIT:;
#CRChallenge:;
#BANNER:round-banner.avi;
#BACKGROUND:round-bg.png;
#LYRICSPATH:;
#CDTITLE:!cdtitle.png;
#MUSIC:round.ogg;
#OFFSET:0.000;
#SAMPLESTART:43.290;
#SAMPLELENGTH:12.000;
#SELECTABLE:YES;
#BPMS:0.000=177.000;
#STOPS:187.500=0.339
,282.500=0.339
;
#BGCHANGES:;
#NOTES:
     dance-single:
     Renard:
     Medium:
     9:
     0.609,0.874,0.174,0.072,0.087:
0000
0000
0000
0000
,
0000
0000
0000
0000
,
0000
0000
0000
0000
,
0000
0000
0000
0000
,
0000
0000
0000
0000
,
0000
0000
0000
0000
,
0000
0000
0000
0000
,
1000
1000
1000
0011
,
1000
0000
0100
0000
0010
0000
0001
0000
0000
0100
0010
0000
1000
0000
0100
0000
,
1000
0000
0001
0000
0010
0000
0100
0000
0000
1000
0001
0000
0100
0000
0000
0000
,
0001
0000
0010
0000
0100
0000
1000
0000
0000
0001
0100
0000
0010
0000
1000
0000
,
0010
0000
0100
0000
0001
0000
0010
0000
0000
0100
1000
0000
0100
0000
0000
0000
,
0010
0000
0001
0000
1000
0000
0010
0000
0000
0100
0001
0000
1000
0000
0010
0000
,
0100
0000
0001
0000
0010
0000
0100
0000
0000
1000
0100
0000
0010
0000
0000
0000
,
0001
0000
1000
0000
0010
0000
0100
0000
0000
0001
1000
0000
0010
0000
0100
0000
,
0001
0000
0100
1000
0100
0000
1001
0000
,
0001
0000
0010
1000
0000
0100
0000
0001
,
0000
0000
0010
0000
0001
0100
0010
0000
,
1000
0000
0010
0001
0000
0100
0000
1000
,
0000
0000
0010
0000
1000
0001
0100
0000
,
0001
0010
0000
1000
0000
0000
0100
0000
,
1000
0000
0010
0000
0100
0001
0100
0000
,
0001
0100
0000
1000
0000
0000
0010
0000
,
0001
0000
0100
0010
1000
0000
1001
0000
,
0002
0000
0103
0010
1000
0100
0010
0001
,
2000
0000
3010
0100
0001
0010
0100
1000
,
0002
0000
0103
0010
1000
0100
0010
0001
,
2000
0000
3001
0010
0100
1000
0010
0100
,
0020
0000
1030
0100
0010
0001
0100
0010
,
0200
0000
0301
0010
0100
1000
0010
0100
,
0020
0000
1030
0100
0010
0001
0100
0010
,
0100
0100
0100
0100
,
0100
0001
0010
1000
0000
0100
0000
0000
,
0001
0010
0001
0100
0010
1000
0100
0010
,
0001
0010
1000
0100
0000
0001
0000
0000
,
0010
0100
1000
0010
0100
0001
0100
0010
,
1000
0100
0001
0010
0000
1000
0000
0000
,
0100
1000
0010
0100
0001
0010
0100
1000
,
0100
0001
0010
1000
0000
0100
0000
0000
,
1000
1000
1000
1000
1000
0000
0101
0000
,
0010
1000
0100
0001
0000
0010
0000
0000
,
1000
0100
1000
0010
0100
0001
0010
0100
,
1000
0100
0001
0010
0000
1000
0000
0000
,
0100
0010
0001
0100
0010
1000
0010
0100
,
0001
0010
1000
0100
0000
0001
0000
0000
,
0010
0001
0100
0010
1000
0100
0010
0001
,
0010
1000
0100
0001
0000
0010
0000
0000
,
0001
0100
0000
0100
0000
0000
1000
0000
,
0011
1000
0011
0001
,
1010
0001
1010
0100
,
0011
0100
0011
0100
,
1010
0000
0100
0000
1010
0000
0010
1000
,
0100
0010
0001
0100
0010
1000
0100
0010
,
0001
0000
0100
0000
0010
0000
1000
0000
0100
0000
0010
0000
0001
1000
0001
1000
,
0001
1000
0001
1000
0001
1000
0001
1000
0001
1000
0001
1000
0001
0000
0000
0000
,
1100
0000
0000
0011
0000
0000
0101
0000
0000
1010
0000
0000
0010
0000
1000
0000
,
0100
0001
0000
0010
0000
0000
0100
1000
,
0010
0100
0001
0010
0100
0000
0100
0001
,
0010
1000
0000
0100
0000
0000
1000
0010
,
0100
0001
0100
0010
1000
0000
1000
0010
,
0001
0100
0000
1000
0000
0000
0010
0100
,
0001
0100
0010
1000
0100
0000
0010
0001
,
0100
1000
0000
0010
0000
0000
0001
0001
,
0001
0001
0001
0000
1010
0000
0010
0001
,
0100
1000
0000
0010
0000
0000
1000
0010
,
0100
0001
0010
0100
1000
0000
0100
1000
,
0010
0001
0000
0100
0000
0000
0010
1000
,
0001
0100
0001
0010
0100
0000
0100
1000
,
0010
0001
0000
0100
0000
0000
0010
1000
,
0010
0100
0001
0010
0100
0000
1000
0100
,
0001
0010
0000
1000
0000
0000
0100
1000
,
0000
0010
0000
0000
0000
0000
0000
0000
;
#NOTES:
     dance-single:
     Renard:
     Easy:
     7:
     0.414,0.510,0.010,0.082,0.000:
0000
0000
0000
0000
,
0000
0000
0000
0000
,
0000
0000
0000
0000
,
0000
0000
0000
0000
,
0000
0000
0000
0000
,
0000
0000
0000
0000
,
0000
0000
0000
0000
,
0000
0000
0000
0000
,
1000
0000
0000
0001
0000
0100
0000
0010
,
0000
1000
0100
0010
,
0001
0000
0000
1000
0000
0010
0000
0100
,
0000
0001
1000
0100
,
0010
0000
0001
1000
0000
0001
0000
0000
,
1000
0010
0100
0001
,
1000
0000
0100
1000
0000
0001
0000
0000
,
0100
0010
1000
0100
,
1000
0000
0000
0001
0000
0100
0000
0000
,
0010
1000
0100
0010
,
0001
0000
0000
1000
0000
0010
0000
0000
,
0100
0001
1000
0100
,
0010
0001
0000
1000
0000
0000
0001
0000
,
0100
0010
1000
0001
,
0010
0001
0000
1000
0000
0000
0010
0000
,
1000
0010
1000
0001
,
0200
0000
0000
0000
,
0320
0000
0000
0000
,
2030
0000
0000
0000
,
3002
0000
0000
0000
,
0023
0000
0000
0000
,
0230
0000
0000
0000
,
2300
0000
0000
0000
,
3002
0000
0000
0000
,
0103
0000
0010
0100
0000
0010
0000
0000
,
1000
0001
1000
0001
1000
0001
1000
0000
,
0010
0000
0100
0010
0000
0100
0000
0000
,
0001
1000
0001
1000
0001
1000
0001
0000
,
0100
0000
0010
0100
0000
0010
0000
0000
,
1000
0001
1000
0001
1000
0001
1000
0000
,
0010
0000
0100
0010
0000
0100
0000
0000
,
0001
1000
0001
1000
0001
0000
1000
0000
,
0001
0000
1000
0001
0000
1000
0000
0000
,
0010
0100
0010
0100
0010
0100
0010
0000
,
1000
0000
0001
1000
0000
0001
0000
0000
,
0100
0010
0100
0010
0100
0010
0100
0000
,
0001
0000
1000
0001
0000
1000
0000
0000
,
0010
0100
0010
0100
0010
0100
0010
0000
,
1000
0000
0001
1000
0000
0001
0000
0000
,
0100
0010
0000
0010
0000
0000
1000
0000
,
0010
0000
0010
0100
,
0001
0000
0001
0010
,
0001
0000
0001
1000
,
0100
0000
0100
0010
,
0001
1000
0100
0010
,
0001
0000
1000
0000
0100
0000
1000
0001
,
1000
0001
1000
0001
1000
0001
1000
0000
,
0001
0000
0000
0001
0000
0000
1000
0001
,
1000
0001
0000
1000
0000
0000
0010
0100
,
0010
0100
0010
0100
0010
0000
1000
0000
,
0001
1000
0000
0001
0000
0000
0100
0010
,
0100
0010
0100
0010
0100
0000
0001
1000
,
0001
1000
0000
0001
0000
0000
0100
0010
,
0100
0010
0100
0010
0100
0000
0001
1000
,
0001
1000
0000
0001
0000
0000
0100
0010
,
0100
0010
0100
0000
0110
0000
1000
0001
,
1000
0001
0000
1000
0000
0000
0010
0100
,
0010
0100
0010
0100
0010
0100
0001
1000
,
0001
1000
0000
0001
0000
0000
0100
0010
,
0100
0010
0100
0010
0100
0000
0001
1000
,
0001
1000
0000
0001
0000
0000
0100
0010
,
0100
0010
0100
0010
0100
0010
1000
0001
,
1000
0001
0000
1000
0000
0000
0010
0100
,
0000
0010
0000
0000
0000
0000
0000
0000
;
#NOTES:
     dance-single:
     Renard:
     Beginner:
     4:
     0.310,0.437,0.072,0.020,0.000:
0000
0000
0000
0000
,
0000
0000
0000
0000
,
0000
0000
0000
0000
,
0000
0000
0000
0000
,
0000
0000
0000
0000
,
0000
0000
0000
0000
,
0000
0000
0000
0000
,
0000
0000
0000
0000
,
1000
1000
0001
0001
,
1000
0001
1000
0001
,
1000
1000
0001
0001
,
1000
0001
1000
1000
,
0001
0001
1000
1000
,
0001
1000
0001
1000
,
0001
0001
1000
1000
,
0001
0000
1001
0000
,
1000
0100
1000
0100
,
0000
0000
0000
0000
,
0001
0010
0001
0010
,
0000
0000
0000
0000
,
1000
0100
1000
0100
,
0000
0000
0000
0000
,
0001
0010
0001
0010
,
0000
1000
0100
0000
,
1000
0000
0001
0000
,
0100
0000
0100
0000
,
0100
0000
0001
0000
,
1000
0000
0100
0000
,
1000
0000
0001
0000
,
0100
0000
0100
0000
,
0100
0000
0001
0000
,
2000
0000
0000
0000
,
3100
0001
0010
1000
,
0100
0100
0100
0000
,
0100
0001
0010
1000
,
0100
0100
0100
0000
,
0100
1000
0010
0001
,
0100
0100
0100
0000
,
0100
1000
0010
0001
,
0100
0100
0100
0000
,
0100
0001
0010
1000
,
0100
0100
0100
0000
,
0100
0001
0010
1000
,
0100
0100
0100
0000
,
0100
1000
0010
0001
,
0100
0100
0100
0000
,
0100
1000
0010
0001
,
0000
0000
0000
1000
,
0001
0000
0001
1000
,
0001
0000
0001
1000
,
0001
0000
0001
1000
,
0001
1001
0001
0100
,
0001
0101
0001
1000
,
0001
1001
1000
0100
,
1100
0010
0011
1001
,
0000
0000
0000
0001
,
0100
1000
0010
0001
,
0100
1000
0010
0001
,
0100
1000
0010
0001
,
0100
1000
0010
0001
,
0010
1000
0100
0001
,
0010
1000
0100
0001
,
0010
1000
0100
0002
,
0000
1003
0000
1000
,
0100
0001
0010
1000
,
0100
0001
0010
1000
,
0010
0001
0100
1000
,
0010
0001
0100
1000
,
0100
0001
0010
1000
,
0100
0001
0010
1000
,
0100
0000
0001
0000
0010
0000
1000
0001
,
0000
1000
0000
0000
0000
0000
0000
0000
;
