#TITLE:Girlfriend;
#SUBTITLE:;
#ARTIST:Darren Styles vs Whizzkid;
#TITLETRANSLIT:;
#SUBTITLETRANSLIT:;
#ARTISTTRANSLIT:;
#CRChallenge:;
#BANNER:girlfriend-bn.png;
#BACKGROUND:girlfriend-bg.png;
#LYRICSPATH:;
#CDTITLE:cdtitle.png;
#MUSIC:girlfriend.ogg;
#OFFSET:0.000;
#SAMPLESTART:47.980;
#SAMPLELENGTH:12.000;
#SELECTABLE:YES;
#BPMS:0.000=172.000,72.000=86.000,135.999=172.000;
#STOPS:;
#BGCHANGES:;
#NOTES:
     dance-single:
     pyroko:
     Medium:
     9:
     0.561,1.000,0.021,0.137,0.399:
0000
0000
0000
0000
,
0000
0000
0000
0000
,
1000
0100
0010
0100
1000
0100
0010
0100
,
1000
0000
1000
0000
0000
0001
0010
0001
,
1000
0001
0010
0001
1000
0000
1000
0000
,
0000
0000
0000
0000
0000
1000
0010
1000
,
0010
0000
0100
0000
0010
1000
0000
0100
,
0000
0010
0000
0100
1000
0100
0010
0100
,
1000
0000
1000
0000
0001
0010
0000
0001
,
0000
1000
0000
0001
0000
0010
0001
1000
,
0001
0010
0001
1000
0001
0010
0001
1000
,
0010
0000
0100
0000
0000
0010
0001
0010
,
1000
0100
0010
0100
1000
0000
1000
0000
,
0000
0000
0000
0000
1000
0001
1000
0001
,
0010
0000
0010
0000
0001
0001
0000
1000
,
0000
0010
0000
0100
0010
0100
0010
1000
,
0100
0000
0100
0000
0010
0001
0000
2000
,
0000
0000
0000
0000
,
3010
1000
0100
0010
0100
1000
0100
0010
0001
0000
0001
0000
0000
1000
0010
0100
,
0010
1000
0100
0010
0100
0000
1000
0000
0000
0000
0001
0000
0010
0001
1000
0001
,
0010
0000
0010
0000
0001
0001
0000
1000
0000
0010
0000
0100
0010
0001
0010
0100
,
0010
0000
0010
0000
1000
1000
0000
0200
0000
0000
0000
0000
0000
0300
0000
0000
,
1000
0100
1000
0001
0010
0001
1000
0001
0010
0000
0010
0000
0001
1000
0001
0010
,
0001
1000
0010
0100
0010
0000
0010
0000
1000
0100
0010
0100
0000
1000
0100
0010
,
0100
0000
0100
0000
1000
1000
0000
0001
0000
0010
0001
1000
0000
0001
0010
0001
,
0100
0000
0100
0000
0010
0010
0000
2020
0000
0000
0000
0000
3030
0000
0000
0000
,
1001
0000
0100
0010
0100
1000
0001
0000
0010
0000
0010
0000
0000
0000
0000
0000
,
0001
1000
0001
0010
0001
0100
0010
0000
1000
0000
0100
0000
0010
0000
0100
0000
,
1000
0000
0001
0000
0010
0001
1000
0000
0001
0000
0001
0000
0010
0000
0100
0000
,
1000
0100
1000
0100
0010
0100
1000
0000
1000
0010
0100
0000
0010
1000
0100
0000
,
0010
0000
0000
0000
0100
0000
0000
0000
1000
0000
0000
0000
0100
0000
0000
0010
0100
0000
0000
0000
1000
0000
0000
0000
0100
0000
0000
0000
0010
0000
0100
0000
,
0010
0000
0000
0000
0100
0000
0000
0000
1000
0000
0000
0000
0001
0000
0000
0010
0001
0000
0000
0000
1000
0000
0000
0000
0001
0000
0000
0000
0010
0000
0001
0000
,
1000
0001
0100
0010
0100
0010
1000
0100
1000
0100
0010
0100
1000
0001
0010
0100
,
1000
0100
0010
0001
1000
0010
0100
0010
1000
0100
0010
0001
1000
0100
0010
0001
2000
0000
3002
0000
0023
0000
0230
0000
0320
0000
0032
0000
0203
0000
0300
0000
,
0010
0000
0100
0000
0001
1000
0100
0000
,
0010
0000
0010
0000
0000
0001
0000
1000
,
0001
0100
0010
0100
0010
0001
0010
0000
,
1000
0100
0010
0100
1000
0100
0010
0001
,
1000
0000
0010
0000
0100
0010
0001
0000
,
0010
0000
1000
0000
0000
0100
0000
0010
,
0100
1000
0001
0010
0100
1000
0010
0000
,
0100
0010
0001
0010
1000
0100
0010
1000
,
0010
0100
1000
0001
0010
0001
0100
0010
,
1000
0000
1000
0000
0000
0001
0000
0010
,
0100
1000
0001
0010
0001
1000
0010
0000
,
0100
0010
0001
0010
1000
0100
0001
1000
,
0010
0000
0100
0000
0010
0001
1000
0000
,
0001
0000
0100
0000
0000
0001
0000
0010
,
0001
0100
0010
1000
0010
0100
0001
0000
,
0010
0200
0020
0000
0000
0330
0000
0000
;
#NOTES:
     dance-single:
     pyroko:
     Easy:
     5:
     0.323,0.469,0.032,0.105,0.000:
0000
0000
0000
0000
,
0000
0000
0000
0000
,
1000
0000
0001
0000
1000
0000
0001
1000
,
0001
1000
0001
0100
,
0010
0100
0001
0020
,
0030
0100
1000
0100
,
0010
0000
0010
0000
0001
0001
0000
1000
,
0000
0010
0100
0010
,
1000
0000
0100
0000
0010
0010
0000
0000
,
0100
1000
0001
0010
,
0001
1000
0001
0100
,
0010
0100
0010
1000
,
0100
0010
0100
0100
,
0000
1000
0001
0100
,
0001
0010
0001
0100
,
0010
1000
0100
0010
,
0100
0000
1000
0000
0001
0001
0000
2000
,
0000
0000
0000
0000
,
3100
0010
1000
0100
0010
0100
0000
1000
,
0100
1000
0010
0100
0000
0000
0000
0000
,
0001
0010
0001
1000
0001
0010
0001
1000
,
0010
0100
0010
1000
0100
0010
0100
1000
,
1100
0001
0010
0001
0010
0002
0000
0003
,
1000
0010
0100
0020
0000
0000
0030
0000
,
1000
0100
0010
0100
1000
0000
0000
0000
,
0001
0010
0001
0010
0100
0000
1000
0010
,
0110
0010
1000
0100
,
0010
0001
1000
0001
,
0100
0010
1000
0100
,
0010
0100
1000
0100
,
0010
0010
0001
0001
,
1000
1000
0010
0010
,
0100
0100
0001
0001
,
0010
0100
0010
0100
2000
3020
0230
0320
,
1030
0100
0010
0100
,
1000
1000
0000
0000
,
0001
0100
0001
0010
,
0001
0000
1000
0000
0001
0010
0001
0000
,
1000
0010
0100
0010
,
1000
1000
0000
0000
,
0100
0010
0100
1000
,
0001
1000
0001
0000
1000
0000
0001
0000
,
0100
0010
0100
0010
,
1000
0010
0000
0000
,
0100
0001
0010
0001
,
0010
0001
0010
0000
0001
1000
0001
0000
,
1000
0010
0100
0010
,
1000
1000
0000
0000
,
0100
0010
0100
1000
,
2002
0000
0000
0000
0000
3003
0000
0000
;
#NOTES:
     dance-single:
     pyroko:
     Beginner:
     3:
     0.215,0.365,0.032,0.105,0.000:
0000
0000
0000
0000
,
0000
0000
0000
0000
,
1000
0000
0001
0000
,
0100
0001
0000
0000
,
0010
0000
0100
0000
,
1000
0100
1000
0000
,
0010
0000
0100
0000
,
0001
0000
0000
0000
,
0010
0000
0100
0000
,
1000
0000
0000
0000
,
1001
0000
0010
0000
,
0100
0000
0010
0000
,
1000
0000
0001
0000
,
0010
0000
0100
1000
,
0100
0000
0010
0000
,
0001
0000
1000
0000
,
0010
0100
0001
0010
,
0002
0000
0000
0000
,
1003
0010
0100
0010
,
1000
0000
0100
0000
0010
0000
0100
1000
,
0100
1000
0010
0100
,
0001
0000
0010
0000
0100
0000
1000
0100
,
1000
0010
0100
0010
,
1000
0000
0001
0000
0010
0000
0100
1000
,
0100
1000
0010
0100
,
0001
0000
0010
0000
0001
0000
0001
1000
,
2002
0000
0000
0000
,
0000
0000
0000
3003
,
0010
0100
0010
1000
0100
2000
0000
3000
,
0010
0100
0010
0200
0000
0300
1000
0000
,
0100
0010
0100
1000
,
0100
1000
0100
1000
,
0020
0000
2030
0000
,
3200
0000
0000
0000
0000
0000
0000
0300
,
1000
0001
1000
0001
,
0100
0010
0000
0000
,
1000
0100
0010
0100
,
0000
0000
0000
0000
,
0000
1000
0001
1000
,
0010
0100
0000
0000
,
0010
0100
0010
1000
,
0000
0000
0000
0000
,
0000
0001
0010
0001
,
1000
0010
0000
0000
,
0100
0010
0100
0010
,
0000
0000
0000
0000
,
0000
1000
0100
0010
,
0100
1000
0000
0000
,
0001
0010
0001
1000
,
0220
0000
0000
0000
0000
0330
0000
0000
;
