#TITLE:Get Low;
#SUBTITLE:;
#ARTIST:Lil Jon and the Eastside Boyz;
#TITLETRANSLIT:;
#SUBTITLETRANSLIT:;
#ARTISTTRANSLIT:;
#CRChallenge:;
#BANNER:low.png;
#BACKGROUND:low-bg.png;
#LYRICSPATH:;
#CDTITLE:;
#MUSIC:low.ogg;
#OFFSET:0.000;
#SAMPLESTART:39.940;
#SAMPLELENGTH:12.000;
#SELECTABLE:YES;
#BPMS:0.000=101.250;
#STOPS:108.000=0.593
,111.000=0.593
;
#BGCHANGES:;
#NOTES:
     dance-single:
     Renard:
     Challenge:
     9:
     0.576,0.695,0.854,0.294,0.349:
0000
0000
0000
0000
,
0000
0000
0000
0000
,
0000
0000
0000
0000
,
0000
0000
0000
0000
,
0000
0000
0000
0000
,
0001
1000
0000
0000
0000
0000
0010
0100
0000
0000
0000
0000
0001
1000
0000
0000
,
0010
0100
0000
0000
0000
0000
0001
1000
0000
0000
0000
0000
0010
0100
0000
0000
,
0010
0100
0000
0000
0000
0000
0001
1000
0000
0000
0000
0000
0010
0100
0000
0000
,
0001
1000
0000
0000
0000
0000
0001
1000
0000
0000
0000
0000
0000
0000
0000
0000
,
2002
0100
3013
0000
0202
1000
0313
0000
,
2200
0001
3310
0000
0220
1000
0331
0000
,
1111
M1MM
1111
MM1M
,
1111
MMM1
1111
1MMM
,
1000
0100
0001
0000
1000
0010
0001
0000
1000
0100
0001
0000
1000
0010
0001
0000
,
0001
0100
1000
0000
0001
0010
1000
0000
0001
0100
1000
0000
0001
0010
1000
0000
,
2000
0020
0001
3130
,
0002
0020
0100
1033
,
0101
0011
1010
1100
0101
0011
1010
1100
,
0101
0011
1010
1100
0101
0000
0011
0000
,
0011
0101
1100
1010
0011
0101
1100
1010
,
0011
0101
1100
1010
0011
0000
1001
0000
,
0002
2000
3013
0000
1001
0100
1001
0000
,
2002
0000
3113
0000
1001
0010
1001
0000
,
0001
0010
0100
1000
0010
0100
0001
0010
0100
1000
0100
0010
0001
0100
0010
1000
,
0100
0010
0001
0010
0100
1000
0001
0100
0010
1000
0001
0100
0010
0000
1001
0000
,
0000
0000
M1MM
0000
0000
M1MM
0000
0000
M1MM
0000
MM1M
0000
0000
0000
MM1M
0000
,
0000
0000
M1MM
0000
0000
M1MM
0000
0000
M1MM
0000
MM1M
0000
0000
0000
0000
0000
,
2002
3003
0000
0000
1001
0110
1001
0110
0000
0000
0000
0000
0220
0330
0000
0000
,
0110
1001
0110
1001
0110
1001
0110
0000
2002
0000
0100
0000
3013
0000
0000
0000
,
0202
1000
0313
0000
2200
0001
3310
0000
,
0220
1000
0331
0000
1111
0000
M1MM
0000
,
1111
MM1M
1111
MMM1
,
1111
0000
0000
0000
1MMM
0000
0000
0000
1000
0100
0001
0000
1000
0010
0001
0000
,
1000
0100
0001
0000
1000
0010
0001
0000
0001
0100
1000
0000
0001
0010
1000
0000
,
0001
0100
1000
0000
0001
0010
1000
0000
2000
0000
0000
0000
0020
0000
0000
0000
,
0001
3130
0002
0020
,
0100
0000
1033
0000
0101
0011
1010
1100
,
0101
0011
1010
1100
0101
0011
1010
1100
,
0101
0000
0011
0000
0011
0101
1100
1010
,
0011
0101
1100
1010
0011
0101
1100
1010
,
0011
0000
0000
0000
1001
0000
0000
0000
0M01
M010
010M
10M0
010M
M010
0M01
M010
,
010M
10M0
010M
M010
0M01
00M0
MMM1
0000
1M00
001M
M100
00M1
M100
001M
1M00
001M
,
M100
00M1
M100
001M
1M00
000M
1MMM
0000
0M01
M010
010M
10M0
010M
M010
0M01
M010
,
010M
10M0
010M
M010
0M01
00M0
MMM1
0000
1M00
001M
M100
00M1
M100
001M
1M00
00M1
,
M100
0000
MMMM
0000
0000
M1MM
0000
MMMM
0000
1MM1
0000
0000
0000
0000
0000
0000
;
