#TITLE:Get Edgy;
#SUBTITLE:;
#ARTIST:Hideki Naganuma;
#TITLETRANSLIT:;
#SUBTITLETRANSLIT:;
#ARTISTTRANSLIT:;
#CRChallenge:;
#BANNER:edgy.png;
#BACKGROUND:edgy-bg.png;
#LYRICSPATH:;
#CDTITLE:;
#MUSIC:edgy.ogg;
#OFFSET:0.000;
#SAMPLESTART:41.113;
#SAMPLELENGTH:12.000;
#SELECTABLE:YES;
#BPMS:0.000=139.965;
#STOPS:;
#BGCHANGES:;
#NOTES:
     dance-single:
     Renard:
     Medium:
     9:
     0.715,0.698,0.792,0.177,0.568:
0000
0000
0000
0000
,
0000
0000
0000
0000
,
0000
0000
0000
0000
,
0000
0000
0000
0000
,
1000
0000
0001
0000
0100
0000
0010
1000
0000
0000
0001
0000
0100
0000
0010
0000
,
1000
0000
0100
0000
0010
0000
0001
1000
0000
0000
0001
0000
0010
0000
0100
0000
,
1000
0000
0010
0000
0100
0000
0001
0010
0000
0000
0100
0000
0010
0000
0001
0000
,
1000
0000
0010
0000
0100
0000
0001
1000
0000
0000
1001
0000
0000
0110
0000
0000
,
1001
0000
0100
0000
0010
0000
1000
0100
0000
0000
0010
0000
0001
0000
0010
0000
,
0100
0000
1000
0000
0010
0000
0100
0001
0000
0000
0100
0000
0010
0000
1000
0000
,
0100
0000
0010
0000
0001
0000
1000
0010
0000
0000
1000
0000
0100
0000
0010
0000
,
0110
0000
0110
0000
1001
0000
1001
0000
0010
0000
1001
0000
0000
0110
0000
0000
,
1001
0000
0100
0000
1010
0000
0100
0002
0000
0000
0010
0000
0000
1000
0000
0000
,
0103
0000
0010
0000
1000
0000
0100
0020
0000
0000
0001
0000
0000
0100
0000
0000
,
0031
0000
1000
0000
0010
0000
0100
0002
0000
0000
1000
0000
0000
0010
0000
0000
,
0103
0000
0010
0000
1001
0000
0100
0000
0010
0000
1001
0000
0000
0110
0000
0000
,
1001
0000
0010
0000
0101
0000
0010
2000
0000
0000
0100
0000
0000
0001
0000
0000
,
3010
0000
0100
0000
0001
0000
0010
0200
0000
0000
1000
0000
0000
0010
0000
0000
,
1300
0000
0001
0000
0100
0000
0010
2000
0000
0000
0001
0000
0000
0100
0000
0000
,
3000
0001
1000
0000
0000
1100
0000
0000
1001
0000
0110
0000
0000
1001
0000
0000
,
1001
0000
0001
0000
1000
0100
0000
1000
0000
0100
0000
1001
0000
0000
0001
0100
,
0010
0000
1000
0000
0010
0100
0000
0001
0000
0100
0000
1001
0000
0000
1000
0000
,
0010
0000
0100
0000
0001
0010
0000
0100
0000
1000
0000
1001
0000
0000
0010
0001
,
1000
0000
0010
0000
0100
0001
0000
0010
0000
0000
1100
0000
0000
0101
0000
0000
,
1001
0000
0001
0000
0100
0000
0010
2000
0000
0000
0001
0000
0010
0000
3100
0000
,
0001
0000
0100
0000
0010
0000
1000
0002
0000
0000
0010
0000
0100
0000
1003
0000
,
0001
0000
0010
0000
0100
0000
2000
0001
0000
0000
0010
0000
0100
3000
0001
0000
,
0100
0000
0001
0000
0010
0000
0100
0000
1000
0000
1001
0000
0000
0110
0000
0000
,
1001
0000
1000
0000
0010
0000
0100
0002
0000
0000
1000
0000
0100
0000
0013
0000
,
1000
0000
0010
0000
0100
0000
0001
2000
0000
0000
0100
0000
0010
0000
3001
0000
,
1000
0000
0100
0000
0010
0000
0002
1000
0000
0000
0100
0000
0010
0003
1000
0000
,
1001
0010
1001
0100
2002
0000
3103
0000
,
1000
0000
0010
0000
0001
0000
0010
2000
0000
0000
0001
0000
0001
0000
3001
0000
,
1000
0000
0100
0000
0010
0001
1000
0002
0000
0000
1000
0000
1000
0000
1003
0000
,
1000
0000
0010
0000
0001
0000
0010
2000
0000
0000
0001
0000
0001
0000
3001
0000
,
0110
0000
1001
0000
0100
0000
1001
0000
0110
0000
1010
0000
0000
0110
0000
0000
,
0101
0010
1000
0100
0011
0100
1000
0010
,
0101
1001
0011
1001
,
1000
0100
0010
0001
0010
0100
1000
0001
,
1000
0100
0010
0001
0010
0100
1000
0001
1000
0000
1001
0000
0000
0110
0000
0000
,
1001
0000
0000
0000
0000
0101
0000
0010
0000
1001
0000
0100
0000
0000
1001
0000
,
1000
0000
0000
0000
0000
1100
0000
0001
0000
0100
0000
1010
0000
0000
0100
0000
,
1001
0000
0000
0000
0100
0010
0000
1000
0000
0001
0000
0110
0000
0000
1000
0010
,
0100
0000
0001
0000
0100
0010
0000
1000
0000
0000
0101
0000
0000
1001
0000
0000
,
1010
0000
1000
0000
0010
0100
0000
0001
0000
1000
0000
0110
0000
0000
1000
0000
,
0110
0000
0000
0000
0000
0100
0000
0001
0000
1010
0000
0101
0000
0000
1000
0000
,
0010
0000
0100
0000
0001
0010
0000
1100
0000
0001
0000
1010
0000
0000
1000
0010
,
0100
0000
0001
0000
1000
0100
0000
0010
0000
0000
1001
0000
0000
0110
0000
0000
,
1001
0000
0000
0000
0001
0010
0100
1000
0000
0000
0001
0000
0000
1000
0000
0000
,
0001
0000
0000
0000
1000
0100
0010
0001
0000
0000
1000
0000
0000
0001
0000
0000
,
1000
0000
0000
0000
0001
0010
0100
1000
0000
0000
0001
0000
0000
1000
0000
0000
,
0001
0100
0010
1000
0100
0010
0001
1000
,
0001
0000
0000
0000
1000
0010
1000
0010
0000
0000
0110
0000
0000
0101
0000
0000
,
1001
0000
0000
0000
0001
0010
0001
0010
0000
0000
0011
0000
0000
0110
0000
0000
,
1100
1001
0110
1001
,
0100
0000
0100
0000
0000
0000
0001
0100
0010
0100
1000
0000
0100
0001
0000
0000
;
#NOTES:
     dance-single:
     Renard:
     Easy:
     6:
     0.386,0.407,0.167,0.000,0.000:
0000
0000
0000
0000
,
0000
0000
0000
0000
,
0000
0000
0000
0000
,
0000
0000
0000
0000
,
0001
0000
0001
0000
1000
0100
0010
0001
,
1000
0000
1000
0000
0001
0010
0100
1000
,
0001
0000
0001
0000
1000
0100
0010
0001
,
1000
1000
0001
0001
,
1000
0000
1000
0000
0001
1000
0001
1000
,
0001
0000
0001
0000
1000
0001
1000
0001
,
1000
0000
1000
0000
0010
0100
0010
0100
,
0010
0000
0010
0000
0100
0010
0000
0000
,
0100
0000
0010
0000
1000
0001
0000
0000
,
1000
0000
0100
0000
0010
0001
0000
0000
,
1000
0000
0010
0000
0100
0001
0000
0000
,
1000
0000
0100
0000
0010
0001
0000
0000
,
1000
0000
0001
0000
0100
0000
0010
1000
,
0010
0000
0100
0000
0001
0000
1000
0100
,
1000
0000
0001
0000
0010
0000
0001
1000
,
0010
1000
0010
0100
,
1001
0000
0000
0000
0001
0001
0001
0000
,
1001
0000
0000
0000
1000
1000
1000
0000
,
0110
0000
0000
0000
0010
0010
0010
0000
,
0110
0000
0000
0000
0100
0100
0100
0000
,
0001
0000
0001
0000
0001
0100
0010
0100
,
0010
0000
0010
0000
1000
0010
0100
0010
,
0100
0000
0100
0000
0001
0100
0010
0100
,
0010
1000
0010
1001
,
0100
1001
0010
0010
,
1000
0000
0101
0000
0010
1000
0010
1000
,
0010
0000
0101
0000
0010
1000
0010
1000
,
0100
0010
0001
1001
,
1000
0000
1000
0000
0001
0001
0001
0001
,
0100
0000
0100
0000
0010
0010
0010
0010
,
0100
0000
0100
0000
0001
0001
0001
0001
,
1000
0001
1000
0110
,
1000
0000
0010
0100
0001
0000
0100
0010
,
1000
0010
0100
0001
,
1000
0001
1000
0001
1000
0001
1000
0001
,
0001
0001
0001
0001
0001
0000
0000
0000
,
0100
0000
0000
0000
0010
0010
0010
0000
,
1000
0000
0000
0000
0001
0001
0001
0000
,
0010
0000
0000
0000
0100
0100
0100
0000
,
1000
0001
0100
0010
,
1001
0000
0000
0000
0010
0010
0010
0000
,
1001
0000
0000
0000
0100
0100
0100
0000
,
1001
0000
0000
0000
0010
0010
0010
0000
,
1000
0000
0010
0000
0100
0001
1000
0100
,
0011
0000
0000
0000
,
1001
0000
0000
0000
,
1010
0000
0000
0000
,
1000
0001
0100
0010
1000
0100
0010
0001
,
1000
0000
0000
0000
0000
0001
0000
0100
,
0010
0000
0000
0000
0000
1000
0000
0010
,
0100
0000
0001
1000
,
0100
0010
0001
1000
0010
0100
0001
0000
;
#NOTES:
     dance-single:
     Renard:
     Beginner:
     4:
     0.337,0.436,0.365,0.000,0.000:
0000
0000
0000
0000
,
0000
0000
0000
0000
,
0000
0000
0000
0000
,
0000
0000
0000
0000
,
1000
1000
1000
1000
,
0001
0001
0001
0001
,
0100
0100
0100
0100
,
0010
0010
0010
0010
,
1000
0000
0010
0010
,
0100
0000
0001
0001
,
0010
0000
0100
0100
,
1000
0001
1000
0001
,
0100
0000
0000
0000
0000
0010
0000
0010
,
0100
0000
0000
0000
0000
0001
0000
0001
,
1000
0000
0000
0000
0000
0100
0000
0100
,
0010
0000
0000
0000
0000
0001
0000
0001
,
1000
0000
0000
0000
0000
0010
0000
0010
,
0100
0000
0000
0000
0000
0001
0000
0001
,
1000
0000
0000
0000
0000
0100
0000
0100
,
0010
0001
1000
0001
,
0101
0000
0001
1000
,
1100
0000
1000
0001
,
0011
0000
0001
1000
,
1010
0000
1001
0000
,
0101
0000
0010
0010
,
1100
0000
0010
0010
,
0101
0000
0010
0010
,
1000
0001
0010
0100
,
1001
0000
0100
0010
,
1001
0000
0010
0100
,
1001
0000
0100
0010
,
0100
0100
0010
1001
,
0101
0000
0010
0010
,
1100
0000
0100
0100
,
0011
0000
0010
0010
,
1010
0100
1001
0100
,
1010
0100
0011
0100
,
1001
0110
1001
0110
,
0010
0100
0010
0100
0010
0100
0010
0100
,
0010
0100
0010
0100
0010
0000
0000
0000
,
0100
0000
0101
0110
,
1000
0000
0110
1100
,
0010
0000
0110
0101
,
0001
1100
1001
0110
,
0101
0000
0100
0010
,
1100
0000
0010
0100
,
1001
0000
0001
0100
,
0010
0010
1000
0010
,
0100
0000
0100
0000
0001
1000
0001
0000
,
0100
0000
0100
0000
0010
1000
0010
0000
,
1000
0000
1000
0000
0100
1000
0100
0000
,
1000
0000
1000
0000
0001
0000
0010
0001
,
1000
0000
1000
0000
0001
0000
0100
0001
,
0100
0001
1000
0100
,
0010
0010
0001
0001
,
1000
0001
1000
0001
1000
0001
1000
0000
;
