#TITLE:Get Down to the Drive;
#SUBTITLE:;
#ARTIST:Yuzo Koshiro;
#TITLETRANSLIT:;
#SUBTITLETRANSLIT:;
#ARTISTTRANSLIT:Yuzo Koshiro;
#CRChallenge:;
#BANNER:drive.png;
#BACKGROUND:drive-bg.png;
#LYRICSPATH:;
#CDTITLE:!cdtitle.png;
#MUSIC:drive.ogg;
#OFFSET:0.000;
#SAMPLESTART:13.368;
#SAMPLELENGTH:12.000;
#SELECTABLE:YES;
#BPMS:0.000=142.990;
#STOPS:;
#BGCHANGES:;
#NOTES:
     dance-single:
     Renard:
     Hard:
     10:
     0.742,0.937,0.341,0.284,0.809:
0000
0000
0000
0000
,
0000
0000
0000
0000
,
0000
0000
0000
0000
,
0000
0000
0000
0000
,
1000
0000
0001
0100
0001
0000
1000
0100
1000
0000
0001
0100
0001
0000
1000
0000
,
0001
0000
1000
0010
1000
0000
0001
0010
0001
0000
1000
0010
1000
0000
0001
0000
,
1000
0000
0001
0100
0001
0000
1000
0100
1000
0000
0001
0010
0001
0000
1000
0010
,
1000
0000
0001
0100
0001
0000
1000
0100
1000
0000
0001
0010
0100
1000
0001
0000
,
2000
0000
0100
0001
3010
0000
2010
0000
,
3002
0000
0010
1000
0103
0000
0102
0000
,
2003
0000
0010
0001
3100
0000
1200
0000
,
0320
0000
1000
0100
0031
0000
0011
0000
,
0002
0000
0010
1000
0103
0000
0102
0000
,
2003
0000
0100
0001
3010
0000
2010
0000
,
3002
0000
0100
1000
0013
0000
0021
0000
,
0230
0000
0001
0010
1300
0000
1100
0000
,
0200
0000
0001
0010
1300
0000
1200
0000
,
0320
0000
1000
0100
0031
0000
0021
0000
,
0230
0000
1000
0010
0301
0000
0201
0000
,
2300
0000
0100
0001
3010
0000
1010
0000
,
0020
0000
1000
0100
0031
0000
0021
0000
,
0230
0000
0001
0010
1300
0000
1200
0000
,
0320
0000
0001
0100
1030
0000
2010
0000
,
3002
0000
0010
1000
0103
0000
0101
0000
,
1001
0000
0000
0000
1001
0000
0000
0000
0010
0000
0010
0100
0000
0100
0010
0000
,
1001
0000
0000
0000
,
0110
0000
0000
0000
0110
0000
0000
0000
0001
0000
0001
1000
0000
1000
0001
0000
,
0210
0000
0000
0001
0000
0000
0310
0000
0000
0000
1001
0000
0000
0000
0000
0000
,
1010
0000
0000
0000
1010
0000
0000
0000
0100
0000
0100
0001
0000
0001
0100
0000
,
1001
0000
0000
0000
,
0011
0000
0000
0000
0011
0000
0000
0000
0100
0000
0100
1000
0000
1000
0100
0000
,
1001
0000
0000
0110
0000
0000
1001
0000
0000
0000
0110
0000
0000
0000
0000
0000
,
0010
0000
0100
0000
0001
0000
0100
0000
1000
0000
0100
0010
0000
0010
0100
0000
,
0001
0010
0100
0000
1000
0100
0010
0000
,
0001
0000
0010
0000
1000
0000
0010
0000
0100
0000
0010
0001
0000
0001
0010
0000
,
0100
1000
0010
0000
0100
0010
1000
0000
,
0100
0000
0010
0000
1000
0000
0010
0000
0001
0000
0010
0100
0000
0100
0010
0000
,
0001
0100
0010
0000
0100
1000
0100
0000
,
0010
0000
1000
0000
0010
0000
0100
0000
0001
0000
0100
1000
0000
1000
0100
0000
,
1100
0000
0000
0101
0000
0000
0110
0000
0000
0000
0010
0000
2000
0000
0000
0000
,
3001
0010
0001
0010
0100
1000
0001
0010
0001
0010
0100
1000
0001
0010
0100
1000
,
0001
0010
0001
0010
0100
1000
0001
0010
0001
0010
0100
1000
0001
0010
0001
0010
,
0100
1000
0100
1000
0001
0010
0100
1000
0100
1000
0001
0010
0100
1000
0001
0010
,
0100
1000
0100
1000
0001
0010
0100
1000
0100
1000
0001
0010
0100
1000
0100
1000
,
0001
0100
0001
0100
0010
1000
0001
0100
0001
0100
0010
1000
0001
0100
0010
1000
,
0001
0100
0001
0100
0010
1000
0001
0100
0001
0100
0010
1000
0001
0100
0001
0100
,
0010
1000
0010
1000
0001
0100
0010
1000
0010
1000
0001
0100
0010
1000
0001
0100
,
0010
1000
0010
1000
0001
0100
0010
1000
0010
1000
0001
0100
0010
1000
0010
1000
,
0001
0100
0000
0001
0000
0100
0001
0000
1000
0100
0000
1000
0000
0100
1000
0000
,
0001
0010
0000
0001
0000
0010
0001
0000
1000
0010
0000
1000
0000
0010
1000
0000
,
0001
0100
0000
0001
0000
0100
0001
0000
1000
0100
0000
1000
0000
0100
1000
0000
,
0001
0010
0000
0001
0000
0010
0001
0000
1000
0010
0000
1000
0000
0010
1000
0000
,
0001
0100
0000
0001
0000
0100
0001
0000
0100
0010
0000
0100
0000
0010
0100
0000
,
1000
0100
0000
1000
0000
0100
0010
0000
0100
0010
0000
0100
0000
0001
0100
0000
,
0001
0010
0000
0001
0010
0000
0001
0000
0010
0100
0000
0010
0000
0100
0010
0000
,
1000
0010
0000
1000
0000
0010
0100
0000
0010
0001
0000
0010
0000
0100
0010
0000
,
0001
0010
0000
0010
0000
0100
1000
0000
0001
0010
0000
0010
0000
0100
1000
0000
,
0001
0010
0000
0010
0000
0100
1000
0000
0001
0010
0000
0010
0000
0100
1000
0000
,
0001
0010
0100
1000
0100
0010
0001
0010
0100
1000
0100
0010
0001
0010
0100
1000
,
0001
0100
0010
1000
0010
0100
0001
0100
0010
1000
0010
0100
0001
0100
0010
0000
,
1001
0000
0000
0000
;
#NOTES:
     dance-single:
     Renard:
     Medium:
     9:
     0.576,0.624,0.341,0.322,0.43:
0000
0000
0000
0000
,
0000
0000
0000
0000
,
0000
0000
0000
0000
,
0000
0000
0000
0000
,
1000
0001
0100
0001
1000
0100
1000
0001
,
0100
0001
1000
0100
0010
0001
1000
0000
,
0001
0100
0001
1000
0100
1000
0001
0010
,
0100
1000
0001
0100
0010
1000
0001
0000
,
2000
0000
0100
0001
3010
0000
2010
0000
,
3002
0000
0010
1000
0103
0000
0102
0000
,
2003
0000
0010
0001
3100
0000
1200
0000
,
0320
0000
1000
0100
0031
0000
0011
0000
,
0002
0000
0010
1000
0103
0000
0102
0000
,
2003
0000
0100
0001
3010
0000
2010
0000
,
3002
0000
0100
1000
0013
0000
0021
0000
,
0230
0000
0001
0010
1300
0000
1100
0000
,
0200
0000
0001
0010
1300
0000
1200
0000
,
0320
0000
1000
0100
0031
0000
0021
0000
,
0230
0000
1000
0010
0301
0000
0201
0000
,
2300
0000
0100
0001
3010
0000
1010
0000
,
0020
0000
1000
0100
0031
0000
0021
0000
,
0230
0000
0001
0010
1300
0000
1200
0000
,
0320
0000
0001
0100
1030
0000
2010
0000
,
3002
0000
0010
1000
0103
0000
0101
0000
,
1001
0000
0000
0000
1001
0000
0000
0000
0010
0000
0010
0100
0000
0100
0010
0000
,
1001
0000
0000
0000
,
0110
0000
0000
0000
0110
0000
0000
0000
0001
0000
0001
1000
0000
1000
0001
0000
,
0210
0000
0000
0001
0000
0000
0310
0000
0000
0000
1001
0000
0000
0000
0000
0000
,
1010
0000
0000
0000
1010
0000
0000
0000
0100
0000
0100
0001
0000
0001
0100
0000
,
1001
0000
0000
0000
,
0011
0000
0000
0000
0011
0000
0000
0000
0100
0000
0100
1000
0000
1000
0100
0000
,
1001
0000
0000
0110
0000
0000
1001
0000
0000
0000
0110
0000
0000
0000
0000
0000
,
0010
0000
0100
0000
0001
0000
0100
0000
1000
0000
0100
0010
0000
0010
0100
0000
,
0001
0010
0100
0000
1000
0100
0010
0000
,
0001
0000
0010
0000
1000
0000
0010
0000
0100
0000
0010
0001
0000
0001
0010
0000
,
0100
1000
0010
0000
0100
0010
1000
0000
,
0100
0000
0010
0000
1000
0000
0010
0000
0001
0000
0010
0100
0000
0100
0010
0000
,
0001
0100
0010
0000
0100
1000
0100
0000
,
0010
0000
1000
0000
0010
0000
0100
0000
0001
0000
0100
1000
0000
1000
0100
0000
,
1100
0000
0000
0101
0000
0000
0110
0000
0000
0000
0010
0000
2000
0000
0000
0000
,
0002
0000
0000
3000
,
0200
0000
0000
0003
,
0020
0000
0000
0300
,
2000
0000
0000
0030
,
3100
0000
0000
1000
0000
0000
0100
0000
0010
0000
0000
0001
0000
0000
0010
0000
,
0001
0000
0000
0100
0000
0000
0001
0000
1000
0000
0000
0010
0000
0000
1000
0000
,
0100
0000
0000
1000
0000
0000
0100
0000
0010
0000
0000
0001
0000
0000
0010
0000
,
0001
0000
0000
0100
0000
0000
0010
0000
1000
0000
0000
0010
0000
0000
0100
0000
,
0001
0100
0000
0001
0000
0100
0001
0000
1000
0100
0000
1000
0000
0100
1000
0000
,
0001
0010
0000
0001
0000
0010
0001
0000
1000
0010
0000
1000
0000
0010
1000
0000
,
0001
0100
0000
0001
0000
0100
0001
0000
1000
0100
0000
1000
0000
0100
1000
0000
,
0001
0010
0000
0001
0000
0010
0001
0000
1000
0010
0000
1000
0000
0010
1000
0000
,
0001
0100
0000
0001
0000
1000
0001
0000
1000
0100
0000
1000
0000
0001
1000
0000
,
0100
1000
0000
0001
0000
1000
0001
0000
0100
0001
0000
1000
0000
0001
0100
0000
,
0001
0010
0000
0001
0000
1000
0010
0000
1000
0001
0000
1000
0000
0010
1000
0000
,
0001
0010
0000
0001
0000
1000
0001
0000
1000
0010
0000
1000
0000
0001
1000
0000
,
0001
0010
0000
0010
0000
0100
1000
0000
0001
0010
0000
0010
0000
0100
1000
0000
,
0001
0010
0000
0010
0000
0100
1000
0000
0001
0010
0000
0010
0000
0100
1000
0000
,
0001
0000
0010
0000
0100
1000
0001
0000
0010
0000
0100
1000
0001
0000
0010
0000
,
0100
0000
1000
0000
0001
0010
0100
0000
1000
0000
0001
0010
0100
0000
1000
0000
,
1001
0000
0000
0000
;
#NOTES:
     dance-single:
     Renard:
     Easy:
     5:
     0.303,0.483,0.104,0.057,0.000:
0000
0000
0000
0000
,
0000
0000
0000
0000
,
0000
0000
0000
0000
,
0000
0000
0000
0000
,
0001
1000
0100
1000
,
0001
0100
0001
1000
,
0100
1000
0001
0100
,
0001
1000
0100
0000
,
1000
0000
0001
0100
0001
0000
1000
0000
,
1000
0000
0100
1000
0100
0000
1000
0000
,
1000
0000
0001
0100
0001
0000
0001
0000
,
1000
0100
1000
0001
,
1000
0000
0001
0100
0001
0000
0001
0000
,
1000
0000
0100
1000
0100
0000
1000
0000
,
0001
0000
0100
0000
,
1000
0000
0100
0000
,
0001
0000
1000
0100
1000
0000
0001
0000
,
0100
0000
0001
1000
0001
0000
1000
0000
,
0001
0000
0100
0001
0100
0000
0001
0000
,
1000
1000
0100
0100
,
0001
0100
1000
0001
,
0100
1000
0100
0001
,
1000
0100
0001
0100
,
1000
0001
0100
1000
,
0100
0100
0001
1000
,
1100
0000
0000
0000
,
1001
0000
0001
0100
,
0100
0000
0000
0000
,
0001
1000
0100
1100
,
1001
0000
0000
0000
,
0001
0100
0001
1000
,
0100
0000
0100
0000
1000
0000
0001
0100
,
0001
0001
0100
0100
,
0001
0000
1000
0000
0100
1000
0001
1000
,
0001
1000
0001
0100
,
0001
0000
1000
0000
0100
1000
0001
0100
,
0001
0000
1000
0000
0100
0000
1000
0001
,
0100
0001
1000
0100
,
1000
0000
0001
0000
0100
0001
1000
0100
,
1000
0001
0100
0001
1000
0100
1000
0001
,
0200
0000
0000
0000
,
0000
0000
0000
0000
,
0302
0000
0000
0000
,
0000
0000
0000
0000
,
2003
0000
0000
0000
,
3200
0000
0000
0000
,
0302
0000
0000
0000
,
0203
0000
0000
0000
,
1300
1100
0100
1000
,
0001
0000
0100
0000
0001
0000
1000
0100
,
1000
0001
0100
0001
,
1000
0100
1000
0001
,
0101
1001
1000
0100
,
1000
0000
0001
0000
0100
0000
0001
0100
,
0001
0101
0001
1000
,
0100
1000
0001
0100
,
0101
1001
0000
0000
,
0000
0000
0000
0000
,
1000
0100
1000
0100
1000
0100
1000
0100
,
1000
0001
1000
0001
0100
0001
0100
0000
,
0110
0000
0000
0000
;
#NOTES:
     dance-single:
     Renard:
     Beginner:
     3:
     0.227,0.312,0.076,0.255,0.000:
0000
0000
0000
0000
,
0000
0000
0000
0000
,
0000
0000
0000
0000
,
0000
0000
0000
0000
,
1000
0001
1000
0001
,
0100
0010
0100
0010
,
1000
0001
0100
0010
,
1000
0100
0010
0001
,
2000
0000
0000
3100
,
0020
0000
0000
0031
,
0200
0000
0000
0310
,
2000
0000
0000
3100
,
0020
0000
0000
0031
,
2000
0000
0000
3010
,
0200
0000
0001
0000
,
0010
0000
0001
0301
,
2000
0000
0000
3100
,
2000
0000
0000
3001
,
0002
0000
0000
0013
,
0002
0000
0000
1003
,
2000
0000
0000
3100
,
2000
0000
0000
3001
,
0002
0000
0000
0000
,
0103
0001
1000
0100
,
1001
1001
0000
0000
,
0100
0000
0100
0000
,
1001
1001
0000
0000
,
0010
0010
0010
0000
,
1001
1001
0000
0000
,
0100
0000
0100
0000
,
1001
1001
0000
0000
,
0010
0000
0010
0000
,
1000
0010
1000
0010
,
1000
0000
0000
0000
,
0001
0100
0001
0100
,
0001
0000
0000
0000
,
1000
0100
1000
0100
,
1000
0000
0000
0000
,
0001
0010
0001
0010
,
0001
0000
1000
0001
,
0200
0000
0000
0000
,
0000
0000
0000
0000
,
0320
0000
0000
0000
,
0000
0000
0000
0000
,
2030
0000
0100
0000
,
0010
0000
0001
0000
,
3002
0000
0010
0000
,
0100
0000
1000
0000
,
2003
0100
0010
0001
,
3002
0010
0100
1000
,
2003
0100
0010
0001
,
3002
0010
0100
1000
,
2003
0100
0001
0010
,
3002
0100
1000
0010
,
2003
0100
0001
0010
,
3002
0100
1000
0010
,
2000
0000
0000
0000
,
0000
0000
0000
0000
,
0000
0000
0000
0000
,
0000
0000
0000
0000
,
3013
0000
0000
0000
;
