#TITLE:Gabba-Bond (Remix);
#SUBTITLE:;
#ARTIST:Teranoid & MC Natsack;
#TITLETRANSLIT:;
#SUBTITLETRANSLIT:;
#ARTISTTRANSLIT:;
#CRChallenge:;
#BANNER:gabba.jpg;
#BACKGROUND:gabba-bg.jpg;
#LYRICSPATH:;
#CDTITLE:;
#MUSIC:gabba2.ogg;
#OFFSET:0.000;
#SAMPLESTART:34.246;
#SAMPLELENGTH:12.000;
#SELECTABLE:YES;
#BPMS:0.000=168.000;
#STOPS:;
#BGCHANGES:;
#NOTES:
     dance-single:
     Renard:
     Medium:
     9:
     0.203,0.203,0.183,0.056,0.221:
0000
0000
0000
0000
,
0000
0000
0000
0000
,
0000
0000
0000
0000
,
0000
0000
0000
0000
,
1000
1100
0001
0101
,
1000
1010
0001
0011
,
1000
0000
1000
0100
0000
0100
0010
0000
0010
0001
0000
0001
,
1000
0000
1000
0010
0000
0010
0100
0000
0100
0001
0100
0010
,
2000
0000
0000
0000
,
0000
0000
0000
0000
,
0000
0000
0000
0000
,
0000
0000
0000
0000
,
3020
0000
0000
0000
,
2030
0000
0000
0000
,
3200
0000
0000
0000
,
0320
0000
0032
0000
,
1003
1000
0001
0001
,
0100
0000
0000
0100
0000
0000
0010
0000
0010
1000
0000
1000
,
0200
0000
0320
0000
,
0031
0000
0000
1000
0000
0000
0001
0000
0100
0010
0000
1000
,
0002
0000
2003
0000
,
3020
0000
0000
0000
2030
0000
0000
3000
,
2010
0001
3100
1000
,
1010
0000
0000
1010
0000
0000
2002
0000
0000
0010
3003
0000
,
1000
0000
1000
0001
0000
0001
0100
0000
0100
0010
0000
0010
,
1000
0000
1000
0100
0000
0100
0010
0000
0010
0001
0000
0001
,
1000
0000
1000
0001
0000
0001
0010
0000
0010
0100
0000
0100
,
1000
0000
1000
0010
0000
0010
1000
0000
1000
0001
0000
0001
,
0100
0000
0100
0010
0000
0010
0100
0000
0100
0001
0000
0001
,
0100
0000
0100
1000
0000
1000
0100
0000
0100
0001
0010
0100
,
1000
0000
1000
0100
0000
0100
1000
0000
1000
0001
0000
0001
,
0010
0000
0010
0001
0000
0001
1000
0000
0010
0100
0000
0001
,
1000
0000
1000
0100
0000
0100
1000
0000
1000
0100
0000
0100
,
0010
0000
0010
0001
0000
0001
0010
0000
0010
0001
0000
0001
,
1000
0000
1000
0010
0000
0010
1000
0000
1000
0010
0000
0010
,
0100
0000
0100
0001
0000
0010
0100
0000
1000
0100
0000
0010
,
0001
0000
0001
1000
0000
1000
0100
0000
0100
0010
0000
0010
,
0001
0000
0001
1000
0000
1000
0100
0000
0100
0010
0001
0010
,
0100
0000
0100
1000
0000
1000
0010
0000
0010
0100
0000
0100
,
0001
0000
0001
0100
0000
0100
0010
0000
1000
0001
0000
0100
,
0010
0000
1000
0010
0000
1000
0010
0000
1000
0010
0000
1000
,
0010
0000
1000
0010
0000
1000
0010
0000
0100
0010
0000
0000
,
0100
0000
0001
0100
0000
0001
0100
0000
0001
0100
0000
0001
,
0100
0000
0001
0010
0000
0000
0011
0000
0000
0011
0000
0000
,
0010
0000
0100
0010
0000
0100
0010
0000
0100
0010
0000
0100
,
0010
0000
0100
0010
0000
0100
0010
0000
0100
1000
0000
0000
,
1000
0000
0010
1000
0000
0010
1000
0000
0010
1000
0000
0010
,
0100
0000
0100
0001
0000
0010
0100
0000
1000
0001
0000
0000
,
0110
0000
0000
0110
0000
0000
1010
0000
0000
1010
0000
0010
,
0100
0000
0000
0101
0000
0000
1001
0000
0000
1100
0000
1000
,
0100
0000
0000
0011
0000
0000
0110
0000
0000
1100
0000
1000
,
0010
0000
0000
0110
0000
0000
0101
0000
0001
1000
0000
1000
,
0100
0000
0000
0110
0000
0000
0011
0000
0000
1001
0000
1000
,
0010
0000
0000
0110
0000
0000
0100
0000
0001
1000
0100
0010
,
0001
0000
0000
1100
0000
0000
1001
0000
0000
1010
0000
1000
,
0010
0000
0000
0110
0000
0000
0100
0000
0001
0010
0000
0100
,
1000
0000
0000
1100
0000
0000
1100
0000
0000
1000
0000
0010
,
0100
0000
0000
0110
0000
0000
0100
0000
0000
0001
0000
0010
,
0100
0000
0000
0110
0000
0000
1100
0000
0000
1000
0000
0010
,
0100
0000
0000
0101
0000
0000
0100
0000
0010
1000
0000
0100
,
0010
0000
0000
0011
0000
0000
0110
0000
0000
0100
0000
1000
,
0010
0000
0000
0110
0000
0000
1010
0000
1000
0000
0001
0100
,
0001
0000
0000
1100
0000
0000
0011
0000
0000
1000
0000
0001
,
0100
0000
0000
0110
0000
0000
1010
0000
0001
0100
0000
0000
,
1001
1010
1001
0101
,
1001
0000
0000
0110
0000
1001
0000
0000
1000
0001
0000
0000
,
1000
0000
1000
0100
0000
0100
0010
0000
0010
0001
0000
0000
,
1001
1001
0110
2002
,
0010
3003
0000
0000
0000
0000
0000
0000
0000
0000
0000
0000
;
#NOTES:
     dance-single:
     Renard:
     Easy:
     7:
     0.139,0.181,0.126,0.053,0.037:
0000
0000
0000
0000
,
0000
0000
0000
0000
,
0000
0000
0000
0000
,
0000
0000
0000
0000
,
1000
1100
0000
1100
,
0001
0101
0000
0101
,
1000
1010
0000
1010
,
0001
0011
0000
2002
,
0020
0000
0000
0000
,
0000
0000
0000
0000
,
0000
0000
0000
0000
,
0000
0000
0030
3003
,
2000
0000
0000
0000
,
3002
0000
0000
0000
0000
0000
0000
0000
0000
0000
0000
0003
,
0200
0000
0000
0000
,
0320
0000
2030
0000
,
3100
0100
0010
0010
,
0001
0001
2000
0000
,
3100
0100
0010
0010
,
0001
1000
0010
0100
,
0002
0000
0000
0000
,
0023
0000
0000
0000
,
0130
0100
0100
0100
,
1100
1100
1100
0000
,
1000
0100
1000
0100
,
1000
0000
0000
0100
0000
0000
1000
0000
0000
0100
0000
1000
,
0100
1000
0100
1000
,
0100
1100
1100
1100
,
0010
0001
0010
0001
,
0010
0000
0000
0001
0000
0000
0010
0000
0000
0001
0000
0010
,
0001
0010
0001
0010
,
0001
0011
0011
0011
,
0001
0100
0001
0100
,
0001
0000
0000
0100
0000
0000
0001
0000
0000
0100
0000
0001
,
0100
0010
1000
0010
,
1000
0000
0000
0010
0000
0000
1000
0000
0000
0010
0000
1000
,
0010
1000
0100
1000
,
0100
0000
0000
1000
0000
0000
0100
0000
0000
1000
0000
0100
,
1000
0001
0010
0001
,
0010
0000
0000
0001
0000
0000
1000
0000
1000
0010
0000
0010
,
1000
1000
1000
1000
,
1000
1000
1000
0101
,
1000
1000
1000
1000
,
1000
0101
0101
0101
,
0001
0001
0001
0001
,
0001
0001
0001
1100
,
0001
0001
0001
0001
,
0001
0000
1000
0001
0000
1000
0001
0000
1000
0001
0000
0000
,
1001
1001
1001
1001
,
0001
0100
0110
0110
,
1010
1010
1010
1010
,
0100
0001
0011
0011
,
0010
0100
1000
1010
,
0100
0000
0000
0001
0000
0000
0001
0000
0010
0000
0001
0000
,
0010
0000
0000
0100
0000
0000
1000
0000
0000
0010
0000
0100
,
0010
0000
0000
0100
0000
0000
0001
0000
1000
0001
0000
1000
,
0001
0001
1000
0100
,
1000
0001
0010
0010
,
0100
1000
0010
0010
,
0100
0000
0000
0001
0000
0000
0010
0000
0001
0010
0000
0001
,
0010
0010
0100
0100
,
1000
0000
0000
1000
0000
0000
0010
0000
1000
0000
0010
0000
,
1000
1000
0010
0100
,
0001
0000
0000
1000
0000
0000
0100
0000
1000
0001
0000
1000
,
0001
0001
0001
0001
,
0110
0000
0000
0010
0000
1000
0000
0000
0000
0101
0000
0000
,
2000
3002
0203
0320
,
0130
0100
0100
2001
,
3010
0000
0000
0000
;
#NOTES:
     dance-single:
     Renard:
     Beginner:
     3:
     0.110,0.147,0.033,0.063,0.000:
0000
0000
0000
0000
,
0000
0000
0000
0000
,
0000
0000
0000
0000
,
0000
0000
0000
0000
,
1000
0100
0000
0100
,
0010
0001
0000
0001
,
1000
0010
0010
0010
,
0100
0001
1000
0001
,
2002
0000
0000
0000
,
0000
0000
0000
0000
,
0000
0000
0000
0000
,
0000
0000
0000
3003
,
2000
0000
0000
0000
,
3200
0000
0000
0000
,
0320
0000
0000
0000
,
0032
0000
0023
0000
,
0032
0000
0000
0000
,
0023
0000
0000
0000
,
0230
0000
2300
0000
,
3020
0230
0302
0203
,
0320
0000
0000
0000
,
2030
0000
0000
0000
,
0001
0010
0100
0010
,
0001
0001
3001
0000
,
1000
1000
0100
0100
,
0010
0010
0001
0001
,
0001
0001
0010
0010
,
0100
0010
0100
0010
,
0100
0100
1000
1000
,
0010
0010
0200
0000
,
0301
0001
0010
0010
,
0001
1000
0100
0100
,
0010
0010
0001
0001
,
0010
0010
0100
0100
,
1000
1000
0010
0010
,
0100
0001
0100
0010
,
1000
1000
0001
0001
,
0010
0010
0200
0000
,
1300
1000
0001
0001
,
0010
0001
1000
1000
,
0100
0100
0100
0100
,
0100
0100
0100
0011
,
0100
0100
0100
0100
,
0100
0011
0011
0011
,
0100
0100
0100
0100
,
0100
0100
0100
0011
,
0100
0100
0100
0100
,
0100
0100
1000
0001
,
0100
0100
0100
0100
,
0010
1000
1000
1000
,
0001
0010
0010
0010
,
0100
1000
0001
1000
,
0001
0001
0001
0100
,
0010
0010
0010
1000
,
0100
0100
0100
0010
,
0001
1000
0001
1000
,
0010
0010
0010
0000
,
0100
0010
1000
0000
,
0010
0100
0001
0000
,
0100
0010
0100
0001
,
1000
0100
1000
0000
,
0001
0010
0001
0000
,
1000
1000
0010
0010
,
0100
0001
1000
0100
,
1000
1000
1000
1000
,
1100
0000
0000
1001
,
0101
0000
0000
0000
,
0100
0100
0100
1001
,
0010
0000
0000
0000
;
#NOTES:
     dance-single:
     Renard:
     Challenge:
     10:
     0.203,0.204,0.183,0.056,0.422:
0000
0000
0000
0000
,
0000
0000
0000
0000
,
0000
0000
0000
0000
,
0000
0000
0000
0000
,
M001
MM11
100M
1M1M
,
M001
M1M1
100M
11MM
,
M001
0000
M001
0M10
0000
M010
010M
0000
01M0
100M
0000
1M00
,
00M1
0000
M001
01M0
0000
M100
001M
0000
0M10
100M
001M
M100
,
00M2
M000
00M0
0M00
00M0
M000
0M00
00M0
0M00
M000
00M0
0M00
,
00M0
M000
0M00
00M0
0M00
M000
00M0
0M00
00M0
M000
0M00
M000
,
00M0
0M00
00M0
M000
0M00
M000
00M0
M000
0M00
M000
00M0
0M00
,
M000
0M00
M000
00M0
0M00
00M0
M000
0M00
M000
00M0
M000
00M0
,
M203
00M0
M000
000M
00M0
000M
M000
00M0
M000
000M
00M0
M000
,
03M2
M000
00M0
0M00
00M0
M000
0M00
M000
00M0
0M00
M000
0M00
,
M023
0M00
M000
000M
0M00
000M
M000
0M00
M000
000M
M000
000M
,
M230
000M
00M0
000M
M000
000M
23M0
000M
0M00
00M0
0M00
00M0
,
3M01
00M0
M000
00M1
0M00
000M
10M0
0M00
000M
1M00
00M0
M000
,
001M
0M00
000M
M010
0M00
M000
010M
00M0
M100
00M1
M000
0M01
,
M020
0M00
M000
000M
0M00
000M
M230
000M
00M0
000M
00M0
000M
,
13M0
000M
0M00
M001
00M0
0M00
10M0
000M
M010
010M
0000
0M01
,
2000
00M0
0M00
000M
0M00
00M0
3M02
00M0
M000
00M0
0M00
00M0
,
M203
0000
00M0
0000
000M
0000
00M0
0000
M000
0000
00M0
0000
M302
0000
00M0
0000
0M00
0000
00M0
0000
M000
0003
00M0
0000
,
M102
00M0
0M00
10M0
0M00
M000
0M13
M000
00M0
0M01
M000
00M0
,
M101
00M0
M000
01M1
0000
00M0
2M02
00M0
0000
01M0
3003
0000
,
M001
0000
M001
10M0
0000
10M0
0M10
0000
0M10
010M
0000
010M
,
00M1
0000
00M1
0M10
0000
0M10
M100
0000
M100
100M
0000
100M
,
M001
0000
M001
1M00
0000
1M00
01M0
0000
01M0
001M
0000
001M
,
0M01
0000
0M01
010M
0000
010M
M001
0000
M001
10M0
0000
10M0
,
0M10
0000
0M10
01M0
0000
01M0
M010
0000
M010
10M0
0000
10M0
,
001M
0000
001M
00M1
0000
00M1
M010
0000
M010
1M00
01M0
001M
,
00M1
0000
00M1
001M
0000
001M
M001
0000
M001
1M00
0000
1M00
,
M100
0000
M100
100M
0000
100M
0M01
0000
01M0
M010
0000
100M
,
00M1
0000
00M1
001M
0000
001M
00M1
0000
00M1
0M10
0000
0M10
,
M100
0000
M100
1M00
0000
1M00
M100
0000
M100
100M
0000
100M
,
0M01
0000
0M01
010M
0000
010M
0M01
0000
0M01
01M0
0000
01M0
,
M010
0000
M010
1M00
0000
01M0
001M
0000
00M1
0M10
0000
M100
,
100M
0000
100M
00M1
0000
00M1
0M10
0000
0M10
M100
0000
M100
,
100M
0000
100M
00M1
0000
00M1
0M10
0000
0M10
M100
1M00
01M0
,
001M
0000
001M
0M01
0000
0M01
01M0
0000
01M0
M010
0000
M010
,
10M0
0000
10M0
0M10
0000
0M10
010M
0000
M001
10M0
0000
0M10
,
010M
0000
0M01
010M
0000
0M01
010M
0000
0M01
010M
0000
0M01
,
010M
0000
0M01
010M
0000
0M01
01M0
0000
0M10
01M0
0000
00M0
,
M010
0000
10M0
M010
0000
10M0
M010
0000
10M0
M010
0000
10M0
,
M010
0000
1M00
0100
0000
0000
11MM
0000
0000
11MM
0000
0000
,
01M0
0000
0M10
01M0
0000
001M
M100
0000
0M10
01M0
0000
M010
,
010M
0000
0M10
01M0
0000
M010
010M
0000
001M
M001
0000
00M0
,
0M01
0000
010M
0M01
0000
010M
M001
0000
01M0
M001
0000
010M
,
0M10
0000
M010
1M00
0000
01M0
001M
0000
M001
1MM0
0000
0000
,
M11M
0000
0000
M11M
0000
0000
M1M1
0000
0000
M1M1
0000
0100
,
M01M
0000
0000
1M1M
0000
0000
1MM1
0000
0000
MM11
0000
0001
,
MM10
0000
0000
11MM
0000
0000
M11M
0000
0000
MM11
0000
0001
,
M1M0
0000
0000
M11M
0000
0000
1M1M
0000
1000
0MM1
0000
0001
,
MM10
0000
0000
M11M
0000
0000
11MM
0000
0000
1MM1
0000
0001
,
M1M0
0000
0000
M11M
0000
0000
0M1M
0000
1000
0MM1
0010
0100
,
10MM
0000
0000
MM11
0000
0000
1MM1
0000
0000
M1M1
0000
0001
,
M1M0
0000
0000
M11M
0000
0000
0M1M
0000
1000
01MM
0000
0010
,
MM01
0000
0000
MM11
0000
0000
MM11
0000
0000
M0M1
0000
0100
,
M01M
0000
0000
M11M
0000
0000
0M1M
0000
0000
10MM
0000
0100
,
M01M
0000
0000
M11M
0000
0000
MM11
0000
0000
M0M1
0000
0100
,
M01M
0000
0000
1M1M
0000
0000
MM10
0000
0100
M0M1
0000
0010
,
M10M
0000
0000
11MM
0000
0000
M11M
0000
0000
MM10
0000
0001
,
M1M0
0000
0000
M11M
0000
0000
M1M1
0000
0001
0MM0
1000
0010
,
1M0M
0000
0000
MM11
0000
0000
11MM
0000
0000
0MM1
0000
1000
,
0M1M
0000
0000
M11M
0000
0000
M1M1
0000
1000
0M1M
0000
0000
,
1MM1
M1M1
1MM1
1M1M
,
1MM1
0000
0000
M11M
0000
1MM1
0000
0000
M001
100M
0000
0000
,
M001
0000
M001
0M10
0000
0M10
01M0
0000
01M0
100M
0000
0000
,
1MM1
0MM0
1MM1
0MM0
M11M
0MM0
2MM2
0MM0
,
01M0
0000
3003
0MM0
0000
0000
0000
0000
0000
0000
0000
0000
0000
0000
0000
0000
0000
0000
0000
0000
0000
0000
0000
0000
;
