#TITLE:Funky Rhyhtm;
#SUBTITLE:;
#ARTIST:Jackal Queenston feat. Dean Gamin & Haiku;
#TITLETRANSLIT:;
#SUBTITLETRANSLIT:;
#ARTISTTRANSLIT:;
#CRChallenge:;
#BANNER:funky.png;
#BACKGROUND:funky-bg.png;
#LYRICSPATH:;
#CDTITLE:!cdtitle.png;
#MUSIC:funky.ogg;
#OFFSET:0.000;
#SAMPLESTART:14.710;
#SAMPLELENGTH:12.000;
#SELECTABLE:YES;
#BPMS:0.000=145.066;
#STOPS:28.000=0.827
,62.000=0.414
;
#BGCHANGES:;
#NOTES:
     dance-single:
     Renard:
     Hard:
     10:
     0.791,0.727,0.830,0.033,0.584:
0000
0000
0000
0000
,
0000
0000
0000
0000
,
0000
0000
0000
0000
,
0000
0000
0000
0000
,
1000
0000
0001
0000
0100
0000
0001
1000
0000
0000
0110
0000
1001
0000
0000
0000
,
0010
0000
1000
0000
0001
0000
0010
0000
0001
1000
0100
0010
0000
0000
1001
0000
,
0100
0000
0001
0000
1010
0000
0100
0001
0000
0000
1000
0000
0110
0000
0000
0000
,
1001
0000
0000
0000
1000
0001
1000
0000
0001
0100
0000
0001
1000
0000
0100
0000
,
1001
0000
0110
0000
1001
0000
0000
0000
0001
0000
0100
0001
1000
0000
0100
1000
,
0000
0010
1001
0000
0100
1001
0010
1001
,
0010
0001
1000
0000
0001
1000
0100
0000
0010
0000
0001
0000
1000
0010
0100
0001
,
0000
0100
1001
0000
0110
0001
0110
1000
,
0010
1000
0100
0010
0001
0000
1000
0000
0001
0000
0100
0001
1000
0000
0100
1000
,
0000
0010
1001
0000
0100
1001
0010
1001
,
0010
0001
1000
0000
0001
1000
0100
0000
0010
0000
0001
0000
1000
0010
0100
0001
,
0000
0000
0100
0000
1001
0000
0000
0000
0110
0000
0000
0000
0001
0000
1000
0100
,
0010
0000
0010
0000
0011
0000
0100
1000
0000
0000
1010
0000
0100
0001
0000
0000
,
1000
0001
0100
0000
0011
0000
0100
1000
0000
0000
1010
0000
0100
0001
0000
0000
,
1000
0001
0100
0000
1100
0000
0010
0001
0000
0000
0101
0000
0010
1000
0000
0000
,
0001
1000
0010
0000
1100
0000
0010
0001
0000
0000
0101
0000
0010
1000
0010
0100
,
0001
0000
1000
0000
0011
0000
0100
1000
0000
0000
1010
0000
0100
0001
0000
0000
,
1000
0001
0100
0000
0011
0000
0100
1000
0000
0000
1010
0000
0100
0001
0000
0000
,
1000
0001
0100
0000
1100
0000
0010
0001
0000
0000
0101
0000
0010
1000
0000
0000
,
0001
1000
0010
0000
1000
0100
1000
0000
0001
1000
0001
0000
0100
0000
0010
1000
,
0010
0000
0010
0000
0100
0001
1000
0000
0000
0000
0001
1000
0100
0000
0000
0000
,
1000
0001
0100
0000
1001
0000
0010
0000
0101
0000
0000
0000
0101
0000
0010
0000
,
1001
0000
0000
0000
0010
1000
0001
0000
0000
0000
1000
0001
0010
0000
0000
0000
,
0001
1000
0010
0000
1001
0000
0100
0000
1010
0000
0000
0000
1010
0000
0100
0000
,
1001
0000
0000
0000
0100
0001
1000
0000
0000
0000
0001
1000
0100
0000
0000
0000
,
1000
0001
0100
0000
1001
0000
0010
0000
0101
0000
0000
0000
0101
0000
0010
0000
,
1001
0000
0000
0000
0010
1000
0001
0000
0000
0000
1000
0001
0010
0000
0000
0000
,
0001
1000
0010
0000
0100
0000
0001
0000
1000
0100
0010
0001
0000
1000
0000
0001
,
0100
0000
0000
0001
0000
0000
1000
0000
0000
0000
0000
0000
0001
0000
0000
0000
0001
0000
0000
0000
0001
0000
0000
0000
0100
0000
0000
0000
0000
0000
0010
0000
0000
0000
0000
0000
1000
0000
0000
0000
0000
0000
0001
0000
0100
0000
0001
0000
,
0100
0010
1000
0000
1011
0000
0000
0000
0000
0000
0000
0000
1000
0000
0001
1000
,
0100
0000
1000
0000
1011
0000
0000
0000
0100
0000
0000
0000
1000
0100
0010
0001
,
1000
0000
0110
0000
0001
0000
1000
0000
0110
0000
0000
0000
1000
1000
0001
0001
,
0100
0000
0000
0000
0010
1000
0000
0001
0010
0000
1100
0000
0000
0000
0011
0000
,
0100
1000
0000
0000
0001
0000
0100
0001
1000
0000
0100
1000
0000
0000
0010
0000
,
1001
0000
0000
0000
0100
0000
1001
0000
0010
0000
1001
0000
0010
0001
1000
0000
,
0001
1000
0100
0000
0010
0000
0001
0000
1000
0010
0100
0001
0000
0000
0100
0000
,
1001
0000
0000
0000
0110
0000
0001
0000
0110
0000
1000
0000
0010
1000
0100
0010
,
0001
0000
1000
0000
0001
0000
0100
0001
1000
0000
0100
1000
0000
0000
0010
0000
,
1001
0000
0000
0000
0100
0000
1001
0000
0010
0000
1001
0000
0010
0001
1000
0000
,
0001
1000
0100
0000
0010
0000
0001
0000
1000
0010
0100
0001
0000
0000
0100
0000
,
1001
0000
0000
0000
0110
0000
0000
0000
0000
0000
1011
0000
1000
1000
0001
0000
,
0100
0001
1000
0000
1000
0000
0010
1000
0001
0000
0010
0001
0000
0000
0100
0000
,
1001
0000
0000
0000
0010
0000
1001
0000
0100
0000
1001
0000
0100
1000
0001
0000
,
1000
0001
0010
0000
0100
0000
1000
0000
0001
0100
0010
1000
0000
0000
0010
0000
,
1001
0000
0000
0000
0110
0000
1000
0000
0110
0000
0001
0000
0100
0001
0010
0100
,
1000
0000
0001
0000
1000
0000
0010
1000
0001
0000
0010
0001
0000
0000
0100
0000
,
1001
0000
0000
0000
0010
0000
1001
0000
0100
0000
1001
0000
0100
1000
0001
0000
,
1000
0001
0010
0000
0100
0000
1000
0000
0001
0100
0010
1000
0000
0000
0010
0000
,
1001
2002
0020
3133
,
0001
1000
0000
0000
1111
0000
0000
0000
0000
0000
0000
0000
0000
0000
0000
0000
;
#NOTES:
     dance-single:
     Renard:
     Medium:
     9:
     0.582,0.552,0.229,0.022,0.246:
0000
0000
0000
0000
,
0000
0000
0000
0000
,
0000
0000
0000
0000
,
0000
0000
0000
0000
,
1000
0000
0001
0000
0100
0000
0010
1000
0000
0000
0010
0000
1000
0000
0000
0000
,
0000
0010
1000
0100
0010
0001
1000
0001
,
0100
0000
0001
0000
1000
0000
0010
1000
0000
0000
0001
0000
0100
0000
0010
0000
,
1001
0000
0000
0000
0000
0000
0000
0000
0001
1000
0000
0001
1000
0000
0001
0000
,
1000
0000
1000
0000
1001
0000
0000
0000
1000
0000
0010
0000
0100
0000
0001
1000
,
0000
0001
0100
0010
1000
0001
1010
0100
,
0001
0000
1000
0000
1001
0000
0000
0000
1000
0000
0100
0000
0010
0000
0001
1000
,
0000
0001
0100
0010
1001
0100
1001
0000
,
1010
0000
0001
0000
1010
0000
0000
0000
1000
0000
0010
0000
0100
0000
0001
0010
,
0000
0100
1000
0000
0001
0100
1001
0000
,
0100
0000
0010
0000
1001
0000
0000
0000
1000
0000
0010
0000
0100
0000
0001
0010
,
0000
0100
1000
0001
0110
0000
0010
1000
,
0001
0000
0100
0000
0001
0000
0001
1000
0000
0000
0010
0000
0010
0100
0000
0000
,
0010
0000
1000
0000
0100
0000
0100
0010
0000
0000
0001
0000
0001
1000
0000
0000
,
0010
0000
0100
0000
0001
0000
0001
0010
0000
0000
0100
0000
0100
1000
0000
0000
,
0010
0000
0100
0000
0001
0000
1000
0000
0100
0000
0010
0000
0001
1000
0001
1000
,
0001
0000
0000
0000
1000
0000
1000
0010
0000
0000
0100
0000
0100
0001
0000
0000
,
0010
0000
0100
0000
1000
0000
1000
0001
0000
0000
0100
0000
0100
0010
0000
0000
,
1000
0000
0001
0000
0010
0000
0010
0100
0000
0000
1000
0000
1000
0010
0000
0000
,
0100
0001
1000
0100
0010
0001
1000
0000
,
1001
0000
1000
0001
0100
0010
1000
0001
,
0100
0010
1000
0000
1000
0000
0001
0000
,
0001
0000
1000
0100
0010
0001
1000
0010
,
0100
0001
0100
0000
0010
0000
0010
0000
1000
0000
0000
0000
0001
0000
0001
0000
,
0100
0000
0010
1000
0100
0010
0001
1000
,
0100
1000
0100
0000
1000
0000
0010
0000
0100
0000
0000
0000
0001
0000
0100
0000
,
0010
0000
1000
1000
0000
0001
0001
0000
,
0010
0000
0010
0000
0100
0000
0100
0000
1000
0000
0000
0001
0000
0100
0000
0001
,
1000
0000
0000
0001
0000
0000
1000
0000
0001
0000
1000
0000
0001
0000
0000
0000
0000
0000
0100
0000
0000
0000
0000
0000
,
0001
1000
0000
0000
0100
0000
0000
0000
0000
0000
0000
0000
1000
0000
0100
0000
,
1000
0001
1000
0000
0000
0000
0001
0100
,
0010
0000
1000
0000
0010
0000
0000
0000
0000
0000
0000
0000
1000
0010
1000
0010
,
1000
0000
0000
0000
0010
1000
0000
0010
1000
0000
0010
0000
0000
0000
1000
0000
,
0001
1000
0000
0000
0001
0000
0100
0000
0010
0000
1000
0100
0000
0000
1000
0000
,
0010
0100
0001
0010
1001
0000
0100
0001
,
1010
0000
0000
0000
0100
0000
0001
0000
1000
0000
0100
1000
0000
0000
0000
0000
,
0010
0100
0001
1000
0110
0000
0010
1000
,
0101
0000
0000
0000
0010
0000
1000
0000
0100
0000
0010
0001
0000
0000
0010
0000
,
0100
0000
1000
0010
0101
0000
0010
1000
,
0101
0000
0000
0000
0010
0000
1000
0000
0100
0000
0010
0001
0000
0000
0010
0000
,
0100
0000
1000
0001
1000
0001
0100
0010
,
1000
0000
0001
1000
0010
0000
1000
0010
,
0100
0000
0001
0100
0010
1000
0001
0100
,
0010
1000
0010
0000
1000
0000
0100
0000
0010
0000
0001
0000
0000
0000
1000
0000
,
0100
0000
1000
0010
0100
0001
1000
0001
,
1000
0100
1000
0000
0001
0000
0100
0000
0001
1000
0001
0000
0000
0000
1000
0000
,
1100
0000
1000
0100
0010
0001
1000
0001
,
0100
0001
0100
0000
0001
0000
1000
0000
0100
1000
0100
0000
0000
0000
1000
0000
,
0100
0000
2002
0000
3013
0000
1000
0001
,
0100
0010
0000
0000
1001
0000
0000
0000
0000
0000
0000
0000
0000
0000
0000
0000
;
#NOTES:
     dance-single:
     Renard:
     Easy:
     6:
     0.402,0.407,0.098,0.022,0.000:
0000
0000
0000
0000
,
0000
0000
0000
0000
,
0000
0000
0000
0000
,
0000
0000
0000
0000
,
1000
1000
0001
0000
,
0001
0000
1000
0001
1000
0010
1000
0001
,
1000
0100
1000
0001
,
1001
0000
1000
1000
,
0001
0001
0100
0000
0010
1000
0100
0000
,
0100
0000
1000
0000
0010
0100
0010
0100
,
0001
0100
0001
0100
0001
0010
0100
0000
,
0100
0000
0000
0000
0010
0001
0010
0001
,
1000
0001
0100
0001
1000
0100
1000
0001
,
0000
0000
1000
0000
0010
1000
0010
0000
,
1000
0001
1000
0000
0001
0100
0001
0010
,
0001
1000
0001
1000
,
0100
0000
1000
0000
0001
0000
0100
0001
,
0100
0000
0001
0000
1000
0000
0100
1000
,
0100
0000
1000
0000
0001
0000
0010
0001
,
0010
0000
0001
0000
1000
0000
0010
1000
,
0010
0000
1000
0000
0001
0000
0100
0001
,
0100
0000
0001
0000
1000
0000
0100
1000
,
0100
0000
1000
0000
0001
0000
0010
0001
,
0010
0000
0001
0000
1000
0000
0010
1000
,
0001
1000
0100
0000
0100
0000
1000
0001
,
1000
0010
0010
0100
,
0100
0000
0001
1000
0000
0001
1000
0000
,
0001
1000
0001
0000
0001
0000
0100
0000
,
0100
0000
0010
1000
0000
0010
1000
0000
,
0010
1000
0010
0000
0010
0000
1000
0000
,
1000
0000
0001
0100
0000
0001
0100
0000
,
0001
0100
0001
0000
0001
0000
1000
0000
,
1000
0100
1000
1100
,
1001
0101
0000
1000
,
1000
0101
0000
0010
,
1001
0000
0110
0000
0000
0000
1000
0001
,
1000
0010
0000
0000
,
1001
0000
1000
0000
0100
0000
0010
0001
,
0010
0000
0001
0000
0100
0000
0010
1000
,
0010
0000
1000
0000
0100
0000
0010
0001
,
0010
0000
0001
1000
0001
1000
0001
0100
,
0001
0010
0001
1000
0001
0000
1000
0000
,
0100
0000
0010
0100
0010
0000
0001
0000
,
1000
0000
0001
1000
0001
0000
1000
0000
,
0010
0000
0100
0010
0000
0100
0010
0000
,
0100
0010
1000
0010
,
1000
0000
0001
0100
0001
0000
1000
0001
,
1000
0000
0100
1000
0100
0000
1000
0000
,
0001
0000
0010
0001
1000
0000
0001
1000
,
0010
0000
1000
0000
0001
0100
0001
0000
,
1000
0000
0001
1000
0100
0000
1000
0001
,
0100
0000
0001
0000
1000
0010
0000
1000
,
0001
2002
3013
0100
,
0001
1000
0100
0000
0000
0000
0000
0000
;
#NOTES:
     dance-single:
     Renard:
     Beginner:
     3:
     0.253,0.262,0.033,0.022,0.000:
0000
0000
0000
0000
,
0000
0000
0000
0000
,
0000
0000
0000
0000
,
0000
0000
0000
0000
,
1000
1000
0001
0000
,
0001
1000
0100
0010
,
0001
0001
1000
0000
,
0010
1000
0001
0000
,
1000
1001
1000
0001
,
0100
0000
0001
1000
,
0100
0010
0010
0001
,
0001
0000
1000
0010
,
1000
0001
0100
0001
,
1000
0000
0100
1000
,
0001
0010
0001
1000
,
0001
0000
0101
0001
,
1000
0100
0000
1000
,
0001
0010
0000
0001
,
1000
0010
0000
1000
,
0001
0100
0001
1000
,
0001
0010
0001
1000
,
0000
0010
1000
0001
,
0000
1000
0001
0100
,
0000
0001
0001
1000
,
0000
0010
1000
0001
,
0100
0001
0001
1000
,
1000
0010
0000
0010
,
0000
0100
0100
0001
,
1000
0010
0000
1000
,
0000
0001
0001
0100
,
0001
1000
0000
0001
,
0000
1000
1000
0001
,
0000
0100
0000
0010
,
0000
1000
0000
0001
,
0100
0001
0000
1000
,
0001
0100
0000
0001
,
0001
1000
0001
0010
,
0000
0001
1000
0010
,
1000
0001
0100
0001
,
1000
0010
0000
1000
,
0000
0001
0001
0100
,
0100
0001
0000
1000
,
0010
1000
0000
0001
,
0000
0100
0100
0001
,
0000
1000
0000
0000
,
0010
1000
0000
1000
,
0010
0001
0000
0001
,
0010
1000
0000
1000
,
0100
0001
0100
1000
,
0001
1000
0000
1000
,
0010
0001
0000
0001
,
0010
1000
0001
1000
,
0010
1000
0000
0100
,
2002
3013
0000
0000
;
