#TITLE:Freedom;
#SUBTITLE:;
#ARTIST:m1dy;
#TITLETRANSLIT:;
#SUBTITLETRANSLIT:;
#ARTISTTRANSLIT:;
#CRChallenge:;
#BANNER:free.jpg;
#BACKGROUND:freedom-bg.jpg;
#LYRICSPATH:;
#CDTITLE:;
#MUSIC:freedom.ogg;
#OFFSET:0.000;
#SAMPLESTART:20.880;
#SAMPLELENGTH:12.000;
#SELECTABLE:YES;
#BPMS:0.000=400.000;
#STOPS:456.000=0.900
;
#BGCHANGES:;
#NOTES:
     dance-single:
     Renard:
     Hard:
     12:
     0.797,1.000,0.196,0.765,0.000:
0000
0000
0000
0000
,
0000
0000
0000
0000
,
0000
0000
0000
0000
,
0000
0000
0000
0000
,
2M22
0000
0M00
0000
0M00
0M00
0M00
0M00
,
0000
0M00
0M00
0000
0M00
0M00
0M00
0000
,
0M00
0000
0M00
0000
0M00
0M00
0M00
0M00
,
3033
0M00
0M00
0000
000M
000M
100M
0200
,
20M0
00M0
000M
0022
,
0000
0000
0000
0000
,
0000
0000
0000
0000
3333
0000
0000
M000
,
0000
M000
02M2
0000
M000
0000
00M0
0000
,
2020
0000
0000
0000
,
0000
0000
0000
0000
,
3333
0000
0000
0000
0000
0000
0000
M000
,
0000
M000
000M
0000
M000
000M
M000
0000
,
00M0
0000
0M00
0000
000M
M000
0M00
00M0
,
0000
000M
M000
0000
0M00
M000
000M
0000
,
00M0
0000
000M
0000
M000
00M0
0M00
00M0
,
0000
00M0
2002
0000
0000
0000
3003
0000
,
0101
0100
0001
0100
,
1000
0100
1000
0100
,
0010
0100
0010
0100
,
0001
0000
0100
0000
0001
0000
0100
0001
,
1000
0100
1000
0101
,
0001
0100
0001
0100
,
0010
0100
0010
0100
,
1000
1100
1000
0100
,
1010
0010
1000
0010
,
0001
0010
0001
0010
,
0100
0010
0100
0010
,
0100
0001
0100
0001
,
1001
0001
1000
0001
,
1000
0001
1000
0002
,
2000
0000
0000
0000
,
0000
0010
00M0
30M3
,
1000
0000
0100
0000
1000
0001
1000
0001
,
0000
0000
1000
0000
0001
0100
0001
0000
,
1000
0000
0100
0000
1000
0001
1000
0001
,
0000
0000
0010
0000
0001
0100
0001
0000
,
1000
0000
0100
0000
0010
0001
0010
0001
,
0000
0000
1000
0000
0100
1000
0100
0000
,
1000
0000
0010
0000
0100
0001
0100
0001
,
0000
0000
0100
0000
0010
1000
0010
0000
,
1000
0000
0100
0000
1000
0001
1000
0001
,
0000
0000
0010
0000
0001
0100
0001
0000
,
1000
0000
0010
0000
0100
0001
0100
0001
,
0000
0000
1000
0000
0100
1000
0100
0000
,
1000
0000
0001
0000
0100
0001
0100
0001
,
0000
0000
0010
0000
0100
1000
0100
0000
,
1000
0000
0010
0000
0100
0001
0100
0001
,
0000
0000
0001
0000
1000
0100
1000
0000
,
0001
0000
0010
0000
0001
1000
0001
1000
,
0000
0000
0001
0000
1000
0010
1000
0000
,
0001
0000
0010
0000
0001
1000
0001
1000
,
0000
0000
0100
0000
1000
0010
1000
0000
,
0001
0000
0010
0000
0100
1000
0100
1000
,
0000
0000
0001
0000
0010
0001
0010
0000
,
0001
0000
0100
0000
0010
1000
0010
1000
,
0000
0000
0010
0000
0100
0001
0100
0000
,
0001
0000
0010
0000
0001
0100
0001
0100
,
0000
0000
0010
0000
1000
0100
1000
0000
,
0001
0000
0010
0000
0001
0010
0001
0000
,
1000
0000
0100
1000
0001
0000
1000
0000
,
0001
0001
0001
0001
,
0001
0001
0001
0001
,
1000
0100
1000
0100
1000
0100
1000
0100
,
1000
0100
1000
0100
1000
0100
1000
0100
,
2000
0000
0000
3200
,
0000
0310
0002
0000
,
2003
0000
0000
3020
,
0000
0130
0002
0000
,
0023
0000
0000
0000
,
0000
0000
0000
0000
,
0230
0000
0000
2300
,
0000
0000
3020
0000
,
0230
0000
0000
0302
,
0000
0000
0023
0000
,
0230
0000
0000
2300
,
0000
0000
0000
0000
3010
0000
0100
0010
,
0200
0000
0000
0000
,
0000
0000
0000
0000
,
0020
0000
0000
0000
,
0000
1001
0330
0000
,
0010
0000
1000
0000
0010
1000
0010
0000
,
0100
0000
0001
0100
0001
0000
1000
0000
,
0001
0000
0010
0000
0100
1000
0100
0000
,
1000
0000
0001
0100
0001
0000
1000
0000
,
0001
0000
0010
0000
0100
1000
0100
0000
,
1000
0000
0010
0100
0010
0000
1000
0000
,
0001
0000
0010
0000
0001
1000
0001
0000
,
1000
0000
0100
1000
0100
0000
1000
0000
,
0010
0000
0100
0000
0001
1000
0001
0000
,
0010
0100
0010
0001
,
0100
0000
0001
0000
0100
0001
0100
0000
,
0010
0000
1000
0010
1000
0000
0001
0000
,
1000
0000
0100
0000
0010
0001
0010
0000
,
0001
1000
0010
1000
,
0001
0000
0010
0000
0100
1000
0100
0000
,
1000
0000
0010
0100
0010
0000
1000
0000
,
0001
0001
0100
0100
,
0010
0010
1000
1000
,
0100
0100
0010
0010
,
0001
0001
1000
0001
,
0100
0100
0010
0010
,
1000
1000
0001
0001
,
0010
0010
0100
0100
,
1000
0001
1000
0001
2000
0000
0000
0000
,
3001
0001
0001
0100
,
0100
0100
0010
0010
,
1000
1000
1000
0100
,
0100
0100
0010
0010
,
0011
0011
0011
0011
,
0011
0011
0011
0011
,
0000
0000
2000
0001
,
0000
3002
0000
0100
,
0000
0100
0203
0010
,
0000
0320
0000
1000
,
0000
1000
2030
0100
,
0000
3200
0000
0001
,
0000
1000
1000
0010
,
0000
0001
0000
0010
,
0000
1000
2300
0010
,
0000
3020
0000
0100
,
0000
0100
0230
0001
,
0000
0302
0000
0010
,
0000
0000
0013
0001
0020
0000
0100
0000
,
0000
1000
0000
0001
,
0000
0100
0230
1000
,
0000
2300
0000
0010
,
0000
0010
302M
0M00
,
000M
M230
M000
0301
,
M200
00M0
230M
00M0
,
000M
32M0
000M
M310
,
200M
00M0
320M
00M0
,
000M
M000
00M0
000M
,
M000
00M0
M302
00M0
,
M000
02M3
M000
000M
,
M320
0M00
M032
0M00
,
M000
0M23
M000
013M
,
20M0
000M
3M20
000M
,
M000
023M
M000
03M1
,
M200
000M
M320
000M
,
0M00
M000
000M
0M00
,
000M
003M
1M00
00M2
,
0M00
20M0
0000
0110
,
0000
0000
3003
0000
M020
0M00
000M
M000
,
0M30
M000
002M
0M00
000M
M000
0M00
M000
,
000M
0M00
003M
M000
02M0
000M
M000
00M0
,
M300
000M
02M0
000M
M000
00M0
000M
M000
,
00M0
M000
030M
00M0
M002
0M00
00M0
M000
,
00M3
0M00
200M
0M00
00M0
000M
0M00
00M0
,
0M00
000M
00M0
000M
0M00
00M0
000M
0M00
,
000M
00M0
0M00
000M
0M00
00M0
0M00
000M
,
00M0
000M
0M00
000M
32M0
000M
00M0
000M
,
M300
00M0
020M
M000
00M0
M000
000M
00M0
,
000M
M000
00M0
M000
032M
M000
0M00
000M
,
M030
000M
0M20
000M
M000
0M00
000M
M000
,
0M30
M000
0M01
M010
020M
M000
00M0
000M
,
M000
000M
00M0
000M
M000
00M0
M000
000M
,
00M0
000M
M000
000M
23M0
000M
0M00
000M
,
00M0
000M
32M0
000M
00M0
M000
000M
00M0
,
0300
0000
0000
0000
;
#NOTES:
     dance-single:
     Renard:
     Medium:
     10:
     0.703,1.000,0.078,0.618,0.000:
0000
0000
0000
0000
,
0000
0000
0000
0000
,
0000
0000
0000
0000
,
0000
0000
0000
0000
,
2002
0000
0000
0000
,
0000
0000
0000
0000
,
0000
0000
0000
0000
,
3003
0000
0000
0000
0000
0000
1000
0100
,
1000
0000
0000
0022
,
0000
0000
0000
0000
,
0000
0000
0033
0000
,
0000
0101
0000
0000
,
2020
0000
0000
0000
,
0000
0000
0000
0000
,
3030
0000
0000
0000
,
0000
0000
0000
0000
,
0000
0000
0000
0000
,
0000
0000
0000
0000
,
0000
0000
0000
0000
,
0000
2002
0000
3003
,
0001
0100
0001
0100
,
0010
0100
0010
0100
,
1000
0100
1000
0100
,
0010
0100
0010
0100
,
0001
0100
0001
0100
,
0010
0100
0010
0100
,
1000
0100
1000
0100
,
0010
0100
0010
0100
,
0001
0010
0001
0010
,
0100
0010
0100
0010
,
1000
0010
1000
0010
,
0100
0010
0100
0010
,
0001
1000
0001
0100
,
0001
1000
0100
0010
,
2002
0000
0000
0000
,
3003
0020
0000
0030
,
1000
0000
0100
0000
0010
0000
0001
1000
,
0000
0001
0010
0100
,
1000
0000
0001
0000
0100
0000
0010
1000
,
0000
0001
0100
0010
,
1000
0000
0100
0000
0010
0000
0001
1000
,
0000
0001
0010
0100
,
1000
0000
0001
0000
0100
0000
0010
1000
,
0000
0001
0100
0010
,
1000
0000
0100
0000
0010
0000
0001
0010
,
0000
0001
0010
0100
,
1000
0000
0001
0000
0100
0000
0010
1000
,
0000
0010
0100
0001
,
0010
0000
0100
0000
1000
0000
0001
1000
,
0000
0010
0100
0001
,
0010
0000
0100
0000
1000
0000
0001
0100
,
0000
0010
1000
0100
,
0010
0000
0001
0000
0010
0000
0100
1000
,
0000
0001
0010
0001
,
1000
0000
0010
0000
0100
0000
0001
1000
,
0000
0100
1000
0001
,
0010
0000
0001
0000
1000
0000
0001
1000
,
0000
0010
0100
0001
,
0100
0000
0010
0000
1000
0000
0100
0010
,
0000
0001
0010
0100
,
1000
0000
0001
0000
0100
0000
0010
1000
,
0000
0001
0100
0010
,
1000
0000
0100
0000
0010
0000
0001
0010
,
0000
0001
0010
0100
,
10M0
0M01
10M0
0M01
,
10M0
0M01
10M0
0M01
,
1000
0001
1000
0001
1000
0001
1000
0001
,
1000
0001
1000
0001
1000
0001
1000
0001
,
2000
0000
0000
3200
,
0000
0310
0002
0000
,
2003
0000
0000
3020
,
0000
0130
0002
0000
,
0023
0000
0000
0000
,
0000
0000
0000
0000
,
0230
0000
0000
2300
,
0000
0000
3020
0000
,
0230
0000
0000
0302
,
0000
0000
0023
0000
,
0230
0000
0000
2300
,
0000
0000
0000
0000
3010
0000
0100
0010
,
0200
0000
0000
0000
,
0000
0000
0000
0000
,
0020
0000
0000
0330
,
0000
2002
0000
3003
,
0010
1000
0100
0010
,
0001
0100
0010
1000
,
0100
0010
0001
0100
,
0010
1000
0100
1000
,
0001
0010
0100
1000
,
0001
0100
0010
1000
,
0100
0010
0001
1000
,
0001
0100
0001
0100
,
0010
1000
0100
0010
,
0001
0100
0010
1000
,
0100
0010
0001
0100
,
0010
1000
0010
1000
,
0010
0100
0001
0010
,
0100
1000
0001
0100
,
0010
1000
0100
0010
,
0001
0010
0001
0010
,
0100
1000
0100
1000
,
0001
0000
0100
0000
0010
1000
0010
0000
,
0100
0001
0010
0100
,
1000
0000
0001
0000
0100
0001
0100
0000
,
0001
1000
0100
0010
,
0001
0000
1000
0000
0010
1000
0010
0000
,
0100
0001
0010
0100
,
1000
0000
0001
0000
0100
0001
0100
0000
,
0010
1000
0100
0010
,
0001
0000
1000
0000
0001
0100
0001
0000
,
0010
0100
1000
0001
,
0100
0000
0010
0000
1000
0100
1000
0000
,
0001
0001
1000
1000
,
0001
0001
1000
1000
,
0000
0000
1000
0001
,
0000
0001
0000
0001
,
0000
0100
0010
1000
,
0000
1000
0000
1000
,
0000
0010
0100
0001
,
0000
0001
0000
0001
,
0000
0010
0100
1000
,
0000
1000
0000
1000
,
0000
0001
0100
0010
,
0000
0010
0000
0010
,
0000
1000
0100
0010
,
0000
0010
0000
0010
,
0000
0001
0010
0100
,
0000
0100
0000
0100
,
0000
1000
0010
0100
,
0000
0001
0000
1000
,
0000
0001
0200
0000
,
0000
0320
0000
1030
,
0020
0000
0032
0000
,
0000
0023
0000
0130
,
0002
0000
0023
0000
,
0000
0000
0000
0000
,
0000
0000
2030
0000
,
0000
3020
0000
0000
,
0230
0000
2300
0000
,
0000
3200
0000
0310
,
0002
0000
0203
0000
,
0000
0320
0000
1030
,
0020
0000
0230
0000
,
0000
0000
0000
0000
,
0000
0300
0001
2000
,
0000
3001
0000
0220
,
0000
0330
0200
0000
,
0300
0200
0000
0000
,
0000
0300
0020
0000
,
0030
0020
0000
0000
,
0000
0030
2000
0000
,
3000
0002
0000
0000
,
0000
0000
0000
0000
,
0000
0000
0000
0000
,
0000
0000
0023
0000
,
0030
0020
0000
0000
,
0000
0000
0230
0000
,
0300
0200
0000
0000
,
0300
0000
1000
0100
0020
0000
0000
0000
,
0000
0000
0000
0000
,
0000
0000
0032
0000
,
0000
0023
0000
0000
,
0030
0000
0000
0000
;
#NOTES:
     dance-single:
     Renard:
     Easy:
     9:
     0.517,0.716,0.059,0.177,0.000:
0000
0000
0000
0000
,
0000
0000
0000
0000
,
0000
0000
0000
0000
,
0000
0000
0000
0000
,
1001
0000
0000
0000
,
0000
0000
0000
0000
,
0000
0000
0000
0000
,
0000
0000
0000
0000
,
0110
0000
0000
1010
,
0000
0000
0000
0000
,
0000
0000
0000
0000
,
0000
0101
0000
0000
,
0011
0000
0000
0000
,
0000
0000
0000
0000
,
0000
0000
0000
0000
,
0000
0000
0000
0000
,
0000
0000
0000
0000
,
0000
0000
0000
0000
,
0000
0000
0000
0000
,
0000
0000
0000
0000
,
1000
0000
0001
0000
,
1000
0000
0001
0000
,
0100
0000
0010
0000
,
0100
0000
0010
0000
,
1000
0000
0001
0000
,
1000
0000
0001
0000
,
0100
0000
0010
0000
,
0100
0000
0010
0000
,
1000
0000
0001
0000
,
1000
0000
0001
0000
,
0100
0000
0010
0000
,
0100
0000
0010
0000
,
1000
0000
0001
0000
,
0100
0000
0010
0000
,
2000
0000
0000
0000
,
0000
0000
0000
0000
,
3001
0100
0010
1000
,
0100
0010
0001
0100
,
0010
1000
0100
0010
,
0001
0010
0001
0000
,
0001
0010
0100
1000
,
0001
0100
0010
1000
,
0100
0010
0001
1000
,
0100
1000
0100
0000
,
1000
0010
0100
0001
,
0010
0100
1000
0001
,
0100
0010
1000
0100
,
1000
0001
1000
0000
,
0001
0010
0100
1000
,
0001
0100
0010
1000
,
0100
0010
0001
1000
,
0001
0100
0001
0000
,
0100
0010
0100
0010
,
1000
0010
1000
0000
,
0001
0100
0001
0100
,
0010
0100
0010
0000
,
1000
0010
1000
0010
,
0100
0010
0100
0000
,
0001
0100
0001
0100
,
0010
0100
0010
0000
,
1000
0100
1000
0100
,
0010
0100
0010
0000
,
0001
0010
0001
0010
,
0100
0010
0100
0000
,
0010
0100
1000
0001
,
0100
0010
1000
0100
,
0020
0000
0000
0000
,
0000
0000
0000
0000
,
0031
0000
0000
0010
,
0000
0000
0100
0000
,
1000
0000
0000
0010
,
0000
0000
0100
0000
,
0002
0000
0000
0000
,
0000
0000
0000
0000
,
1003
0000
0000
0100
,
0000
0000
0010
0000
,
0001
0000
0000
1000
,
0000
0000
0010
0000
,
0100
0000
0000
0001
,
0000
0000
1000
0000
,
0200
0000
0000
0000
,
0000
0000
0000
0000
,
0000
0000
0000
0000
,
0000
0000
0000
0000
,
1300
0100
0010
0001
,
0000
0001
0010
0100
,
1000
0001
0010
0100
,
0000
0100
0010
0001
,
1000
0100
0010
0001
,
0000
0001
0010
0100
,
1000
0001
0010
0100
,
0000
0100
0010
0001
,
1000
0100
0010
0001
,
0000
0001
1000
0100
,
0010
0001
1000
0001
,
0000
0001
0010
0100
,
1000
0100
0010
0001
,
0000
0001
0010
0100
,
0010
0001
1000
0100
,
0000
0100
1000
0001
,
0010
0100
1000
0100
,
0000
0100
1000
0001
,
0010
0100
0010
0001
,
0000
0001
0010
0100
,
1000
0001
0010
0100
,
0000
0100
0010
0001
,
1000
0100
0010
0100
,
0000
0100
0010
0001
,
0010
0100
1000
0100
,
0010
0001
0010
0100
,
1000
0100
0010
0001
,
1000
0100
0010
0001
,
0010
0100
1000
0001
,
0010
0100
1000
0001
,
0000
0000
1000
0001
,
0000
1000
0000
0001
,
0000
1000
0001
1000
,
0000
0001
0000
1000
,
0000
0001
1000
0001
,
0000
1000
0000
0001
,
0000
1000
0001
1000
,
0000
0001
0000
1000
,
0000
0001
0100
0010
,
0000
0100
0000
0010
,
0000
0100
0010
0100
,
0000
0010
0000
0100
,
0000
0010
0100
0010
,
0000
0100
0000
0010
,
0000
0100
0010
0100
,
0000
0010
0000
0100
,
0000
0010
1000
0000
,
0010
0000
1000
0000
,
0010
0000
0100
0000
,
0001
0000
0100
0000
,
0001
0000
0020
0000
,
0000
0000
0000
0000
,
0000
0000
0230
0000
,
0000
2300
0000
0000
,
3010
0000
0200
0000
,
0000
0002
0300
0000
,
0023
0000
0230
0000
,
0000
2300
0000
0000
,
3020
0000
0230
0000
,
0000
0000
0000
0000
,
0000
0000
0320
0000
,
0000
0130
0000
0110
,
0000
0000
0001
0000
,
0000
0001
0000
0000
,
0000
0000
1000
0000
,
0000
1000
0000
0000
,
0000
0000
0010
0000
,
0000
0010
0000
0000
,
0000
0000
0000
0000
,
0000
0000
0000
0000
,
0000
0000
1000
0000
,
0000
1000
0000
0000
,
0000
0000
0001
0000
,
0000
0001
0000
0000
,
0000
0000
0020
0000
,
0000
0000
0000
0000
,
0000
0000
0230
0000
,
0000
2300
0000
0000
,
0000
3000
0000
0000
;
#NOTES:
     dance-single:
     Renard:
     Beginner:
     7:
     0.356,0.553,0.029,0.226,0.000:
0000
0000
0000
0000
,
0000
0000
0000
0000
,
0000
0000
0000
0000
,
0000
0000
0000
0000
,
1001
0000
0000
0000
,
0000
0000
0000
0000
,
0000
0000
0000
0000
,
0000
0000
0000
0000
,
1001
0000
0000
0000
,
0000
0000
0000
0000
,
0000
0000
0000
0000
,
0000
0000
0000
0000
,
0110
0000
0000
0000
,
0000
0000
0000
0000
,
0000
0000
0000
0000
,
0000
0000
0000
0000
,
0000
0000
0000
0000
,
0000
0000
0000
0000
,
0000
0000
0000
0000
,
0000
0000
0000
0000
,
1000
0000
1000
0000
,
1000
0000
1000
0000
,
0001
0000
0001
0000
,
0001
0000
0001
0000
,
0100
0000
0100
0000
,
0100
0000
0100
0000
,
0010
0000
0010
0000
,
0010
0000
0010
0000
,
1000
0000
0000
0000
,
0001
0000
0000
0000
,
1000
0000
0100
0000
,
1000
0000
0000
0000
,
0001
0000
0000
0000
,
0100
0000
0000
0000
,
0020
0000
0000
0000
,
0000
0000
0000
0000
,
1030
0000
0010
1000
,
0000
0010
1000
0000
,
0001
0000
0100
0001
,
0000
0100
0001
0000
,
1000
0000
0100
1000
,
0000
0100
1000
0000
,
0001
0000
0010
0001
,
0000
0010
0001
0000
,
1000
0000
0010
1000
,
0000
0010
1000
0000
,
0001
0000
0100
0001
,
0000
0100
0001
0000
,
1000
0000
0100
1000
,
0000
0100
1000
0000
,
0001
0000
0010
0001
,
0000
0010
0001
0000
,
1000
0000
0010
1000
,
0000
0010
1000
0000
,
0001
0000
0100
0001
,
0000
0100
0001
0000
,
1000
0000
0100
1000
,
0000
0100
1000
0000
,
0001
0000
0010
0001
,
0000
0010
0001
0000
,
1000
0000
1000
0000
,
0010
0000
0010
0000
,
0100
0000
0100
0000
,
0001
0000
0001
0000
,
0010
0000
0100
0000
,
1000
0000
0001
0000
,
0020
0000
0000
0000
,
0000
0000
0000
0000
,
0130
0000
0000
0100
,
0000
0000
0100
0000
,
1000
0000
0000
1000
,
0000
0000
1000
0000
,
0002
0000
0000
0000
,
0000
0000
0000
0000
,
0013
0000
0000
0100
,
0000
0000
1000
0000
,
0001
0000
0000
0001
,
0000
0000
0001
0000
,
0010
0000
0000
0010
,
0000
0000
0010
0000
,
0002
0000
0000
0000
,
0000
0000
0000
0000
,
0000
0000
0000
0000
,
0000
0000
0000
0000
,
1003
0000
1000
0000
,
0100
0000
1000
0100
,
1000
0000
1000
0000
,
0100
0000
1000
0100
,
0010
0000
0001
0000
,
0010
0000
0001
0010
,
0001
0000
0001
0000
,
0010
0000
0001
0010
,
0001
0000
0001
0000
,
0100
0000
0001
0100
,
0001
0000
0001
0000
,
0100
0000
0001
0100
,
0001
0000
0100
0000
,
0010
0000
1000
0000
,
0010
0000
1000
0000
,
0010
0000
1000
0000
,
0001
0000
0001
0000
,
1000
0000
0100
1000
,
0100
0000
1000
0000
,
0001
0000
0010
0001
,
0010
0000
0001
0000
,
0100
0000
0010
0100
,
0010
0000
0100
0000
,
0010
0000
1000
0001
,
1000
0000
0001
0000
,
1000
0000
0100
1000
,
0100
0000
1000
0000
,
0100
0000
0010
0001
,
0010
0000
0001
0000
,
1000
0000
0010
0000
,
0200
0000
0010
0000
,
0000
0000
0000
0000
,
0000
0000
1000
0000
,
0000
0000
0000
0000
,
0000
0000
0002
0000
,
0000
0000
0000
0000
,
0000
0000
0023
0000
,
0000
0000
0000
0000
,
0000
0000
0130
0000
,
0100
0000
0000
0000
,
0000
0000
1000
0000
,
1000
0000
0000
0000
,
0000
0000
0001
0000
,
0000
0000
0000
0000
,
0000
0000
0100
0000
,
0000
0010
0000
0000
,
0000
0000
2000
0000
,
0000
3020
0000
0000
,
0230
0000
0302
0000
,
0000
0023
0000
0000
,
0130
0000
2000
0000
,
0000
0000
0000
0000
,
0000
0000
3002
0000
,
0000
0203
0000
0000
,
0302
0000
2003
0000
,
0000
3200
0000
0000
,
0320
0000
0002
0030
,
0000
2003
0000
0000
,
3020
0000
0230
0000
,
0000
0000
0000
0000
,
0000
0000
0000
0000
,
0000
0000
0000
0000
,
0000
0000
0310
0000
,
0000
0000
0000
0000
,
0000
0000
1000
0000
,
0000
0000
0000
0000
,
0000
0000
0001
0000
,
0000
0000
0000
0000
,
0000
0000
0000
0000
,
0000
0000
0000
0000
,
0000
0000
0010
0000
,
0000
0010
0000
0000
,
0000
0000
0100
0000
,
0000
0100
0000
0000
,
0000
0000
2000
0000
,
0000
0000
0000
0000
,
0000
0000
3010
0000
,
0000
0100
0000
0000
;
