#TITLE:Free Your Mind;
#SUBTITLE:;
#ARTIST:CLSM;
#TITLETRANSLIT:;
#SUBTITLETRANSLIT:;
#ARTISTTRANSLIT:;
#CRChallenge:;
#BANNER:mind-bn.avi;
#BACKGROUND:mind-bg.jpg;
#LYRICSPATH:;
#CDTITLE:;
#MUSIC:mind.ogg;
#OFFSET:0.000;
#SAMPLESTART:74.226;
#SAMPLELENGTH:12.000;
#SELECTABLE:YES;
#BPMS:0.000=84.000,64.000=168.000;
#STOPS:64.000=1.071
,141.000=1.071
,206.000=1.071
;
#NOTES:
     dance-single:
     Renard:
     Hard:
     11:
     0.696,0.766,0.461,0.292,0.669:
0000
0000
0000
0000
,
0000
0000
0000
0000
,
1000
0100
0010
0001
0000
0001
0010
0100
1000
0001
0100
0010
0000
0010
0100
0001
,
1000
0100
0010
0001
0000
0001
0010
0100
1000
0001
0100
0010
0000
0010
0100
0001
,
0001
0010
0100
1000
0000
1000
0100
0010
0001
1000
0010
0100
0000
0100
0010
1000
,
0001
0010
0100
1000
0000
1000
0100
0010
0001
1000
0010
0100
0000
0100
0010
1000
,
1000
0100
0010
0001
0000
0001
1000
0010
0100
0001
0100
0001
0000
0001
0010
0100
,
1000
1000
0100
0010
0000
0010
0001
0010
0100
1000
0010
0100
0000
0100
0001
0010
,
0002
0200
0020
0333
,
0010
0000
0100
0001
0000
0010
0000
0200
0000
0000
0000
0000
2000
0000
0000
0000
,
0020
0000
0000
0000
0000
0000
0000
0000
0002
0000
0000
0000
0000
3333
0000
0000
,
0002
0000
0000
0203
0000
0002
0000
2000
0000
3303
0000
0000
0010
0100
0001
0000
,
2000
0000
3200
0000
,
0002
0000
0000
0000
0000
0000
0003
0000
0000
0010
0000
0000
0000
0000
0000
2000
0000
0000
0000
0000
0000
0020
0000
0000
0000
0000
0000
3330
0000
0000
0000
0000
0000
0000
0000
0000
2000
0000
0000
0000
3002
0000
0000
0000
0203
0000
0000
0000
,
0320
0000
0M00
0000
0M00
0M00
0M00
0000
0200
0300
0M00
0200
0300
0M00
0200
0000
,
0002
0003
000M
0002
0000
0000
2000
0000
3333
0000
0000
0000
0000
0000
0000
0000
,
0000
0000
0000
0000
1000
0000
0000
0000
1100
0000
0000
1000
0000
0001
0100
0000
,
0011
0000
0000
0000
0010
0000
0000
0000
0110
0000
0000
0100
0000
1000
0010
0000
,
1010
0000
0000
0000
1000
0000
0000
0000
0101
0000
0000
0001
0000
0010
0100
0000
,
1100
0000
0000
0000
1000
0000
0001
0000
0101
0000
0000
0100
0000
0010
1000
0000
,
1001
0000
1000
0100
0010
0000
0000
0000
0011
0000
0000
0010
0000
0100
1000
0000
,
0101
0000
0000
0000
0100
0000
0010
0000
1010
0000
0000
1000
0000
0100
0010
0000
,
1001
0000
0000
0000
0001
0100
0001
0000
0110
0000
0000
0010
0000
1000
0100
0000
,
0011
0000
0000
0000
0010
0000
0100
1000
0100
0000
1000
0000
0101
0000
0010
0000
,
1001
0000
0000
0000
0001
0000
0100
0000
0110
0000
0000
0010
0000
1000
0100
0000
,
1100
0000
0000
0000
1000
0000
0001
0000
0011
0000
0000
0001
0000
1000
0010
0000
,
0110
0000
0000
0000
0100
0000
0010
1000
0010
0000
0000
1000
0000
0100
0010
0000
,
0011
0000
0000
0000
0010
0000
0100
0000
1100
0000
0000
1000
0000
0001
0100
0000
,
0110
0000
0010
1000
0100
0000
0010
0000
0011
0000
0010
0100
0000
1000
0001
0000
,
0110
0000
1000
0010
1000
0000
0100
0000
0011
0000
0000
0010
0000
0100
1000
0000
,
0101
0000
0100
0010
1000
0000
0001
0000
0110
0000
0000
0010
0000
0100
1000
0000
,
0101
0000
0100
0000
0010
0000
1000
0000
1010
0000
0000
1000
0001
1000
0001
0000
,
0100
0000
0100
0000
0002
0000
0000
0000
0200
0000
0000
0010
0000
0000
0313
0000
,
0000
0000
0001
0000
0100
0000
0010
0000
2000
0000
0000
0200
0000
0000
0010
3300
,
0000
1000
0100
1000
0002
0200
0000
0010
,
0313
0000
0000
0000
0200
0300
0000
0000
0001
0000
0100
0000
0101
0000
0001
1000
,
0000
0100
1000
0000
1100
0000
1000
0001
0010
0000
0001
0000
0011
0000
0001
0100
,
0000
0010
1000
0000
1001
0000
1000
0100
1000
0000
0001
0000
0011
0000
0001
1000
,
0000
0010
1000
0000
0001
0000
1000
0100
1000
0000
0001
0000
0011
0000
0001
0100
,
0000
0010
1000
0000
0100
0000
1000
0001
1000
0000
0001
0000
0011
0000
0100
1000
,
0000
0001
0010
0000
0001
0000
0010
0100
0010
0000
0100
0000
0110
0000
0100
1000
,
0000
0001
1000
0000
0001
0000
0100
0010
0100
0000
0010
0000
1010
0000
1000
0001
,
0000
0100
0001
0000
1000
0000
0100
1000
0001
0000
0010
0000
0011
0000
0010
0100
,
0000
1000
0001
0000
0100
0000
0001
1000
0001
0000
0100
0000
0010
0000
1000
0010
,
0000
0100
0001
0000
0101
0000
0001
1000
0001
0000
1000
0000
1100
0000
0001
0010
,
0000
0100
1000
0000
0011
0000
0100
1000
0100
0000
0010
0000
0001
0000
0010
0100
,
0000
1000
0001
0000
0101
0000
0001
0100
0010
0000
1000
0000
0001
0000
0100
0010
,
0000
1000
0100
0000
1100
0000
1000
0001
0010
0000
0001
0000
0101
0000
0001
0100
,
0000
0010
1000
0000
1100
0000
1000
0001
1000
0000
0001
0000
0011
0000
0001
1000
,
0000
0001
1000
0000
0010
0000
0100
0001
0100
0000
0001
0000
1000
0000
0010
1000
,
0000
0001
0010
0000
0011
0000
0001
0010
0100
0000
1000
0000
1010
0000
1000
0001
,
0000
0100
0001
0100
0010
0000
0100
0000
1001
0000
M00M
0000
1MM1
0000
0001
0000
,
01M0
M0M0
10M0
01M0
00MM
0001
0M10
MM00
,
1M00
0M10
0M0M
0001
0M10
0M0M
0001
0100
,
10M0
00MM
0001
0M10
MM00
1000
01M0
00MM
,
0001
1M00
0MM0
0010
0M01
0M00
0001
01M0
,
10M0
00MM
0001
0M10
MM00
1000
0M10
0M0M
,
0001
0M10
0M00
0100
10M0
0MM0
01M0
0001
,
10M0
0MM0
0100
00M1
M0M0
1000
0M10
0M0M
,
0001
0M10
MM00
1000
00M1
01M0
0000
0000
;
#NOTES:
     dance-single:
     Renard:
     Medium:
     9:
     0.510,0.766,0.186,0.204,0.275:
0000
0000
0000
0000
,
0000
0000
0000
0000
,
1000
0100
0010
0001
0000
1000
0001
0010
0100
1000
0100
0010
0000
0001
0010
0100
,
1000
0100
0010
0001
0000
1000
0001
0010
0100
1000
0100
0010
0000
0001
0010
0100
,
1000
0010
0100
0001
0000
1000
0001
0100
0010
1000
0010
0100
0000
0010
1000
0001
,
0100
0010
1000
0001
0000
0001
1000
0010
0100
0001
1000
0100
0000
1000
0001
0010
,
0100
1000
0100
1000
0000
1000
0100
1000
0001
0010
0001
0010
0000
0010
0001
1000
,
0001
1000
0010
1000
0000
1000
0010
1000
0001
0100
0001
0100
0000
0100
0001
0010
,
0100
0000
0100
1000
0010
0000
0010
0100
0002
0000
0000
0000
0000
0000
0000
0000
,
0013
0000
0001
0010
0000
0001
0000
1000
0000
0000
0000
0000
0010
0000
0000
0000
,
0100
0000
0001
1000
0100
0000
0100
1000
0002
0000
0000
0000
0023
0000
0000
0000
,
0130
0000
0100
1000
0000
0010
0000
0100
0000
0000
0000
0000
0001
0100
0001
0000
,
0200
0320
2030
0000
,
3100
0000
0100
1000
0000
1100
0000
1100
0000
0000
0000
0000
1000
0000
0000
0000
,
0200
0000
2000
0000
,
0020
0000
0002
0000
,
3333
0000
1000
0000
1100
0000
1000
0010
,
0100
0000
0001
0000
0011
0000
0001
0100
,
0010
0000
1000
0000
1100
0000
1000
0010
,
0100
0000
0001
0000
0011
0000
0001
0100
,
0010
0000
1000
0000
1010
0000
1000
0100
,
0010
0000
0001
0000
0101
0000
0001
0100
,
0010
0000
1000
0000
1010
0000
1000
0100
,
0010
0000
0001
0000
0001
0010
0000
0010
,
0001
1000
0001
0100
0110
0000
0010
0000
,
1010
0000
1000
0100
0110
0000
0010
0000
,
1001
0000
0001
0100
0110
0000
0010
0000
,
1010
0000
1000
0100
0010
0001
0010
0100
,
1000
0001
0100
0010
0110
0000
0010
0000
,
1010
0000
1000
0100
0110
0000
0010
0000
,
0011
0000
0001
1000
0010
0100
0001
1000
,
0100
1000
0001
0000
0001
0010
0000
0010
,
0001
0000
1000
0000
0010
0000
0000
1000
,
0001
0000
0100
0000
0001
0000
0000
1000
,
0100
0000
1000
0000
0001
0000
0000
0010
,
0001
0000
2000
0000
0001
3000
0100
1000
,
0001
0010
0001
1000
0010
1000
0001
0100
,
0010
1000
0100
0010
0002
0000
0000
2000
,
0000
0000
0000
3013
0000
0000
1000
0001
,
1000
0000
0001
0000
0100
0010
0100
0010
,
1000
0010
1000
0010
0100
0001
0100
0001
,
1000
0100
1000
0100
2000
0000
0000
0002
,
0000
0000
0000
3013
0000
0000
1000
0001
,
0100
0000
0010
1000
0010
1000
0100
1000
,
0100
0010
0001
1000
0001
0100
0001
1000
,
0100
1000
0001
1000
0002
0000
0000
2000
,
0000
0000
0000
3103
0000
0000
0000
0000
,
1000
0001
0100
0000
0001
1000
0001
1000
,
0100
1000
0100
1000
0100
0000
0200
2000
,
0000
0300
0200
0000
0020
0030
00M0
0020
,
0000
0000
0002
0000
0000
3333
1100
0000
,
1000
0100
1000
0000
1001
0000
0001
0100
,
1000
0000
0100
0001
0000
0010
1000
0000
,
0010
0001
0000
1000
0100
0000
0001
0100
,
1000
0000
0010
0001
0000
0010
1000
0000
,
0100
0001
0000
0100
1000
0000
0010
0100
,
0001
0000
0010
1000
0000
0010
0001
0000
,
0100
1000
0000
0100
0001
0000
0010
1000
,
0010
0000
0001
0100
0000
1000
0100
0000
,
0001
1000
0000
0100
0001
0100
0000
0000
;
#NOTES:
     dance-single:
     Renard:
     Easy:
     5:
     0.315,0.448,0.062,0.399,0.000:
0000
0000
0000
0000
,
0000
0000
0000
0000
,
1000
0100
0020
0000
0031
0010
0200
0000
,
1300
0010
0200
0000
0301
0010
0200
0000
,
1300
0100
0020
0000
0031
0100
0020
0000
,
1030
0010
0200
0000
0301
0010
0200
0000
,
2300
0000
0002
3000
,
0200
0003
0020
0300
,
2030
3200
0320
0032
,
2003
3200
1300
0000
,
0002
0023
0230
2300
,
3002
0023
0031
0000
,
2000
0000
0200
3000
,
0020
0000
0000
0300
0002
0000
0000
0030
,
2000
0000
0000
0003
0200
0000
0000
0000
,
0020
0000
0002
0000
,
3333
0000
1000
0000
1100
0000
0000
1000
,
0001
0000
0001
0000
0101
0000
0000
0001
,
1000
0000
1000
0000
1100
0000
0000
1000
,
0001
0100
0001
1000
,
0001
0000
0010
0000
0011
0000
0000
0001
,
1000
0000
0010
0000
1010
0000
0000
1000
,
0001
0000
0100
0000
0101
0000
0000
0001
,
1000
0100
0000
1000
,
0100
0000
1000
0000
0001
0000
0000
0100
,
0001
0000
1000
0000
0001
0000
0000
1000
,
0100
0000
1000
0000
0001
0000
0000
0010
,
0001
0000
1000
0000
0010
0000
0000
1000
,
0001
0000
1000
0000
0100
0000
0000
1000
,
0001
0000
0010
0000
0001
0000
0000
0100
,
0001
0000
1000
0000
0100
0000
0000
1000
,
0001
0010
0010
0010
,
0010
0000
0002
0000
0000
0003
1000
0000
,
0010
0000
0200
0000
0000
0300
0001
0000
,
1000
0000
0200
0000
0000
0300
0010
0000
,
0001
1000
0001
0001
,
0100
0100
0010
0010
,
0010
0000
0000
0000
2000
0000
0000
0200
,
0000
0000
0000
3310
0000
0000
1000
0100
,
1000
0100
1000
1000
,
0001
0000
0100
0000
,
0001
0000
0000
0000
0200
0000
0000
0002
,
0000
0000
0000
0313
0000
0000
0000
0000
,
0001
0100
0001
0000
0100
0000
0000
0000
,
0010
0000
1000
0100
,
1000
0000
0001
0000
2000
0000
0000
0200
,
0000
0000
0000
3310
0000
0000
0000
0000
,
1000
0100
1000
0000
0002
0000
0000
0000
,
0000
0000
0200
0000
,
0000
0000
0020
0000
,
0000
0000
2000
0000
,
3333
0000
1001
0001
,
0100
0000
0000
0001
1000
0000
0001
0000
,
1000
0100
1000
0001
,
0010
0000
0000
0001
1000
0000
0001
0000
,
1000
0100
0100
1000
,
0001
0000
0000
0010
0001
0000
1000
0000
,
0010
1000
1000
0001
,
0100
0000
0000
0001
0010
0000
0001
0000
,
1000
0100
0100
0000
;
#NOTES:
     dance-single:
     Renard:
     Beginner:
     3:
     0.304,0.397,0.009,1.000,0.000:
0000
0000
0000
0000
,
0000
0000
0000
0000
,
2000
0000
3002
0000
,
0203
0000
0320
0000
,
2030
0000
3002
0000
,
0203
0000
0320
0000
,
2030
3200
0320
0000
,
0032
0203
0320
0000
,
2030
0000
0000
0000
,
3200
0320
0032
0000
,
2003
0000
3002
0000
,
0023
0032
2003
0000
,
3200
0000
0320
0000
,
0032
2003
3020
0000
,
0230
0000
0002
0000
,
0020
0000
0000
0333
,
2002
3003
2000
0000
0000
0000
3002
0000
,
0203
0320
0000
2030
,
3020
0230
0000
0302
,
0000
0023
0000
0032
,
0000
2003
0000
3200
,
2300
3002
0000
0023
,
0000
0032
0000
2003
,
3020
0230
0000
0020
,
0030
0020
0330
0200
,
0302
2003
0000
3200
,
0000
0320
0000
0032
,
0000
2003
3020
0230
,
0000
0302
0000
2003
,
0000
3200
0000
0320
,
0032
2003
0000
3020
,
0000
0230
0000
0002
,
0003
0020
0000
0000
,
0030
0002
0000
0000
,
0000
0020
0000
0000
,
0000
0333
0002
0000
,
2003
0000
3200
0000
,
0320
0000
0032
0000
,
2003
3002
2003
0000
,
3020
0000
0230
0000
,
0000
0000
0302
0000
,
0000
0000
2003
0000
,
0200
0000
0020
0000
,
3330
0000
2000
0000
,
0000
0000
3200
0000
,
0000
0000
0002
0000
,
0003
0000
0020
0000
,
0030
0000
2000
0000
,
0000
0000
0020
0000
,
0000
0030
0020
0000
,
0000
0000
0002
0000
,
0000
3333
2000
3200
,
0000
2300
3002
0203
,
0000
0302
0023
0032
,
0000
2003
0000
3020
,
0000
0230
0000
0302
,
0000
2003
3200
0320
,
0000
0032
0000
2003
,
0000
3020
0230
0302
,
2003
3200
0320
0030
;
