#TITLE:Freak on a Leash;
#SUBTITLE:;
#ARTIST:KoRn;
#TITLETRANSLIT:;
#SUBTITLETRANSLIT:;
#ARTISTTRANSLIT:;
#CRChallenge:;
#BANNER:freak.png;
#BACKGROUND:freak-bg.png;
#LYRICSPATH:;
#CDTITLE:;
#MUSIC:freak.ogg;
#OFFSET:0.000;
#SAMPLESTART:47.940;
#SAMPLELENGTH:12.000;
#SELECTABLE:YES;
#BPMS:0.000=105.000,20.000=52.500,26.000=105.000;
#STOPS:;
#BGCHANGES:;
#NOTES:
     dance-single:
     Renard:
     Medium:
     9:
     0.520,0.535,0.429,0.086,0.450:
0000
0000
0000
0000
,
0000
0000
0000
0000
,
0000
0000
0000
0000
,
0000
0000
0000
0000
,
0000
0000
0000
0000
,
1000
2000
0100
0200
0010
0020
0000
3331
0000
0000
0000
0000
0000
0000
0000
0000
,
0001
0002
0100
0200
0010
0020
0000
1333
0001
0000
0000
0001
0100
0000
0000
0100
,
0010
0000
1000
0000
0100
0000
0000
0000
0010
0000
0000
0010
0100
0000
1000
0000
,
0010
0000
0100
0000
0001
0000
1000
0000
0100
0000
0000
0100
0010
0000
0001
0000
,
1000
0000
0010
0000
0100
0000
0010
1000
0010
0000
0000
0010
1000
0000
0100
0000
,
0010
0000
0001
0000
0100
0000
0001
1000
0001
0000
1000
0100
1000
0000
0001
0100
,
0001
0000
1000
0000
0100
0000
0000
0000
1100
0000
0100
1000
0001
0000
0101
0000
,
0000
0000
0001
0000
1000
0000
0100
0000
0010
0000
0001
1000
0010
0000
1010
0000
,
0000
0000
1000
0000
0001
0000
0010
0000
0001
0000
0100
0001
1000
0000
1100
0000
,
1000
0001
0100
0000
0001
0000
1000
0000
0100
0000
1000
0001
0010
0000
0011
0000
,
0001
1000
0010
0000
1010
0000
1000
0000
0001
0000
0100
0001
1000
0000
1100
0000
,
1000
0001
0100
0000
0101
0000
0001
0000
1000
0000
0010
1000
0001
0000
0011
0000
,
0001
1000
0010
0000
1010
0000
1000
0001
0010
0000
0100
1000
0001
0000
0101
0000
,
0001
1000
0100
0000
1000
0000
0001
0000
0200
0000
0000
0000
0000
0000
0000
0000
,
0000
0000
0000
0000
0301
0000
0000
0000
0001
0100
0001
0000
0100
0000
0001
0100
,
0000
0010
1000
0000
0100
0000
1000
0000
0001
0100
0001
0000
0100
0000
0010
1000
,
0000
0100
1000
0000
0001
0000
0100
0000
0010
1000
0010
0000
0100
0000
0010
1000
,
0000
0010
0100
0000
0001
0000
0010
0000
0100
1000
0100
0000
1000
0000
0010
0100
,
0000
0010
1000
0000
0001
0000
0100
0000
0001
0010
0001
0000
0010
0000
0100
1000
,
0000
0001
0100
0000
0010
0000
1000
0000
0100
1000
0100
0000
1000
0000
0010
0100
,
0000
0001
0100
0000
0001
0000
1000
0000
0100
0010
0001
0000
0010
0000
0100
1000
,
0000
0001
0100
0000
0010
0000
1000
0000
0001
0100
0001
0000
1000
0000
0100
1000
,
0000
0001
0010
0000
0100
0000
1000
0000
0002
0000
0000
0000
0000
0000
0000
0000
,
0000
0000
0000
0000
0000
0000
0003
0000
1001
0000
0000
1001
0000
0001
1000
0000
,
0000
0010
0000
1000
0100
1000
0100
1000
0010
0000
0000
1010
0000
0010
1000
0000
,
0000
0001
0000
0100
0001
0100
0001
0100
0001
0000
0000
1001
0000
1000
0100
0000
,
0000
1100
0000
1000
0001
0100
0001
1000
0001
0000
0000
1100
0000
1000
0001
0000
,
0000
0100
0000
0001
1000
0000
1001
0000
0101
0000
0101
0000
0000
0000
1010
0000
,
0010
1000
0000
0100
1000
0001
1000
0000
0000
0000
0101
0000
0000
0000
0110
0000
,
0110
1010
1010
0000
0000
1001
0000
0101
,
0001
1000
0000
0100
1000
0001
0010
0000
0000
0000
0110
0000
0000
0000
0011
0000
,
1100
0110
0011
0000
1001
0101
0000
1010
,
0000
0010
1000
0000
1100
0000
1001
0000
0101
0000
0010
0000
1000
0000
0100
1000
,
0000
0001
0100
0000
0010
0000
1000
0000
1100
0000
1001
0000
0000
0000
0101
0000
,
0000
0001
1000
0000
1100
0000
1000
0001
0100
0000
0100
0010
0100
0000
0010
1000
,
0010
0000
1000
0100
1000
0000
0001
0000
0011
0000
0110
0000
0000
0000
1100
0000
,
0000
1000
0001
0000
0100
0000
0010
1000
0010
0000
1000
0100
1000
0000
0101
0000
,
0000
0010
1000
0000
0100
0000
1000
0001
0100
0000
0001
0000
1000
0000
0100
1000
,
0000
0001
0010
0000
1100
0000
1000
0000
0001
0000
0100
0010
0100
0000
0010
1000
,
0010
0100
0001
1000
0100
0000
1000
0000
0100
0000
0100
0000
0010
0000
0001
1000
,
0000
0001
0100
0000
0010
0000
1000
0000
0100
0000
0100
0000
1000
0000
0010
0100
,
0001
1000
0100
0000
0220
0000
0000
0000
1001
0000
0000
0000
0000
0000
0000
0000
,
0000
0000
0000
0000
,
0330
0000
0000
0000
;
#NOTES:
     dance-single:
     Renard:
     Easy:
     6:
     0.309,0.412,0.214,0.077,0.000:
0000
0000
0000
0000
,
0000
0000
0000
0000
,
0000
0000
0010
0100
1010
1011
1001
1110
,
1011
0000
0002
0000
2000
0000
0000
0023
,
3000
0030
0000
0000
0000
0000
0000
0000
,
2001
0000
3020
0000
,
0230
0000
0301
1000
,
0100
1000
0001
0000
0100
0000
0001
0000
,
1000
0000
0001
0100
0001
0000
1000
0000
,
0100
1000
0001
0100
0001
0000
1000
0000
,
0001
0000
1000
0000
0010
0000
1000
0001
,
0100
0000
1001
0000
0101
0000
0100
0010
,
0000
0010
1000
0100
0010
0000
0010
0001
,
0000
0001
0100
0010
1000
0000
1000
0001
,
0000
0001
0010
0001
1000
0000
1000
0010
,
0000
0010
0100
0001
1000
0000
1000
0100
,
0000
0100
0010
0001
1000
0010
0100
0001
,
0000
0001
1000
0000
0001
0000
0100
0001
,
0000
1000
0100
0010
0001
0000
0001
0000
,
0001
0001
1010
0101
,
0001
0100
0010
1000
0000
0010
0000
0100
,
0000
0001
0000
1000
0100
0000
1000
0000
,
0001
0010
0100
1000
0000
0100
0000
0010
,
0000
0001
0000
0100
0000
0010
1000
0000
,
0010
1000
0001
0100
0000
0001
0000
1000
,
0000
0100
0000
0010
0000
0001
1000
0000
,
0001
0010
0001
1000
0000
0100
0000
1000
,
0000
0010
0000
0210
0000
0000
0000
0000
,
0000
0000
0301
0100
,
0010
0100
0010
0000
1000
0000
0010
0000
,
0100
0010
0100
0000
0001
0000
0100
0000
,
0010
0100
0010
1000
0010
0000
0100
0001
,
1000
0010
1000
1001
1000
0000
1010
0000
,
0100
0101
0001
1001
,
1000
1100
0100
0110
,
0010
0011
0001
1001
,
0001
1000
0100
0000
1000
0000
1001
0000
,
0001
0100
0001
0100
0000
0010
0000
1000
,
0000
0100
0000
0010
0000
0001
1000
0000
,
0001
0010
0100
1000
0000
0100
0000
0010
,
0000
0001
0000
1000
0000
0001
0100
0000
,
0001
0100
0010
1000
0000
0010
0000
0100
,
0000
0001
0000
1000
0000
0100
0010
0000
,
0001
0010
0100
1000
0000
0001
0000
0100
,
0000
0010
0000
1000
0010
0000
0110
0000
,
0100
0000
0101
0000
0001
0000
1001
1100
,
1000
0001
2002
0000
0010
0000
0000
0000
,
0000
0000
0000
0000
,
3003
0000
0000
0000
;
#NOTES:
     dance-single:
     Renard:
     Beginner:
     3:
     0.194,0.268,0.094,0.137,0.000:
0000
0000
0000
0000
,
0000
0000
0000
0000
,
0000
0000
0000
0000
,
0000
0000
0000
0000
,
0000
0000
0000
0000
,
2001
0000
3020
0000
,
0230
0000
0301
1000
,
0010
1000
0001
0001
,
0100
0000
1000
0000
,
1000
0000
0010
0010
,
0100
0000
0001
0000
,
1000
0000
0000
0000
0001
0000
0000
1000
,
0000
0000
0000
0000
0010
0000
0000
0100
,
0000
0000
0000
0000
0001
0000
0000
1000
,
0000
0000
0001
0000
0100
0000
0000
0010
,
0000
0000
0100
0000
0001
0000
0000
1000
,
0000
0000
0001
0000
1000
0000
0000
0100
,
0000
0000
1000
0000
0001
0000
0000
0010
,
0000
0001
2000
0000
,
0000
3010
0010
1000
,
0010
0000
0000
0100
0000
0010
0000
1000
,
0000
0100
0000
0010
0000
0000
0001
0000
,
0010
0000
0000
0100
0000
1000
0000
0010
,
0000
0100
0000
0000
0000
0000
0001
0000
,
0100
0000
0000
0010
0000
1000
0000
0100
,
0000
0010
0000
0001
0000
0000
1000
0000
,
0001
0000
0000
0100
0000
0010
0000
1000
,
0000
0001
0000
2002
0000
0000
0000
0000
,
0000
0000
0000
3003
1001
0000
1000
0000
,
0000
1000
0000
0001
,
0000
0001
0100
0100
,
0010
0010
0100
0010
,
0100
0000
0010
0100
0001
0000
0000
0000
,
0001
1000
0010
0000
,
1010
0101
0001
1000
,
0000
1100
1000
1010
,
0101
1001
1000
1000
,
1000
0001
1000
0000
0020
0000
0000
0000
,
0230
0000
0301
0001
,
0001
1000
0001
0000
0200
0000
0000
0000
,
0320
0000
1030
1000
,
1000
0001
1000
0000
0002
0000
0000
0000
,
2003
0000
3010
0010
,
0100
0010
0200
0000
,
0302
0000
1003
0001
,
1000
0000
0010
0000
0100
0001
0100
0010
,
0110
2002
0010
0000
,
0000
0000
0000
0000
,
3003
0000
0000
0000
;
