#TITLE:Freak on a Leash EX;
#SUBTITLE:;
#ARTIST:KoRn;
#TITLETRANSLIT:;
#SUBTITLETRANSLIT:;
#ARTISTTRANSLIT:;
#CRChallenge:;
#BANNER:freak_ex.png;
#BACKGROUND:freak_ex-bg.png;
#LYRICSPATH:;
#CDTITLE:;
#MUSIC:freak_ex.ogg;
#OFFSET:0.000;
#SAMPLESTART:47.900;
#SAMPLELENGTH:12.000;
#SELECTABLE:NO;
#BPMS:0.000=51.015,11.500=204.060,13.000=102.030,13.500=204.060,14.500=102.030,15.000=204.060,16.000=102.030,16.500=204.060,17.500=102.030,18.000=204.060,19.000=102.030,19.500=204.060,20.500=102.030,21.000=204.060,22.000=102.030,22.500=204.060,23.500=102.030,24.000=204.060,25.000=102.030,25.500=204.060,26.500=102.030,27.000=204.060,28.000=102.030,28.500=204.060,29.500=102.030,30.000=204.060,31.000=102.030,31.500=204.060,32.500=102.030,33.000=204.060,34.000=102.030,34.500=204.060,35.500=102.030,36.000=204.060,37.000=102.030,37.500=204.060,38.500=102.030,39.000=204.060,40.000=102.030,40.500=204.060,41.500=102.030,42.000=204.060,43.000=102.030,43.500=204.060,44.500=102.030,45.000=204.060,46.000=102.030,46.500=204.060,47.500=102.030,48.000=204.060,49.000=102.030,49.500=204.060,50.500=102.030,51.000=204.060,52.000=102.030,52.500=204.060,53.500=102.030,54.000=204.060,55.000=102.030,55.500=204.060,56.500=102.030,57.000=204.060,58.000=102.030,58.500=204.060,59.500=102.030,60.000=204.060,61.000=102.030,61.500=204.060,62.500=102.030,63.000=204.060,64.000=102.030,64.500=204.060,65.500=102.030,66.000=204.060,67.000=102.030,67.500=204.060,68.500=102.030,69.000=204.060,70.000=102.030,70.500=204.060,71.500=102.030,72.000=204.060,73.000=102.030,73.500=204.060,74.500=102.030,75.000=204.060,76.000=102.030,76.500=204.060,77.500=102.030,78.000=204.060,79.000=102.030,79.500=204.060,80.500=102.030,81.000=204.060,82.000=102.030,82.500=204.060,83.500=102.030,84.000=204.060,85.000=102.030,85.500=204.060,86.500=102.030,87.000=204.060,88.000=102.030,88.500=204.060,89.500=102.030,90.000=204.060,91.000=102.030,91.500=204.060,92.500=102.030,93.000=204.060,94.000=102.030,94.500=204.060,95.500=102.030,96.000=204.060,97.000=102.030,97.500=204.060,98.500=102.030,99.000=204.060,100.000=102.030,100.500=204.060,101.500=102.030,102.000=204.060,103.000=102.030,103.500=204.060,104.500=102.030,105.000=204.060,106.000=102.030,106.500=204.060,107.500=102.030,108.000=51.015,111.750=204.060,112.750=102.030,113.000=204.060,113.500=102.030,113.750=204.060,115.250=102.030,115.500=204.060,116.000=102.030,116.250=204.060,116.500=102.030,116.625=204.060,116.875=102.030,117.000=204.060,117.250=102.030,117.375=204.060,117.625=102.030,117.750=204.060,118.000=102.030,118.125=204.060,118.875=102.030,119.250=204.060,119.750=102.030,120.000=204.060,121.500=102.030,121.750=204.060,122.250=102.030,122.500=204.060,122.750=102.030,122.875=204.060,123.125=102.030,123.250=204.060,123.500=102.030,123.625=204.060,123.875=102.030,124.000=204.060,124.250=102.030,124.375=204.060,125.125=102.030,125.500=204.060,126.000=102.030,126.250=204.060,127.750=102.030,128.000=204.060,128.500=102.030,128.750=204.060,129.000=102.030,129.125=204.060,129.375=102.030,129.500=204.060,129.750=102.030,129.875=204.060,130.125=102.030,130.250=204.060,130.500=102.030,130.625=204.060,131.375=102.030,131.750=204.060,132.250=102.030,132.500=204.060,134.000=102.030,134.250=204.060,134.750=102.030,135.000=204.060,135.250=102.030,135.375=204.060,135.625=102.030,135.750=204.060,136.000=102.030,136.125=204.060,136.375=102.030,136.500=204.060,136.750=102.030,136.875=204.060,137.625=102.030,138.000=204.060,138.500=102.030,138.750=204.060,140.250=102.030,140.500=204.060,141.000=102.030,141.250=204.060,141.500=102.030,141.625=204.060,141.875=102.030,142.000=204.060,142.250=102.030,142.375=204.060,142.625=102.030,142.750=204.060,143.000=102.030,143.125=204.060,143.875=102.030,144.250=204.060,144.750=102.030,145.000=204.060,146.500=102.030,146.750=204.060,147.250=102.030,147.500=204.060,147.750=102.030,147.875=204.060,148.125=102.030,148.250=204.060,148.500=102.030,148.625=204.060,148.875=102.030,149.000=204.060,149.250=102.030,149.375=204.060,150.125=102.030,150.500=204.060,151.000=102.030,151.250=204.060,152.750=102.030,153.000=204.060,153.500=102.030,153.750=204.060,154.000=102.030,154.125=204.060,154.375=102.030,154.500=204.060,154.750=102.030,154.875=204.060,155.125=102.030,155.250=204.060,155.500=102.030,155.625=204.060,156.375=102.030,156.750=204.060,157.250=102.030,157.500=204.060,159.000=102.030,159.250=204.060,159.750=102.030,160.000=204.060,160.250=102.030,160.375=204.060,160.625=102.030,160.750=204.060,161.000=102.030,161.125=204.060,161.375=102.030,161.500=204.060,161.750=102.030,161.875=204.060,162.125=102.030,162.500=204.060,164.500=102.030,165.000=204.060,166.500=102.030,167.500=204.060,169.500=102.030,170.000=204.060,172.000=102.030,172.500=204.060,174.500=102.030,175.000=204.060,176.500=102.030,177.500=204.060,179.500=102.030,180.000=204.060,182.000=102.030,182.500=204.060,184.500=102.030,185.000=204.060,186.500=102.030,187.500=204.060,189.500=102.030,190.000=204.060,192.000=102.030,192.500=204.060,194.500=102.030,195.000=204.060,196.500=102.030,197.500=204.060,199.500=102.030,200.000=204.060,200.500=102.030,200.750=204.060,201.250=102.030,201.500=204.060,202.500=102.030,203.000=204.060,204.000=102.030,204.500=204.060,205.500=102.030,206.000=204.060,207.000=102.030,207.500=204.060,208.500=102.030,209.000=204.060,210.000=102.030,210.500=204.060,211.500=102.030,212.000=204.060,213.000=102.030,213.500=204.060,214.500=102.030,215.000=204.060,216.000=102.030,216.500=204.060,217.500=102.030,218.000=204.060,219.000=102.030,219.500=204.060,220.500=102.030,221.000=204.060,222.000=102.030,222.500=204.060,223.500=102.030,224.000=204.060,225.000=102.030,225.500=204.060,226.500=102.030,227.000=51.015,229.000=102.030;
#STOPS:11.500=0.441
,108.000=0.294
,165.000=0.074
,165.250=0.147
,165.750=0.074
,166.000=0.074
,166.250=0.074
,170.000=0.147
,170.500=0.147
,171.000=0.294
,175.000=0.074
,175.250=0.147
,175.750=0.074
,176.000=0.074
,176.250=0.074
,180.000=0.147
,180.500=0.147
,181.000=0.294
,185.000=0.074
,185.250=0.147
,185.750=0.074
,186.000=0.074
,186.250=0.074
,190.000=0.147
,190.500=0.147
,191.000=0.294
,195.000=0.074
,195.250=0.147
,195.750=0.074
,196.000=0.074
,196.250=0.074
;
#BGCHANGES:;
#NOTES:
     dance-single:
     Renard:
     Hard:
     10:
     0.552,0.583,0.656,0.195,0.585:
0000
0000
0000
0000
,
0000
0000
0000
0000
,
0000
0000
0000
0000
0000
0000
0000
1011
,
0001
0000
0000
0000
0100
0010
1000
0000
0000
0000
0010
0000
1001
0000
0000
0000
,
0010
0100
1000
0000
0000
0000
0001
0000
0100
0000
0000
0000
0010
1000
0100
0000
,
0000
0000
1000
0010
0100
0000
0000
0000
0001
0010
0100
0000
0000
0000
0010
0000
,
1001
0000
0000
0000
0100
0010
1000
0000
0000
0000
0100
1000
0010
0000
0000
0000
,
0100
0001
0010
0000
0000
0000
0001
0000
1000
0000
0000
0000
0100
0000
1100
0000
,
0000
0000
0000
1000
0010
0000
0000
0000
0100
0000
0110
0000
0000
0000
0101
0000
,
1001
0000
0000
0000
0000
0000
1000
0000
0000
0000
0000
0100
0010
0000
0000
0000
,
0001
1000
0000
0010
0001
0000
1000
0100
,
0000
0000
0001
0010
0100
0000
0000
0000
0001
0100
1000
0000
0000
0000
0010
0100
,
1000
0000
0100
0010
0000
1000
0100
0000
,
0001
0000
0100
0000
0000
0000
1000
0000
0010
0000
0000
0000
0001
0010
0100
0000
,
0000
0000
1000
0100
0010
0000
0000
0000
0100
0000
1001
0000
0000
0000
0000
0000
,
0101
0000
0000
0000
0000
0000
0111
0000
0000
0000
0000
0001
0100
0000
0010
0000
,
1000
1100
0000
0000
1100
0000
0000
1110
,
0000
0000
0000
1000
0100
0000
0010
0000
0001
0000
0101
0000
0000
0000
0000
0000
,
0110
0000
0000
0000
0000
0000
0111
0000
0000
0000
0000
0001
0100
0000
0010
0000
,
1000
1100
0000
0000
1010
0000
0000
1110
,
0000
0000
0000
1000
0100
0000
0010
0000
0001
0000
0101
0000
0000
0000
0000
0000
,
0110
0000
0000
0000
0000
0000
0111
0000
0000
0000
0000
0100
0010
0000
1000
0000
,
0100
0110
0000
0000
1100
0000
0000
1110
,
0000
0000
0000
1000
0010
0000
0100
0000
0001
0000
0011
0000
0000
0000
0000
0000
,
0101
0000
0000
0000
0000
0000
1011
0000
0000
0000
0000
1000
0001
0000
0100
0000
,
0010
1010
0000
0000
1100
0000
0000
1011
,
0000
0000
0000
1000
0010
0000
0100
0000
0001
0000
1001
0000
0000
0000
0000
0000
,
0212
0000
0000
0000
0000
0000
0000
0000
0000
0000
0000
0000
0000
0000
0000
0000
0000
0000
0000
0000
0000
0000
0000
0000
0000
0000
0000
0000
0000
0000
0000
0000
0000
0000
0000
0000
0000
0000
0000
0000
0000
0000
0000
0000
0000
0000
0000
0000
0000
0000
0000
0000
0000
0000
0000
0000
0000
0000
0000
0000
0000
0000
0000
0000
0000
0000
0000
0000
0000
0000
0000
0000
0000
0000
0000
0000
0000
0000
0000
0000
0000
0000
0000
0000
0000
0000
0000
0000
0000
0000
0000
0000
0000
0000
0000
0000
0000
0000
0000
0000
0000
0000
0000
0000
0000
0000
0000
0000
0000
0000
0000
0000
0000
0000
0000
0000
0000
0000
0000
0000
0000
0000
0000
0000
0000
0000
0000
0000
0000
0000
0000
0000
0000
0000
0000
0000
0000
0000
0000
0000
0000
0000
0000
0000
0000
0000
0000
0000
0000
0000
0000
0000
0000
0000
0000
0000
0000
0000
0000
0000
0000
0000
0000
0000
0000
0000
0000
0000
0303
0000
0000
0000
0000
0000
0000
0000
0000
0000
0000
0000
0000
1001
0000
0000
0000
0000
0000
0000
0000
0000
0000
0000
,
0000
0000
0000
0000
0000
0000
0000
0000
0000
0000
0000
0000
0000
0000
0000
0000
0000
0000
0000
0000
0000
0000
0000
0000
0000
0000
0000
0000
0000
0000
0000
0000
0000
0000
0000
0000
0000
0000
0000
0000
0000
0000
0000
0000
0000
0000
0000
0000
0000
0101
0000
0000
0000
0000
0000
0000
0000
0000
0000
0000
0000
0000
0000
0000
0000
0000
0000
0000
0000
0000
0000
0000
0000
0000
0000
0000
0000
0000
0000
0000
0000
0000
0000
0000
0000
0010
0000
0000
0000
0000
0000
0000
0000
0000
0000
0000
0000
0000
0000
0000
0000
0000
0000
0000
0000
0000
0000
0000
0000
1000
0000
0000
0000
0000
0000
0000
0000
0000
0000
0000
0000
0000
0000
0000
0000
0000
0000
0000
0000
0000
0000
0000
0000
0000
0000
0000
0000
0000
0000
0000
0000
0000
0000
0000
0000
0000
0000
0000
0000
0000
0000
0000
0000
0000
0000
0000
0000
0000
0000
0000
0000
0000
0000
0000
0000
0000
0000
0000
0000
1100
0000
0000
0000
0000
0000
0000
0000
0000
0000
0000
0000
0000
0000
0000
0000
0000
0000
0000
0000
0000
0000
0000
,
0000
0000
0000
0000
0000
0000
0000
0000
0000
0000
0000
0000
0000
1000
0000
0000
0000
0000
0000
0000
0000
0000
0000
0000
0000
0000
0000
0000
0000
0000
0000
0100
0000
0000
0000
0000
0000
0000
0000
0000
0000
0000
0000
0000
0000
0000
0000
0000
0000
0010
0000
0000
0000
0000
0000
0000
0000
0000
0000
0000
0000
0000
0000
0000
0000
0000
0000
0001
0000
0000
0000
0000
0000
0000
0000
0000
0000
0000
0000
0000
0000
0000
0000
0000
0000
0100
0000
0000
0000
0000
0000
0000
0000
0000
0000
0000
0000
0000
0000
0000
0000
0000
0000
0001
0000
0000
0000
0000
0000
0000
0000
0000
0000
0000
0000
0000
0000
0000
0000
0000
0000
0000
0000
0000
0000
0000
0000
0000
0000
0000
0000
0000
0000
0000
0000
0000
0000
0000
0000
0000
0000
0000
0000
0000
0000
0000
0000
0000
0000
0000
0000
0000
0000
0000
0000
0000
0000
0101
0000
0000
0000
0000
0000
0000
0000
0000
0000
0000
0000
0000
0000
0000
0000
0000
0000
0000
0000
0000
0000
0000
0000
0000
0000
0000
0000
0000
0000
0000
0000
0000
0000
0000
,
0000
0001
0000
0000
0000
0000
0000
0000
0000
0000
0000
0000
0000
0000
0000
0000
0000
0000
0000
0000
0000
0000
0000
0000
0000
1000
0000
0000
0000
0000
0000
0000
0000
0000
0000
0000
0000
0000
0000
0000
0000
0000
0000
0000
0000
0000
0000
0000
0000
0000
0000
0000
0000
0000
0000
0000
0000
0000
0000
0000
0000
0000
0000
0000
0000
0000
0000
0000
0000
0000
0000
0000
0000
0000
0000
0000
0000
0000
0000
0000
0000
0000
0000
0000
0000
1010
0000
0000
0000
0000
0000
0000
0000
0000
0000
0000
0000
0000
0000
0000
0000
0000
0000
0000
0000
0000
0000
0000
0000
0000
0000
0000
0000
0000
0000
0000
0000
0000
0000
0000
0000
1000
0000
0000
0000
0000
0000
0000
0000
0000
0000
0000
0000
0000
0000
0000
0000
0000
0000
0100
0000
0000
0000
0000
0000
0000
0000
0000
0000
0000
0000
0000
0000
0000
0000
0000
0000
0010
0000
0000
0000
0000
0000
0000
0000
0000
0000
0000
0000
0000
0000
0000
0000
0000
0000
0001
0000
0000
0000
0000
0000
0000
0000
0000
0000
0000
0000
0000
0000
0000
0000
0000
,
0000
0010
0000
0000
0000
0000
0000
0000
0000
0000
0000
0000
0000
0000
0000
0000
0000
0000
0000
0100
0000
0000
0000
0000
0000
0000
0000
0000
0000
0000
0000
0000
0000
0000
0000
0000
0000
0000
0000
0000
0000
0000
0000
0000
0000
0000
0000
0000
0000
0000
0000
0000
0000
0000
0000
0000
0000
0000
0000
0000
0000
0000
0000
0000
0000
0000
0000
0000
0000
0000
0000
0000
0000
1100
0000
0000
0000
0000
0000
0000
0000
0000
0000
0000
0000
0000
0000
0000
0000
0000
0000
0000
0000
0000
0000
0000
0000
0000
0000
0000
0000
0000
0000
0000
0000
0000
0000
0000
0000
1000
0000
0000
0000
0000
0000
0000
0000
0000
0000
0000
0000
0000
0000
0000
0000
0000
0000
0000
0000
0000
0000
0000
0000
0010
0000
0000
0000
0000
0000
0000
0000
0000
0000
0000
0000
0000
0000
0000
0000
0000
0000
0000
0000
0000
0000
0000
0000
0000
0000
0000
0000
0000
0000
0000
0000
0000
0000
0000
0000
0000
0000
0000
0000
0000
0000
0000
0000
0000
0000
0000
0000
0000
0000
0000
0000
0000
0000
0000
0000
0000
0000
0000
,
0000
0110
0000
0000
0000
0000
0000
0000
0000
0000
0000
0000
0000
0000
0000
0000
0000
0000
0000
0000
0000
0000
0000
0000
0000
0000
0000
0000
0000
0000
0000
0000
0000
0000
0000
0000
0000
0100
0000
0000
0000
0000
0000
0000
0000
0000
0000
0000
0000
0000
0000
0000
0000
0000
0000
0010
0000
0000
0000
0000
0000
0000
0000
0000
0000
0000
0000
0000
0000
0000
0000
0000
0000
1000
0000
0000
0000
0000
0000
0000
0000
0000
0000
0000
0000
0000
0000
0000
0000
0000
0000
0100
0000
0000
0000
0000
0000
0000
0000
0000
0000
0000
0000
0000
0000
0000
0000
0000
0000
0010
0000
0000
0000
0000
0000
0000
0000
0000
0000
0000
0000
0000
0000
0000
0000
0000
0000
0001
0000
0000
0000
0000
0000
0000
0000
0000
0000
0000
0000
0000
0000
0000
0000
0000
0000
0000
0000
0000
0000
0000
0000
0000
0000
0000
0000
0000
0000
0000
0000
0000
0000
0000
0000
0000
0000
0000
0000
0000
0000
0000
0000
0000
0000
0000
0000
0000
0000
0000
0000
0000
0000
0011
0000
0000
0000
0000
0000
0000
0000
0000
0000
0000
,
0000
0000
0000
0000
0000
0000
0000
0000
0000
0000
0000
0000
0000
0000
0000
0000
0000
0000
0000
0000
0000
0000
0000
0000
0000
0010
0000
0000
0000
0000
0000
0000
0000
0000
0000
0000
0000
0000
0000
0000
0000
0000
0000
0000
0000
0000
0000
0000
0000
0100
0000
0000
0000
0000
0000
0000
0000
0000
0000
0000
0000
0000
0000
0000
0000
0000
0000
0000
0000
0000
0000
0000
0000
0000
0000
0000
0000
0000
0000
0000
0000
0000
0000
0000
0000
0000
0000
0000
0000
0000
0000
0000
0000
0000
0000
0000
0000
0000
0000
0000
0000
0000
0000
0000
0000
0000
0000
0000
0000
0110
0000
0000
0000
0000
0000
0000
0000
0000
0000
0000
0000
0000
0000
0000
0000
0000
0000
0000
0000
0000
0000
0000
0000
0000
0000
0000
0000
0000
0000
0000
0000
0000
0000
0000
0000
0100
0000
0000
0000
0000
0000
0000
0000
0000
0000
0000
0000
0000
0000
0000
0000
0000
0000
1000
0000
0000
0000
0000
0000
0000
0000
0000
0000
0000
0000
0000
0000
0000
0000
0000
0000
0001
0000
0000
0000
0000
0000
0000
0000
0000
0000
0000
,
0000
0000
0000
0000
0000
0000
0000
0100
0000
0000
0000
0000
0000
0000
0000
0000
0000
0000
0000
0000
0000
0000
0000
0000
0000
0010
0000
0000
0000
0000
0000
0000
0000
0000
0000
0000
0000
0000
0000
0000
0000
0000
0000
1000
0000
0000
0000
0000
0000
0000
0000
0000
0000
0000
0000
0000
0000
0000
0000
0000
0000
0000
0000
0000
0000
0000
0000
0000
0000
0000
0000
0000
0000
0000
0000
0000
0000
0000
0000
0000
0000
0000
0000
0000
0000
0000
0000
0000
0000
0000
0000
0000
0000
0000
0000
0000
0000
1010
0000
0000
0000
0000
0000
0000
0000
0000
0000
0000
0000
0000
0000
0000
0000
0000
0000
0000
0000
0000
0000
0000
0000
0000
0000
0000
0000
0000
0000
0000
0000
0000
0000
0000
0000
0010
0000
0000
0000
0000
0000
0000
0000
0000
0000
0000
0000
0000
0000
0000
0000
0000
0000
0000
0000
0000
0000
0000
0000
0100
0000
0000
0000
0000
0000
0000
0000
0000
0000
0000
0000
0000
0000
0000
0000
0000
0000
0000
0000
0000
0000
0000
0000
0000
0000
0000
0000
0000
0000
0000
0000
0000
0000
0000
,
0000
0000
0000
0000
0000
0000
0000
0000
0000
0000
0000
0000
0000
0000
0000
0000
0000
0000
0000
0000
0000
0000
0000
0000
0000
0110
0000
0000
0000
0000
0000
0000
0000
0000
0000
0000
0000
0000
0000
0000
0000
0000
0000
0000
0000
0000
0000
0000
0000
0000
0000
0000
0000
0000
0000
0000
0000
0000
0000
0000
0000
0100
0000
0000
0000
0000
0000
0000
0000
0000
0000
0000
0000
0000
0000
0000
0000
0000
0000
0001
0000
0000
0000
0000
0000
0000
0000
0000
0000
0000
0000
0000
0000
0000
0000
0000
0000
0010
0000
0000
0000
0000
0000
0000
0000
0000
0000
0000
0000
0000
0000
0000
0000
0000
0000
0100
0000
0000
0000
0000
0000
0000
0000
0000
0000
0000
0000
0000
0000
0000
0000
0000
0000
1000
0000
0000
0000
0000
0000
0000
0000
0000
0000
0000
0000
0000
0000
0000
0000
0000
0000
0100
0000
0000
0000
0000
0000
0000
0000
0000
0000
0000
0000
0000
0000
0000
0000
0000
0000
0000
0000
0000
0000
0000
0000
0000
0000
0000
0000
0000
0000
0000
0000
0000
0000
0000
0000
0000
0000
0000
0000
0000
,
0000
0000
0000
0000
0000
0000
0000
0000
0000
0000
0000
0000
0000
0110
0000
0000
0000
0000
0000
0000
0000
0000
0000
0000
0000
0000
0000
0000
0000
0000
0000
0000
0000
0000
0000
0000
0000
0000
0000
0000
0000
0000
0000
0000
0000
0000
0000
0000
0000
0010
0000
0000
0000
0000
0000
0000
0000
0000
0000
0000
0000
0000
0000
0000
0000
0000
0000
0000
0000
0000
0000
0000
0000
0001
0000
0000
0000
0000
0000
0000
0000
0000
0000
0000
0000
0000
0000
0000
0000
0000
0000
0000
0000
0000
0000
0000
0000
0000
0000
0000
0000
0000
0000
0000
0000
0000
0000
0000
0000
0000
0000
0000
0000
0000
0000
0000
0000
0000
0000
0000
0000
0000
0000
0000
0000
0000
0000
0000
0000
0000
0000
0000
0000
0011
0000
0000
0000
0000
0000
0000
0000
0000
0000
0000
0000
0000
0000
0000
0000
0000
0000
0000
0000
0000
0000
0000
0000
0000
0000
0000
0000
0000
0000
0000
0000
0000
0000
0000
0000
0001
0000
0000
0000
0000
0000
0000
0000
0000
0000
0000
0000
0000
0000
0000
0000
0000
0000
1000
0000
0000
0000
0000
,
0000
0000
0000
0000
0000
0000
0000
0000
0000
0000
0000
0000
0000
0010
0000
0000
0000
0000
0000
0000
0000
0000
0000
0000
0000
0000
0000
0000
0000
0000
0000
0100
0000
0000
0000
0000
0000
0000
0000
0000
0000
0000
0000
0000
0000
0000
0000
0000
0000
0001
0000
0000
0000
0000
0000
0000
0000
0000
0000
0000
0000
0000
0000
0000
0000
0000
0000
0010
0000
0000
0000
0000
0000
0000
0000
0000
0000
0000
0000
0000
0000
0000
0000
0000
0000
0000
0000
0000
0000
0000
0000
0000
0000
0000
0000
0000
0000
0000
0000
0000
0000
0000
0000
0000
0000
0000
0000
0000
0000
0000
0000
0000
0000
0000
0000
0000
0000
0000
0000
0000
0000
0011
0000
0000
0000
0000
0000
0000
0000
0000
0000
0000
0000
0000
0000
0000
0000
0000
0000
0000
0000
0000
0000
0000
0000
0000
0000
0000
0000
0000
0000
0000
0000
0000
0000
0000
0000
0010
0000
0000
0000
0000
0000
0000
0000
0000
0000
0000
0000
0000
0000
0000
0000
0000
0000
0000
0000
0000
0000
0000
0000
0100
0000
0000
0000
0000
0000
0000
0000
0000
0000
0000
,
0000
0000
0000
0000
0000
0000
0000
0000
0000
0000
0000
0000
0000
0000
0000
0000
0000
0000
0000
0000
0000
0000
0000
0000
0000
0000
0000
0000
0000
0000
0000
0000
0000
0000
0000
0000
0000
0000
0000
0000
0000
0000
0000
0000
0000
0000
0000
0000
0000
0110
0000
0000
0000
0000
0000
0000
0000
0000
0000
0000
0000
0000
0000
0000
0000
0000
0000
0000
0000
0000
0000
0000
0000
0000
0000
0000
0000
0000
0000
0000
0000
0000
0000
0000
0000
0100
0000
0000
0000
0000
0000
0000
0000
0000
0000
0000
0000
0000
0000
0000
0000
0000
0000
1000
0000
0000
0000
0000
0000
0000
0000
0000
0000
0000
0000
0000
0000
0000
0000
0000
0000
0010
0000
0000
0000
0000
0000
0000
0000
0000
0000
0000
0000
0000
0000
0000
0000
0000
0000
0100
0000
0000
0000
0000
0000
0000
0000
0000
0000
0000
0000
0000
0000
0000
0000
0000
0000
0001
0000
0000
0000
0000
0000
0000
0000
0000
0000
0000
0000
0000
0000
0000
0000
0000
0000
1000
0000
0000
0000
0000
0000
0000
0000
0000
0000
0000
0000
0000
0000
0000
0000
0000
,
0000
0000
0000
0000
0000
0000
0000
0000
0000
0000
0000
0000
0000
0000
0000
0000
0000
0000
0000
0000
0000
0000
0000
0000
0000
0000
0000
0000
0000
0000
0000
0000
0000
0000
0000
0000
0000
1100
0000
0000
0000
0000
0000
0000
0000
0000
0000
0000
0000
0000
0000
0000
0000
0000
0000
0000
0000
0000
0000
0000
0000
0000
0000
0000
0000
0000
0000
0000
0000
0000
0000
0000
0000
0100
0000
0000
0000
0000
0000
0000
0000
0000
0000
0000
0000
0000
0000
0000
0000
0000
0000
0000
0000
0000
0000
0000
0000
0010
0000
0000
0000
0000
0000
0000
0000
0000
0000
0000
0000
0000
0000
0000
0000
0000
0000
0000
0000
0000
0000
0000
0000
0000
0000
0000
0000
0000
0000
0000
0000
0000
0000
0000
0000
0000
0000
0000
0000
0000
0000
0000
0000
0000
0000
0000
0000
0000
0000
0000
0000
0000
0000
0000
0000
0000
0000
0000
0000
0110
0000
0000
0000
0000
0000
0000
0000
0000
0000
0000
0000
0000
0000
0000
0000
0000
0000
0000
0000
0000
0000
0000
0000
0000
0000
0000
0000
0000
0000
0000
0000
0000
0000
0000
,
0000
0010
0000
0000
0000
0000
0000
0000
0000
0000
0000
0000
0000
0000
0000
0000
0000
0000
0000
0001
0000
0000
0000
0000
0000
0000
0000
0000
0000
0000
0000
0000
0000
0000
0000
0000
0000
1000
0000
0000
0000
0000
0000
0000
0000
0000
0000
0000
0000
0000
0000
0000
0000
0000
0000
0010
0000
0000
0000
0000
0000
0000
0000
0000
0000
0000
0000
0000
0000
0000
0000
0000
0000
0100
0000
0000
0000
0000
0000
0000
0000
0000
0000
0000
0000
0000
0000
0000
0000
0000
0000
0000
0000
0000
0000
0000
0001
0000
0000
0000
0000
0000
0000
0000
0000
0000
0000
0000
0000
0000
0000
0000
0000
0000
0000
0000
0000
0000
0000
0000
2002
0000
0000
0000
0000
0000
0000
0000
0000
0000
0000
0000
0000
0000
0000
0000
0000
0000
0000
0000
0000
0000
0000
0000
0000
0000
0000
0000
0000
0000
0000
0000
0000
0000
0000
0000
0000
0000
0000
0000
0000
0000
0000
0000
0000
0000
0000
0000
3013
0000
0000
0000
0000
0000
0000
0000
0000
0000
0000
0000
0000
0000
0000
0000
0000
0000
0000
0000
0000
0000
0000
0000
,
0000
0000
1000
0000
0001
0010
0000
0010
0001
1000
0010
0000
1000
0000
2200
0000
,
0000
3310
0000
0010
1010
0101
1001
0000
,
0100
0000
2002
0000
0000
0000
3013
0000
0000
0000
0001
0000
0010
0100
0000
1000
,
0100
0010
0001
0000
1000
0000
0202
0000
0000
0000
0313
0000
0000
0000
0010
0000
,
1001
0101
1010
0000
0110
2002
0000
3013
,
0000
0000
0100
0000
0001
0010
0000
0100
0010
0001
0100
0000
0010
0000
2002
0000
,
0000
3013
0000
0001
1001
0110
1001
0000
,
0010
0000
2002
0000
0000
0000
3013
0000
0000
0000
0100
0000
0010
1000
0000
0100
,
0010
0001
1000
0000
0010
0000
2200
0000
0000
0000
3310
0000
0000
0000
0110
0000
,
1001
0000
0000
0110
0000
0000
0202
0000
0000
0000
0303
0000
0001
0000
0000
0000
,
0001
0010
0001
0000
0000
0000
0001
1000
0001
0000
0000
0000
0001
0100
0001
0000
,
0000
0000
0001
1000
0100
0000
0000
0000
0100
1000
0010
0000
0000
0000
0010
1000
,
0001
0000
0000
0000
0001
1000
0100
0000
0000
0000
1000
0001
0100
0000
0000
0000
,
0001
1000
0100
0000
0000
0000
0010
0001
1000
0000
0000
0000
0001
0010
0100
0000
,
0000
0000
0100
0010
0001
0000
0000
0000
0001
0100
0001
0000
0000
0000
1000
0000
,
0010
0000
0000
0000
1000
0100
0010
0000
0000
0000
1001
0000
0220
0000
0000
0000
,
0000
0000
0000
0000
0030
0000
0001
0301
0000
0000
0000
0000
0000
0000
0000
0000
0000
0000
0000
0000
0000
0000
0000
0000
0000
0000
0000
0000
0000
0000
0000
0000
;
