#TITLE:Freak Empire;
#SUBTITLE:;
#ARTIST:KoRn + Novasonic Remix;
#TITLETRANSLIT:;
#SUBTITLETRANSLIT:;
#ARTISTTRANSLIT:;
#CRChallenge:;
#BANNER:empire.png;
#BACKGROUND:empire-bg.png;
#LYRICSPATH:;
#CDTITLE:;
#MUSIC:empire.ogg;
#OFFSET:0.000;
#SAMPLESTART:93.387;
#SAMPLELENGTH:12.000;
#SELECTABLE:YES;
#BPMS:0.000=105.000;
#STOPS:;
#BGCHANGES:;
#NOTES:
     dance-single:
     Nonstop:
     Challenge:
     10:
     1.000,1.000,1.000,0.110,1.000:
0000
0000
0000
0000
,
0000
0000
0000
0000
,
0000
0000
0000
0000
,
0000
0000
0000
0000
0000
0000
0000
0000
1001
0000
1001
0000
1001
0000
1000
0001
,
0100
0010
0000
1000
0100
0000
1000
0001
0010
0001
0000
0010
0100
0000
0110
0000
,
0010
0100
0000
1000
0010
0000
0100
0001
1000
0100
0010
0001
0010
0100
1000
0001
,
0010
0001
0000
1000
0001
0000
1010
0000
1000
0010
0000
0100
0001
0000
1001
0000
,
1000
0100
0000
0010
0001
0000
0010
0100
1000
0000
1100
0000
1001
0000
0000
0000
,
1000
0001
0100
0001
1000
0100
1000
0001
0100
0001
1000
0100
1000
0001
0100
0000
,
0001
1000
0010
1000
0001
0010
0001
1000
0010
1000
0001
0010
0001
0000
1000
0000
,
0100
1000
0001
0100
0001
1000
0100
1000
0001
0100
0001
1000
0100
1000
0001
0000
,
0010
0001
1000
0010
1000
0001
0010
0001
1000
0010
1000
0000
0001
0100
0000
0000
,
0001
0100
0010
0100
0001
0010
0100
0010
0001
0100
0010
0100
0001
0010
0100
0000
,
0100
1000
0010
0100
1000
0100
0010
1000
0100
0010
0100
1000
0010
0100
0000
0000
,
0001
0100
0010
0100
0001
0010
0100
0001
0100
0010
0001
0100
0010
1000
0000
0000
,
0100
1000
0010
0100
1000
0100
0010
1000
0100
0010
0100
1000
0001
0100
0010
0000
,
1000
0000
0010
1000
0001
0000
0000
0000
1001
0000
0000
0000
1000
0001
0100
0000
,
0001
0000
1000
0100
1000
0000
0001
0000
0101
0000
0000
0000
0010
1000
0100
0000
,
0010
0000
0001
0010
0100
0000
0000
0000
0110
0000
0000
0000
0100
1000
0001
0100
,
0010
1000
0100
0010
0001
0010
0100
1000
0001
0100
0010
1000
0100
0010
0001
0000
,
0010
0000
0100
0000
0110
0000
0100
1000
0001
0100
0010
0000
0110
0000
0010
1000
,
0100
0010
0100
0000
0110
0000
0010
0001
0100
0010
0100
0000
0110
0000
0010
1000
,
0100
0010
0001
0000
0011
0000
0010
0100
1000
0001
1000
0000
1001
0000
1000
0001
,
0100
0010
1000
0000
1010
0000
1000
0010
0100
0000
1001
0000
0110
0000
0000
0000
,
0010
1000
0001
1000
0100
0000
1000
0000
0001
0000
0100
0000
0000
0000
0001
0000
,
1000
0000
0000
0000
,
0100
1000
0001
0010
0001
1000
0010
0100
0001
0000
1000
0000
0100
0000
1000
0001
,
0100
0000
0000
0010
1000
0000
0000
0100
0010
0000
0000
0001
0010
0000
0100
0000
,
1000
0000
0001
0100
0001
0000
1000
0100
1000
0000
0001
0100
0001
0000
1000
0000
,
0100
0000
0010
0001
0010
0000
0001
1000
0001
0000
1000
0000
0010
0000
0100
0000
,
0001
1000
0001
0000
1000
0000
0100
1000
0001
0000
1000
0000
0001
0000
0100
0000
,
0001
0000
1000
0010
1000
0000
0001
0000
0010
0000
0100
0000
1000
0000
0000
0000
,
0001
0100
0001
0000
1000
0000
0100
1000
0000
0001
0010
0000
0011
0000
0010
0001
,
1000
0010
0100
0000
0110
0000
0010
1000
0000
0001
0010
0000
0011
0000
0010
0100
,
1000
0001
0100
0000
0101
0000
0100
0010
0000
1000
0001
0000
1001
0000
1000
0100
,
0010
0001
0010
0000
0011
0000
0010
0100
0000
0100
1000
0000
1001
0000
1000
0001
,
0100
0010
1000
0000
0110
0000
0010
1000
0000
1000
0001
0000
0101
0000
0001
1000
,
0100
0010
0001
0000
0011
0000
0010
0100
0000
0100
0010
0000
0110
0000
0100
1000
,
0001
0100
0010
0000
1010
0000
1000
0010
0000
0010
0100
0000
0110
0000
0010
1000
,
0001
0010
0001
0000
0011
0000
0010
0100
0000
0100
0010
0000
0110
0000
0100
1000
,
0001
0000
0000
0000
0000
0000
0000
1001
,
1000
0000
0000
0001
0000
0001
0100
0000
0000
0010
0000
1000
0100
0010
0001
0010
,
0100
0000
0000
1000
0000
1000
0001
0000
0000
0100
0000
0010
1000
0100
0010
0001
,
0010
0000
0000
0001
0000
0001
1000
0000
0000
0010
0000
0010
0100
0001
1000
0100
,
0010
0000
0000
0001
0000
0001
1000
0000
0000
0010
0000
0100
0001
0100
0010
1000
,
0100
0000
0000
1000
0000
1000
0001
0000
0000
0100
0000
0010
1000
0100
0010
0001
,
0010
0000
0000
0001
0000
0001
1000
0000
0000
0010
0000
0100
0001
1000
0100
0010
,
0001
0000
0000
1000
0000
1000
0010
0000
0000
0100
0000
0001
1000
0100
0010
0001
,
1000
0000
0000
0010
0000
0010
0100
0000
0000
0001
0000
0010
0100
1000
0001
0100
,
0010
1000
0010
1000
0001
1000
0001
1000
0100
0000
1100
0000
0000
0000
1000
0000
,
0001
0100
0001
0100
0001
1000
0001
1000
0001
0000
0011
0000
0000
0000
0001
0000
,
1000
0100
1000
0100
1000
0001
1000
0001
1000
0000
1010
0000
0000
0000
1000
0000
,
0001
0100
0001
0100
0001
1000
0001
0000
0011
0000
0011
0000
1001
0000
0001
0100
,
0010
0000
1010
0000
1000
0000
0100
0000
0010
0001
0000
0010
0100
1000
0001
0000
,
0100
0000
0110
0000
0010
0000
1000
0100
0010
0000
0011
0000
1100
0000
1000
0000
,
0001
0000
0101
0000
0100
0000
0010
0000
1000
0100
0000
0010
0001
0010
0100
0000
,
1000
1001
0100
0010
1010
0101
1001
1000
,
0100
0000
1001
0000
1000
0000
0100
0000
0010
0001
0000
0010
0100
1000
0001
0000
,
0100
0000
1001
0000
1000
0000
0010
0100
0001
0000
0100
0010
1000
0000
0100
0000
,
1000
0000
0011
0000
0010
0000
0100
0000
1000
0001
0000
0100
0010
1000
0100
0000
,
1000
0000
1001
0000
1000
0000
0100
0010
0001
0000
0010
0100
1000
0000
0000
0000
,
1001
0000
1001
0000
0100
0000
0010
1000
0000
0010
0100
0000
0010
0000
1010
0000
,
1000
0100
0010
0011
0010
0100
1000
1001
,
0100
0000
0010
0000
1000
0000
0100
1000
0000
0001
1000
0000
0010
0000
1000
0000
,
1100
1000
0100
0110
0010
0001
1001
0100
,
1010
0000
1000
0000
0100
0000
0010
0001
0000
0001
0010
0000
0100
0000
0010
0000
,
0110
0000
0100
0000
1000
0000
0001
0100
0000
0010
1000
0000
0100
0000
1000
0000
,
0001
0000
0010
0000
0011
0000
0010
0100
0000
1000
0100
0000
1100
0000
1000
0010
,
0100
0000
0001
0000
0100
0000
0010
1000
0000
0001
0100
0010
1000
0000
0100
0000
,
1000
0100
1000
0001
1000
0000
0010
0000
0100
0001
1000
0001
0010
0000
0001
0000
,
1000
0100
1000
0001
0100
0000
0010
0000
1000
0100
0010
0001
1001
0000
0000
0000
,
0220
0000
0000
0000
,
0000
0000
0330
0000
;
