#TITLE:Fox on the Run;
#SUBTITLE:;
#ARTIST:Touch of Joy;
#TITLETRANSLIT:;
#SUBTITLETRANSLIT:;
#ARTISTTRANSLIT:;
#CRChallenge:;
#BANNER:;
#BACKGROUND:;
#LYRICSPATH:;
#CDTITLE:;
#MUSIC:fox.ogg;
#OFFSET:0.000;
#SAMPLESTART:66.468;
#SAMPLELENGTH:12.000;
#SELECTABLE:YES;
#BPMS:0.000=129.982;
#STOPS:;
#BGCHANGES:;
#NOTES:
     dance-single:
     Renard:
     Hard:
     10:
     0.753,0.860,0.271,0.135,0.667:
0000
0000
0000
0000
,
0000
0000
0000
0000
,
0000
0000
0000
0000
,
0000
0000
0000
0000
,
0001
0010
0001
0010
0100
1000
0100
1000
0010
1000
0010
1000
0001
0100
0001
0100
,
0001
0010
0100
1000
0001
0010
0100
1000
0100
0010
0001
1000
0100
0010
0001
1000
,
0100
1000
0100
1000
0001
0010
0001
0010
0001
1000
0001
1000
0010
1000
0010
1000
,
0001
0100
0010
1000
0010
0100
0001
0100
0010
1000
0100
0010
0001
0010
0100
1000
,
0001
0010
0100
0000
1000
0100
0010
0000
0001
0010
0100
0000
1000
0000
0010
0000
,
0100
0001
0100
0000
0010
1000
0010
0000
0100
0001
0100
0000
0010
0000
1000
0000
,
0100
0010
0001
0000
0010
0100
1000
0000
0001
0010
0100
0000
1000
0000
0100
0000
,
1000
2000
0100
3200
0010
0320
0002
0033
,
0001
0010
1000
0002
0M00
1003
0010
0001
,
0100
1000
0001
1000
0100
0001
0010
1000
,
0001
1000
0010
0200
000M
1300
0010
0001
,
0010
0100
1000
0001
1000
0100
0020
000M
,
0130
0001
0010
2000
0M00
3100
1000
0010
,
0001
0100
1000
0010
1000
0100
0001
1000
,
0010
0001
0010
0200
00M0
0301
0010
1000
,
0010
0000
0100
0000
1000
0000
0001
0000
0100
0000
0010
0000
1000
0001
1000
0001
,
1000
0000
0100
0000
1100
0000
1000
0100
0010
0000
0001
0000
0011
0000
0000
0000
,
0001
0000
0010
0000
0011
0000
0001
0010
0100
0000
1000
0000
1100
0000
0000
0000
,
1000
0000
0010
0000
1010
0000
0010
0100
0001
0000
0100
0000
0101
0000
0000
0000
,
0001
0000
0010
0000
0011
0000
0001
0010
0100
0000
1000
0000
1100
0000
0000
0000
,
1000
0000
0010
0100
0001
0000
0100
0000
0001
0000
1000
0000
1001
0000
0000
0000
,
1000
0000
0001
0010
0100
0000
1000
0000
0001
0000
0100
0000
0110
0000
0000
0000
,
0010
0000
1000
0100
0010
0000
0001
0010
0100
0000
1000
0001
0100
0000
0010
1000
,
0100
0000
0010
0000
0001
0010
0000
0100
0000
1000
0001
0010
0001
1000
0100
0010
,
0001
0000
0010
0000
0011
0000
0001
0010
0100
0000
1000
0000
1100
0000
0000
0000
,
1000
0000
0100
0000
1100
0000
1000
0100
0010
0000
0001
0000
0011
0000
0000
0000
,
0001
0000
0100
0000
0101
0000
0100
0010
1000
0000
0010
0000
1010
0000
0000
0000
,
1000
0000
0100
0000
1100
0000
1000
0100
0010
0000
0001
0000
0011
0000
0000
0000
,
0001
0000
0100
0010
1000
0000
0010
0000
1000
0000
0001
0000
1001
0000
0000
0000
,
0001
0000
1000
0100
0010
0000
0001
0000
1000
0000
0010
0000
0110
0000
0000
0000
,
0010
1000
0001
0100
0010
1000
0001
0100
0010
1000
0001
0100
0010
1000
0001
0100
,
0001
0010
0100
1000
0001
0010
0100
2000
0200
0000
0000
0000
3311
0000
0000
0000
,
1000
0100
0010
0001
1000
0100
0010
0001
1000
0100
0010
0001
1000
0100
0010
0001
,
1000
0100
0010
0001
1000
0100
0010
0001
,
1000
0010
0100
0001
1000
0010
0100
0001
1000
0010
0100
0001
1000
0010
0100
0001
,
1000
0010
0100
0001
1000
0010
0100
0001
,
0001
0010
0100
1000
0001
0010
0100
1000
0001
0010
0100
1000
0001
0010
0100
1000
,
0001
0010
0100
1000
0001
0010
0100
1000
,
0001
0000
0000
0001
0200
0000
0010
0000
1000
0000
0010
0000
0301
0000
0000
0000
,
0001
0000
0000
1000
0200
0000
0010
0000
0001
0000
0010
0000
1300
0000
0000
0000
,
1000
0000
0001
0100
0001
0000
0100
0000
0010
0000
1000
0010
1000
0000
0100
0000
,
0010
0000
0001
0010
0001
0000
0010
0000
0100
0000
0000
0000
1100
0000
0000
0000
,
1001
0000
1000
0100
0010
0001
1000
0000
1001
0000
0001
0010
0100
1000
0001
0000
,
1001
0000
1000
0010
0100
0001
1000
0000
1001
0000
0001
0100
0010
1000
0001
0000
,
1000
0000
1000
0000
0100
0010
0000
0001
0000
0010
0100
1000
0001
0010
0100
1000
,
0001
0010
0001
1000
0100
0010
0001
0010
0100
1000
0100
1000
0001
0010
0001
1000
,
0001
0000
0000
0000
;
#NOTES:
     dance-single:
     Renard:
     Medium:
     9:
     0.570,0.547,0.094,0.021,0.146:
0000
0000
0000
0000
,
0000
0000
0000
0000
,
0000
0000
0000
0000
,
0000
0000
0000
0000
,
1000
0000
0001
0000
0100
0001
0100
0000
0001
0000
1000
0000
0100
1000
0100
0000
,
1000
1000
0001
0001
0010
0010
0100
0100
,
1000
0000
0010
1000
0010
0000
1000
0000
0001
0000
0100
0001
0100
0000
0001
0000
,
1000
1000
0100
0100
0010
0010
0002
0000
,
1003
0000
0010
1000
0010
0000
1000
0000
0001
0000
0100
0001
0100
0000
0001
0000
,
0010
0010
0100
0100
1000
1000
0010
0010
,
0100
0000
0001
0100
0001
0000
0100
0000
0010
0000
1000
0010
1000
0000
0010
0000
,
0100
0100
0001
0001
0010
0010
0200
0000
,
1300
0100
0010
0001
0000
0001
0010
0100
,
1000
1000
0010
0010
0100
0100
0001
0001
,
0010
0100
1000
0100
0000
0010
0001
1000
,
0010
0010
1000
1000
0001
0001
0100
0000
,
0001
0100
0010
1000
0000
1000
0100
0010
,
0001
0001
0010
0010
1000
1000
0010
0000
,
0010
0100
1000
0010
0000
0010
0100
0100
,
0001
0001
0100
0100
0010
0010
1000
0000
,
1010
0000
0000
0000
1000
0000
0010
0000
0100
0000
0001
0010
0001
0000
0010
0000
,
0100
1000
0001
0100
0010
0010
0000
1000
,
0000
0000
1000
0000
0010
0000
0100
0000
0001
0000
1000
0100
1000
0000
0001
0000
,
0010
0100
1000
0001
0100
0010
1000
0001
,
0000
0000
0001
0000
0100
0000
0010
0000
1000
0000
0100
1000
0100
0000
1000
0000
,
0100
0010
0001
1000
0010
0100
0001
0010
,
0001
0000
0000
0000
0001
0000
1000
0100
1000
0000
0001
0000
0010
0000
0001
0000
,
1000
1010
1001
1100
,
1001
0000
0000
0000
1000
0000
0100
0000
0010
0000
0001
1000
0001
0000
0100
0000
,
0010
1000
0100
0010
0001
1000
0000
0010
,
0000
0000
0100
0001
0100
0000
0001
0000
1000
0000
0100
0000
0010
0000
0001
0000
,
1000
0010
0100
0001
0010
0010
0100
1000
,
0000
0000
1000
0001
1000
0000
0001
0000
0100
0000
0010
0000
1000
0000
0100
0000
,
0010
0010
0001
0001
0010
0010
0100
0100
,
1000
0001
0100
0010
1000
0100
0010
0001
,
0010
0100
1000
0001
0101
0000
1010
0000
,
1000
0000
0010
1000
0010
0000
1000
0000
0001
0000
0100
0001
0100
0000
0001
0000
,
0010
0100
1000
0100
0010
0001
1000
0100
,
0010
0000
0001
0010
0001
0000
0010
0000
0100
0000
1000
0100
1000
0000
0100
0000
,
1000
0010
0100
0001
1000
0001
0010
0100
,
1000
0000
0100
1000
0100
0000
1000
0000
0001
0000
0010
0001
0010
0000
0001
0000
,
0010
0100
1000
0001
0100
0010
1000
0001
,
0100
0000
0001
0100
0001
0000
0100
0000
0010
0000
1000
0010
1000
0000
0010
0000
,
1000
1000
0100
0010
0001
0010
0100
0010
,
1000
0010
0100
0010
0001
0100
0010
1000
,
0100
0100
0010
0001
1000
1000
0010
0100
,
0101
0000
0000
0000
0100
0000
0010
0000
1000
0000
0100
0000
0010
0000
0001
0010
,
0001
0000
0010
0000
0100
0000
1000
0000
0010
0000
0100
0000
0001
0000
1000
0100
,
1000
0000
0001
0000
0010
0000
0001
1000
0001
0000
1000
0000
0010
0000
0100
0010
,
0100
0000
0001
0000
0010
0000
0100
0000
1000
0000
0001
0000
0010
0001
1000
0000
,
0110
0000
0000
0000
;
#NOTES:
     dance-single:
     Renard:
     Easy:
     5:
     0.342,0.443,0.052,0.000,0.000:
0000
0000
0000
0000
,
0000
0000
0000
0000
,
0000
0000
0000
0000
,
0000
0000
0000
0000
,
1000
0000
1000
0001
0000
0001
0100
0000
,
0010
0000
0010
1000
0010
0000
0100
0001
,
0100
0000
0001
0010
0000
0000
0100
0000
,
1000
0000
0001
0100
0001
0000
1000
0010
,
1000
0000
0000
0001
0000
0000
0010
0000
,
0001
0000
1000
0100
1000
0000
0001
0010
,
0001
0000
0000
1000
0000
0000
0010
0000
,
0100
0001
0100
0000
0010
1000
0010
0000
,
1000
0000
0000
0100
0000
0010
0001
0010
,
0100
0100
1000
1000
,
0010
0000
0000
0100
0000
0001
0100
0010
,
1000
1000
0010
0010
,
0100
0000
0000
0001
0000
0100
0010
0100
,
0010
0010
1000
1000
,
0010
0000
0100
0001
0000
0000
0100
0000
,
0010
1000
0010
0000
1000
0001
1000
0000
,
0011
0000
0010
0100
,
1000
0100
1000
0000
0001
1000
0000
0001
,
0000
0100
0000
0000
0010
0000
1000
0000
,
0001
0000
0001
0000
0100
0000
0010
1000
,
0000
0010
0000
0000
0100
0000
0001
1000
,
0100
1000
0001
0100
,
0010
0000
1000
0000
0010
1000
0001
1000
,
0100
1000
0001
0010
,
1001
0000
0000
0000
0001
0000
0100
0010
,
1000
0000
0010
0000
0100
0001
0000
0100
,
0000
0001
0000
0000
1000
0000
0100
0000
,
0010
0000
0001
0000
0010
0100
0000
1000
,
0000
0001
0000
0000
0100
0000
0010
0000
,
1000
0010
1000
0000
0001
1000
0001
0000
,
0100
0001
0100
0000
0001
1000
0001
1000
,
0100
1000
1100
0011
,
1000
0000
1000
0000
0001
0000
0001
0100
,
0000
0000
0010
1000
0010
1000
0010
1000
,
0010
0000
1000
0000
0001
0100
0001
0010
,
0000
0000
0001
1000
0001
1000
0001
1000
,
0010
0000
0100
0000
0001
0000
1000
0100
,
0000
1000
0001
0010
,
0001
1000
0010
0100
,
0001
1000
0000
0100
0000
0010
0000
0001
,
1000
0001
1000
0001
1000
0001
1000
0001
,
1000
0001
1000
0001
1000
0001
1000
0001
,
0100
0000
0100
0000
0010
0000
1000
0100
,
0000
0010
0001
0010
0100
0000
1000
0000
,
0001
0100
0010
0000
1000
0010
0100
0000
,
0001
1000
0100
0010
,
1001
0000
0000
0000
;
#NOTES:
     dance-single:
     Renard:
     Beginner:
     3:
     0.267,0.287,0.073,0.240,0.000:
0000
0000
0000
0000
,
0000
0000
0000
0000
,
0000
0000
0000
0000
,
0000
0000
0000
0000
,
1000
1000
0001
0001
,
0100
0100
0010
0010
,
1000
1000
0001
0001
,
0010
0100
1000
0010
,
0100
0000
0001
0100
,
0010
0010
1000
1000
,
0100
0000
0010
0001
,
1000
0010
0100
0001
,
2000
0000
3002
0000
,
0103
0100
0010
0010
,
2000
0000
3002
0000
,
0013
0010
0100
0100
,
2000
0000
3002
0000
,
0103
0100
0010
0010
,
2000
0000
3002
0000
,
0013
0100
0010
0100
,
1100
0000
1000
0001
,
0100
0100
0001
0001
,
0011
0000
0010
0100
,
1000
1000
0010
0010
,
0101
0000
0100
0100
,
0001
1000
0001
1000
,
0200
0000
2300
3002
,
0023
0000
0032
0000
,
1003
0000
1010
0000
,
0100
0001
0010
0010
,
0001
0000
1001
0000
,
0001
0001
0100
0010
,
1000
0000
1010
0000
,
1000
0100
0010
0001
,
2000
0000
3020
0230
,
0302
0000
0023
0000
,
0130
0000
0100
1000
,
0010
0000
0100
0001
,
0020
0000
0031
1000
,
0100
0000
1000
0010
,
0100
0000
0001
0010
,
0100
0000
1000
0010
,
0200
0000
0320
0000
,
1030
1000
0010
0100
,
0001
1000
0001
1000
,
0001
1000
0001
1000
,
0002
0000
0103
0010
,
2000
0000
3100
0010
,
0001
1000
0001
0100
,
0010
0000
0010
1000
,
1100
0000
0000
0000
;
