#TITLE:Forever the Same;
#SUBTITLE:;
#ARTIST:Teranoid;
#TITLETRANSLIT:;
#SUBTITLETRANSLIT:;
#ARTISTTRANSLIT:;
#CRChallenge:;
#BANNER:same.png;
#BACKGROUND:same-bg.png;
#LYRICSPATH:;
#CDTITLE:!cdtitle.png;
#MUSIC:same.ogg;
#OFFSET:0.000;
#SAMPLESTART:55.774;
#SAMPLELENGTH:12.000;
#SELECTABLE:YES;
#DISPLAYBPM:172.000;
#BPMS:0.000=172.000,60.000=86.000,62.000=172.000,218.000=86.000,220.000=172.000;
#STOPS:;
#BGCHANGES:;
#NOTES:
     dance-single:
     Renard:
     Easy:
     7:
     0.544,0.465,0.295,0.127,0.042:
0000
0000
0000
0000
,
0000
0000
0000
0000
,
0000
0000
0000
0000
,
0000
0000
0000
MMMM
,
0001
0000
0000
0001
0000
0001
0000
0001
,
0000
0000
0000
0000
,
1000
0000
0000
1000
0000
1000
0002
0000
,
2003
0000
0000
3200
0000
0320
0000
0000
,
0031
0000
0001
0010
0000
0010
0001
0010
,
0100
0000
0100
1000
0000
1000
0100
1000
,
0010
0000
0010
1000
0000
1000
0010
1000
,
0001
0000
0001
0100
0000
0100
0001
0100
,
0001
0000
0001
1000
0000
1000
0001
1000
,
0010
0000
0010
0100
0000
0100
0010
0100
,
0010
0000
0010
1000
0000
1000
0010
1000
,
0002
0000
0000
0000
0103
0010
1000
0010
,
0000
0100
0001
0010
0100
1000
0100
1000
,
0000
0001
0010
0100
1000
0001
0100
0010
,
0000
0010
0100
0001
1000
0100
1000
0010
,
0000
1000
0001
0010
0001
0100
0010
1000
,
0000
0010
1000
0100
0010
0001
1000
0001
,
0000
0100
0010
1000
0100
0010
0001
1000
,
0000
1000
0010
0100
2002
0000
0000
0000
,
0000
0000
3003
0000
0001
0100
0010
1000
,
0000
1000
0010
0000
1000
0010
0100
0001
,
0000
0001
0100
0000
0010
1000
0001
0100
,
0000
0100
0001
0000
0100
0010
1000
0100
,
0010
0000
0010
0000
0001
0010
0100
1000
,
0000
1000
0100
0000
1000
0100
0010
0001
,
0000
0001
0010
0000
0001
0010
0100
1000
,
0000
1000
0001
0000
0200
0000
0010
0000
,
1000
0000
0301
0100
0010
0000
0010
1000
,
0000
1000
0100
0010
0001
0000
0001
0010
,
0000
0010
0100
1000
0001
0000
0100
0010
,
0000
1000
0100
0020
0001
0000
0100
0000
,
1000
0000
0130
0010
0001
0000
0001
1000
,
0000
1000
0010
0100
0001
0000
0001
0010
,
0000
0010
0100
1000
0010
0000
0010
0100
,
0000
0100
0001
0200
0010
0000
0000
0000
,
0010
0010
0310
0000
1010
0000
0100
0001
,
0000
0011
0000
1100
0000
0001
0100
0010
,
1000
0100
0010
0000
0011
0000
1000
0100
,
0000
0011
0000
1100
0000
1000
0010
0100
,
0001
0010
0100
1000
0001
0000
0001
0100
,
0000
0110
0000
1001
0000
1000
0100
0010
,
0001
1000
0010
0100
0010
0000
0010
1000
,
0000
1000
0001
0000
0110
0000
1001
0000
,
1100
0000
0011
0000
1001
0000
0001
0100
,
0000
0110
0000
1010
0000
1000
0010
0100
,
0001
0000
0011
0000
0110
0000
0100
1000
,
0000
1001
0000
0110
0000
0010
1000
0001
,
0100
0000
0110
0000
1001
0000
1000
0100
,
0000
0011
0000
1100
0000
0001
0100
0010
,
1000
0000
1010
0000
0101
0000
0001
0010
,
0000
1100
0000
0002
2000
0000
0000
3003
,
0001
0000
0000
1000
0000
0000
0100
0000
0000
0000
0010
0000
0001
0000
1000
0000
,
0010
0000
0000
0100
0000
0000
0010
0000
0000
0000
1000
0000
0100
0000
0000
0000
,
0010
0000
0000
0001
0000
0000
1000
0000
0000
0000
0010
0000
0100
0000
0001
0000
,
1000
0000
0000
0100
0000
0000
0010
0000
0000
0000
0001
0000
0010
0000
0000
0000
,
0100
0000
0000
1000
0000
0000
0001
0000
0000
0000
0100
0000
0010
0000
1000
0000
,
0100
0000
0000
0010
0000
0000
0001
0000
0000
0000
1000
0000
0001
0000
0000
0000
,
0100
0000
0000
0010
0000
0000
1000
0000
0000
0000
0010
0000
0100
0000
0001
0000
,
0010
0000
0000
0100
0000
0000
1000
0000
0000
0000
0001
0000
0100
0000
0000
0000
,
1001
0000
0000
0000
;
#NOTES:
     dance-single:
     Renard:
     Medium:
     9:
     0.607,0.631,0.232,0.105,0.063:
0000
0000
0000
0000
,
0000
0000
0000
0000
,
0000
0000
0000
0000
,
0000
0000
0000
0000
,
1000
0000
0000
1000
0000
0001
0000
1000
,
0000
0000
0000
0000
,
0001
0000
0000
0001
0000
1000
0002
0000
,
0203
0000
0000
0320
0000
2030
0000
0000
,
3100
0010
0001
0010
0000
0010
0100
1000
,
0100
0010
0001
0010
0000
0010
0100
1000
,
0001
0100
0010
1000
0000
1000
0010
0100
,
0001
0100
0010
1000
0000
1000
0010
0100
,
0001
0010
0100
1000
0000
1000
0100
0010
,
0001
1000
0001
0010
0000
0010
0001
0010
,
0100
1000
0001
0100
0000
0100
0010
1000
,
0020
0000
0000
0000
1030
0100
0010
0001
,
0100
0010
0100
1000
0100
0001
0010
0100
,
1000
0100
0010
0100
0001
0100
0010
0100
,
1000
0010
0100
0010
0001
0010
1000
0100
,
0010
0001
1000
0010
0100
1000
0100
0010
,
0100
0001
0010
0100
0010
1000
0010
0100
,
0010
0001
0010
0100
1000
0001
0100
0010
,
1000
0100
0010
0002
2000
0000
0000
0000
,
0000
0000
0000
3003
0001
0100
1000
0001
,
0000
0000
0001
0000
0010
1000
0100
0001
,
0000
0000
0001
0000
1000
0010
0001
0100
,
0000
0000
0100
0000
1000
0001
0010
1000
,
0100
0000
0010
0000
0001
0010
1000
0001
,
0000
0000
0001
0000
0100
1000
0010
0001
,
0000
0000
0001
0000
1000
0100
0001
0010
,
0000
0010
0100
1000
,
0100
0000
0010
0001
0010
1000
0010
0001
,
0000
0001
0010
0000
1000
0001
0100
1000
,
0000
1000
0100
0000
1000
0010
0001
0010
,
0000
0010
1000
0000
0001
0100
1000
0000
,
1000
0100
0001
0000
0001
0100
1000
0001
,
0000
0001
0010
0000
1000
0100
0001
1000
,
0000
1000
0010
0001
0010
0000
0010
0100
,
0000
0100
1000
0010
0200
0000
0000
0000
,
0010
0010
0310
0000
0100
0001
0100
0100
,
1000
0100
0010
0100
1000
0100
0100
1000
,
0100
0010
0100
0001
0010
0100
0010
0010
,
1000
0010
0100
0010
0001
0010
0010
0001
,
0010
0100
0010
0100
1000
0100
1000
1000
,
0010
1000
0001
1000
0010
1000
1000
0010
,
0100
0001
0010
0100
0010
1000
0010
0010
,
0001
0010
0010
0100
0010
0001
1000
0000
,
1001
0000
0110
0000
0010
1000
0010
0010
,
0001
0010
0100
0010
0001
0010
0010
0001
,
0010
0100
0010
1000
0100
0010
0100
0100
,
0001
0100
0010
0100
1000
0100
0100
1000
,
0100
0010
0100
0010
0001
0010
0001
0001
,
0100
0001
1000
0001
0100
0001
0001
0100
,
0010
1000
0100
0010
0100
0001
0100
0100
,
1000
0100
0100
0010
2002
0000
0000
3003
,
0101
0000
0000
0110
0000
0000
1010
0000
0000
0000
1000
0000
0100
0010
0000
0000
,
0001
0000
0000
0010
0000
0000
0100
0000
1000
0000
0001
0000
0100
0000
0000
0000
,
1010
0000
0000
0101
0000
0000
0110
0000
0000
0000
0010
0000
1000
0100
0000
0000
,
0010
0000
0000
0001
0000
0000
0010
0000
0100
0000
1000
0000
0001
0000
0000
0000
,
0101
0000
0000
0110
0000
0000
1010
0000
0000
0000
1000
0000
0010
0100
0000
0000
,
0101
0000
0000
0110
0000
0000
1010
0000
0000
0000
1000
0000
0100
0000
0000
0000
,
0011
0000
0000
0110
0000
0000
1100
0000
0000
0000
1000
0000
0100
0010
0000
0000
,
0011
0000
0000
1100
0000
0000
1001
0000
0000
0000
1000
0000
0010
0000
0000
0000
,
0101
0000
0000
0000
;
#NOTES:
     dance-single:
     Renard:
     Beginner:
     4:
     0.291,0.365,0.011,0.000,0.000:
0000
0000
0000
0000
,
0000
0000
0000
0000
,
0000
0000
0000
0000
,
0000
0000
0000
0000
,
0001
0000
0000
1000
0000
1000
0000
1000
,
0000
0000
0000
0000
,
0010
0000
0000
0100
0000
0100
0000
0000
,
0001
0000
0000
1000
0000
0100
0000
0000
,
1000
0100
0000
1000
0000
0000
0001
0000
,
0100
0000
0000
0010
0000
0000
1000
0000
,
0010
0000
0000
1000
0000
0000
0100
0000
,
1000
0000
0000
0001
0000
0000
0010
0000
,
0001
0000
0000
1000
0000
0000
0100
0000
,
1000
0000
0000
0001
0000
0000
0100
0000
,
0010
0000
0000
1000
0000
0000
0010
0000
,
0100
0000
0010
0000
,
0010
0010
1000
0100
,
1000
0100
1000
0000
,
0001
0001
0100
0010
,
1000
0001
0010
0000
,
0001
0001
1000
0100
,
0010
0000
0001
0000
1000
0001
1000
0001
,
1000
0001
1000
0001
1000
0000
0000
0000
,
0000
0000
0000
0000
0001
0000
0000
1000
,
0000
0000
0100
0000
0010
0000
0000
0100
,
0000
0000
1000
0000
0010
0000
0000
0100
,
0000
0010
0100
0000
,
0001
0000
0000
0000
1000
0000
0000
0100
,
0000
0000
0010
0000
0001
0000
0000
0010
,
0000
0000
0100
0000
1000
0000
0000
0001
,
0000
0100
0010
0000
,
0000
0000
1000
0000
0010
0000
0000
0100
,
0000
0000
0001
0000
0100
0000
0000
0010
,
0000
0000
1000
0000
0001
0000
0000
0010
,
0000
0100
1000
0000
,
0000
0000
1000
0000
0100
0000
0000
0010
,
0000
0001
1000
0000
,
0000
0000
0001
0000
0100
0000
0000
0010
,
0000
1000
0010
0000
,
0000
0000
0000
0000
1000
0000
0000
0010
,
0000
1000
0000
0001
0000
0100
0000
0010
,
1000
0000
0010
0000
0100
0000
0000
0001
,
0000
1000
0000
0100
0000
0010
0001
0000
,
0010
0000
0100
0000
1000
0000
0000
0001
,
0000
0100
0000
0010
0000
1000
0010
0000
,
1000
0000
0001
0000
0100
0000
0000
0001
,
0000
0000
1000
0000
0000
0100
0000
0000
,
1000
0000
0001
0000
0100
0000
0000
0010
,
0000
1000
0100
0010
,
0001
0000
0010
0000
0100
0000
0000
1000
,
0000
0000
0000
0001
0000
0000
0100
0000
,
0010
0000
1000
0000
0010
0000
0000
0100
,
0000
0001
0000
1000
,
0100
0000
0010
0000
0001
0000
0000
1000
,
0000
0010
0100
0000
,
0001
1000
0001
1000
,
0001
0000
0100
0000
0010
0100
0010
0000
,
0100
0010
1000
0001
,
0100
0010
0010
0000
,
1000
0100
1000
0001
,
0010
0000
0001
0000
1000
0001
1000
0000
,
0001
0100
0010
1000
,
0100
0100
0010
0001
,
1001
0000
0000
0000
;
