#TITLE:For You;
#SUBTITLE:;
#ARTIST:Jaql;
#TITLETRANSLIT:;
#SUBTITLETRANSLIT:;
#ARTISTTRANSLIT:;
#CRChallenge:;
#BANNER:you.png;
#BACKGROUND:you-bg.png;
#LYRICSPATH:;
#CDTITLE:;
#MUSIC:you.ogg;
#OFFSET:0.000;
#SAMPLESTART:42.647;
#SAMPLELENGTH:12.000;
#SELECTABLE:YES;
#BPMS:0.000=67.500;
#STOPS:;
#BGCHANGES:;
#NOTES:
     dance-single:
     Renard:
     Hard:
     10:
     0.741,0.746,0.401,0.038,1.000:
0000
0000
0000
0000
,
0000
0000
0000
0000
,
2200
0000
0000
0000
3310
0000
0000
0000
0000
0000
1001
0000
0000
0000
0000
0000
0000
0000
0001
0100
1000
0000
0000
0000
0000
0000
1100
0000
0000
0101
0000
0000
,
2002
0000
0000
0000
3013
0000
0000
0000
0000
0000
0101
0000
0000
0000
0000
0000
0000
0000
0001
0010
1000
0000
0000
0000
0000
0000
1010
0000
0000
0000
0011
0000
,
0001
0000
0001
0000
1000
0000
1000
0000
0001
0100
1000
0000
1000
0100
0001
0000
1000
0000
1000
0000
0100
0000
0100
0000
1000
0100
0001
0000
0001
0100
1000
0000
,
0010
0000
0000
0000
0000
0000
0000
0000
0000
0000
0000
0000
0010
0000
0000
0000
0000
0000
0000
0000
0000
0000
0000
0000
1000
0000
0000
0000
0000
0000
0000
0000
0000
0000
0000
0000
1000
0000
0000
0000
0000
0000
0000
0000
0000
0000
0000
0000
0001
0000
0000
0000
0000
0000
0000
0000
0100
0000
0000
0000
0000
0000
0000
0000
1000
0000
0000
0000
0000
0000
0000
0000
0100
0000
0000
0000
0000
0000
0000
0000
0001
0000
0000
0000
0000
0000
0000
0000
0010
0000
0000
0000
0000
0000
0000
0000
0100
0000
0000
0000
0000
0000
0000
0000
0000
0000
0000
0000
0100
0000
0000
0000
0000
0000
0000
0000
0000
0000
0000
0000
1000
0000
0000
0000
0000
0000
0000
0000
0000
0000
0000
0000
1000
0000
0000
0000
0000
0000
0000
0000
0000
0000
0000
0000
0001
0000
0000
0000
0000
0000
0010
0000
0000
0000
0000
0000
0100
0000
0000
0000
0000
0000
1000
0000
0000
0000
0000
0000
0001
0000
0000
0000
0000
0000
0000
0000
0000
0000
0000
0000
0001
0000
0000
0000
0000
0000
0000
0000
0000
0000
0000
0000
,
1000
0000
1000
0000
0001
0000
0001
0000
1000
0010
0001
0000
0001
0010
1000
0000
0001
0000
0001
0000
0010
0000
0010
0000
0001
0010
1000
0000
1000
0010
0001
0000
,
0100
0000
0000
0000
0000
0000
0000
0000
0000
0000
0000
0000
0100
0000
0000
0000
0000
0000
0000
0000
0000
0000
0000
0000
0001
0000
0000
0000
0000
0000
0000
0000
0000
0000
0000
0000
0001
0000
0000
0000
0000
0000
0000
0000
0000
0000
0000
0000
1000
0000
0000
0000
0000
0000
0000
0000
0010
0000
0000
0000
0000
0000
0000
0000
0001
0000
0000
0000
0000
0000
0000
0000
0010
0000
0000
0000
0000
0000
0000
0000
1000
0000
0000
0000
0000
0000
0000
0000
0100
0000
0000
0000
0000
0000
0000
0000
0010
0000
0000
0000
0000
0000
0000
0000
0000
0000
0000
0000
0010
0000
0000
0000
0000
0000
0000
0000
0000
0000
0000
0000
0001
0000
0000
0000
0000
0000
0000
0000
0000
0000
0000
0000
0001
0000
0000
0000
0000
0000
0000
0000
0000
0000
0000
0000
1000
0000
0000
0000
0000
0000
0100
0000
0000
0000
0000
0000
0010
0000
0000
0000
0000
0000
0001
0000
0000
0000
0000
0000
1000
0000
0000
0000
0000
0000
0000
0000
0000
0000
0000
0000
1000
0000
0000
0000
0000
0000
0000
0000
0000
0000
0000
0000
,
0001
1000
0100
0010
0100
0000
1110
0000
1000
0001
0100
0010
0100
0000
0111
0000
,
0001
0000
0000
1000
0000
0000
0100
0000
0000
0010
0000
0000
0100
0000
0000
0000
0000
0000
1110
0000
0000
0000
0000
0000
0001
0000
0100
0000
0010
0000
1000
0000
0010
0000
0100
0000
0001
0000
0000
0100
0000
0000
0111
0000
0000
0000
0000
0000
,
1000
0001
0010
0100
0010
0000
0111
0000
0001
1000
0010
0100
0010
0000
1110
0000
,
1000
0000
0000
0001
0000
0000
0010
0000
0000
0100
0000
0000
0010
0000
0000
0000
0000
0000
0111
0000
0000
0000
0000
0000
1000
0000
0010
0000
0100
0000
0001
0000
0100
0000
0010
0000
1000
0000
0000
0010
0000
0000
1110
0000
0000
0000
0000
0000
,
0010
1000
0001
1000
0000
0000
0010
1000
0001
0010
0001
1000
0000
0000
0001
0010
0100
1000
0100
0010
0001
1000
0010
0100
0001
0000
0100
0010
0000
0000
0000
0000
,
0000
1000
0001
0100
0001
1000
0010
1000
0100
0010
0001
1000
0001
0100
0010
1000
0001
0010
0100
1000
0001
0000
1000
0010
0100
0001
1000
0100
0010
0000
0000
0000
,
0001
1000
0001
0100
0000
0000
0100
0001
1000
0100
1000
0001
0000
0000
1000
0100
0010
0001
0010
0100
1000
0001
0100
0010
1000
0000
0010
0100
0000
0000
0000
0000
,
0000
0001
1000
0010
1000
0001
0100
0001
0010
0100
1000
0001
1000
0010
0100
0001
1000
0100
0010
0001
1000
0000
0001
0100
0010
1000
0001
0010
0100
0000
0000
0000
,
1100
0000
0000
0000
0001
0010
0100
1000
0001
0010
0100
0000
1000
0100
0000
0000
0011
0000
0000
0000
1000
0100
0010
0001
0010
0100
1000
0000
0001
0010
0000
0000
,
0101
0000
0000
0000
0001
0100
0010
1000
0010
0100
0001
0000
1000
0010
0000
0000
0101
0000
0000
0000
0001
0100
0010
1000
0001
0100
0001
0000
1000
0010
0000
0000
,
1000
0100
0010
0001
0010
0100
1000
0001
0010
0100
1000
0000
0100
0010
0000
0000
0001
0010
0100
1000
0001
0100
0010
1000
0001
0100
0010
0000
1000
0010
0000
0000
,
1000
0100
0010
0100
1000
0001
0010
0100
0010
0001
1000
0000
0001
0100
0000
0000
0010
1000
0001
0100
0010
1000
0100
0010
0001
0010
0100
0000
1000
0001
0000
0000
,
1011
0000
0000
0000
1110
0000
0000
0000
0111
0000
0000
0000
1011
0000
0000
0000
1010
0000
0010
0100
0000
0000
0000
0000
0101
0000
0001
0010
0000
0000
0000
0000
,
0110
0000
0100
1000
0000
0000
0000
0000
0100
1000
0001
0010
0100
1000
0001
0100
0010
0000
0010
0100
0000
0000
0000
0000
1010
0000
0010
1000
0000
0000
0000
0000
,
1100
0000
0100
0010
0000
0000
0000
0000
0001
0010
0100
1000
0001
0100
0010
1000
0100
0000
0100
0010
0000
0000
0000
0000
0011
0000
0010
0100
0000
0000
0000
0000
,
1100
0000
1000
0001
0000
0000
0000
0000
0001
0100
0010
1000
0100
0010
0100
1000
0001
0000
0001
0100
0000
0000
0000
0000
0110
0000
0010
1000
0000
0000
0000
0000
,
1100
0000
0100
0010
0000
0000
0000
0000
1101
0000
0000
0000
1011
0000
0000
0000
0001
0000
0001
1000
0000
1000
0100
0010
0001
0000
0000
0000
0011
0000
0000
0000
,
0010
0000
0000
0000
0010
0000
0100
0000
0000
0000
0100
0000
1000
0000
0001
0000
0000
0000
0100
0000
0000
0000
0001
0000
0000
0000
0010
0001
0010
0000
0000
0000
0100
0000
0000
0000
1000
0000
0001
0000
0000
0000
0001
0000
0010
0000
0100
0000
1000
0000
0000
0000
0000
0000
0000
0000
1100
0000
0000
0000
0000
0000
0000
0000
,
0100
0000
0100
0010
0000
0010
0001
1000
0000
0010
0100
0001
1000
0000
0001
0000
1000
0000
1000
0001
0000
0001
0010
0100
1000
0000
0000
0000
1100
0000
0000
0000
,
0100
0000
0000
0000
0100
0000
0010
0000
0000
0000
0010
0000
0001
0000
1000
0000
0000
0000
0010
0000
0000
0000
1000
0000
0000
0000
0100
1000
0100
0000
0000
0000
0010
0000
0000
0000
0001
0000
1000
0000
0000
0000
1000
0000
0100
0000
0010
0000
0001
0000
0000
0000
0000
0000
0000
0000
0011
0000
0000
0000
0000
0000
0000
0000
,
0001
0100
0111
1000
0100
1110
1000
1011
0000
0000
0000
0000
0000
0000
0000
0000
;
#NOTES:
     dance-single:
     Renard:
     Medium:
     7:
     0.471,0.420,0.162,0.086,0.610:
0000
0000
0000
0000
,
0000
0000
0000
0000
,
1000
0000
2000
0000
0000
0001
0000
0000
0000
0000
3010
0000
0000
1000
0000
0000
,
0020
0000
0130
0000
0000
0200
0000
0000
0000
0000
0001
0000
0010
0300
0101
0000
,
0100
0010
0100
0010
1000
1000
1000
1000
0010
0100
0010
0100
0001
0001
0001
0001
,
0100
0010
0100
0010
1000
0001
1000
0100
0020
0000
0000
0000
0031
0010
0100
1000
,
0010
0100
0010
0100
0001
0001
0001
0001
0100
0010
0100
0010
1000
1000
1000
1000
,
0010
0100
0010
0100
0001
0001
0001
0001
0200
0000
0000
0000
0310
1000
0100
0010
,
0000
0001
0010
0100
1000
0000
1100
0000
0000
1000
0010
0100
0001
0000
0101
0000
,
0000
0001
0010
0100
1000
0000
1100
0000
1000
0010
0100
0001
1000
1000
0100
0010
,
0001
0010
0100
1000
0001
0000
1001
0000
0000
1000
0010
0100
0001
0000
1001
0000
,
0000
0001
0010
0100
1000
0000
1001
0000
1000
0010
0100
0001
1000
1000
0100
0010
,
0001
1000
0001
0000
0100
0010
0100
0000
0010
1000
0100
0010
0001
0000
0001
0000
,
0000
1000
0010
0100
0001
0010
0100
0010
0001
0100
0010
1000
0100
0010
0100
0000
,
1000
0010
0100
0000
0010
0100
0001
0000
0010
0100
1000
0010
0100
0001
1000
0000
,
0000
0001
0100
0010
1000
0100
0010
0100
1000
0001
0010
0100
0010
0001
1000
0000
,
0001
0000
0100
0010
1000
0010
1010
0000
0000
0000
1000
0010
0100
0001
0101
0000
,
0000
0000
0001
0010
0100
1000
1100
0000
0000
0000
1000
0100
0010
0001
0011
0000
,
0001
1000
0001
1000
0010
0010
0010
0000
1000
0001
1000
0001
0100
0100
0100
0000
,
0001
1000
0001
1000
0100
0100
0100
0000
1000
0001
1000
0001
0100
0100
0100
0000
,
0002
2000
0010
3013
1000
0001
0100
0010
,
1000
0000
0010
0000
1000
1000
0100
0010
0001
0000
0001
0000
0010
0000
0010
0000
,
0100
0000
0100
0000
1000
0010
0100
0001
0001
0000
0010
0100
1000
0000
0010
0100
,
0001
0000
0100
0000
0010
0010
1000
0001
0100
0100
0001
0000
1000
1000
0100
0000
,
0010
0010
0001
0000
2002
0000
3013
0000
1000
0001
0100
0010
1000
0000
1010
0000
,
1000
0010
0100
0001
0010
0100
1000
0001
0100
0001
0010
0100
0010
0000
0110
0000
,
0010
0001
0100
0010
1000
0100
1000
0000
0001
0100
0010
1000
0001
0000
1001
0000
,
1000
0100
0010
0001
0100
0010
0100
0001
0010
0100
1000
0010
0100
0000
0110
0000
,
0100
0010
1000
0100
0010
0001
0000
1011
0000
0000
0000
0000
0000
0000
0000
0000
;
#NOTES:
     dance-single:
     Renard:
     Easy:
     4:
     0.279,0.245,0.019,0.334,0.000:
0000
0000
0000
0000
,
0000
0000
0000
0000
,
2000
0000
3002
0000
,
2003
0000
0000
0000
0001
0010
0001
0010
,
3010
0010
1000
1000
0001
0100
1000
0100
,
0001
0001
0010
0010
0100
1000
0001
0100
,
0010
0010
1000
1000
0001
0010
1000
0010
,
0001
0001
1000
1000
0100
0001
0100
1000
,
0002
0000
0100
1000
0023
0000
0230
0000
,
2300
0000
0100
0001
3020
0000
2030
0000
,
3002
0000
0100
1000
0023
0000
0230
0000
,
2300
0000
0100
0001
3020
0000
2030
0000
,
3001
0001
0100
0100
0010
1000
0100
0000
,
1000
1000
0010
0010
0100
0010
1000
0001
,
0010
0010
0001
0001
1000
0010
0100
0000
,
0010
0010
1000
0100
0010
0001
1000
0001
,
0100
0000
0010
1000
0001
0000
0100
0001
,
1000
0000
1000
0001
0100
0000
0100
0001
,
1000
1000
0100
0010
0001
0001
0010
0100
,
1000
1000
0010
0100
0001
0001
0100
0010
,
2000
0002
0000
3013
2000
0000
3002
0000
,
2003
0000
3001
0010
0200
0000
0320
0000
,
0230
0000
0310
0001
2000
0000
3002
0000
,
2003
0000
3010
0100
0002
0000
2003
0000
,
3002
0000
1003
1001
2000
0000
3001
0100
,
0010
1000
0010
0100
0002
0000
1003
0100
,
0010
0100
1000
0001
0200
0000
0310
1000
,
0001
0100
0010
1000
0020
0000
0130
0001
,
1000
1100
2000
0002
3003
0000
0000
0000
;
#NOTES:
     dance-single:
     Renard:
     Beginner:
     2:
     0.134,0.177,0.019,0.124,0.000:
0000
0000
0000
0000
,
0000
0000
0000
0000
,
0000
0000
0000
0000
,
0000
0000
0000
0000
,
1000
1000
0001
0000
,
0100
0100
0010
0000
,
0010
0010
1000
0000
,
0001
0001
0100
0000
,
0001
1000
0100
1000
,
0001
0000
0010
0001
,
1000
0010
1000
0001
,
0100
0001
1000
0001
,
2000
3100
2000
3100
,
0020
0031
0020
0031
,
2000
3010
2000
3010
,
0200
0301
0200
0301
,
2000
0000
3001
0001
,
0200
0000
0310
0010
,
1000
1000
0010
0010
,
0100
0100
0001
0001
,
2000
0000
3010
0100
,
0001
0000
1000
0100
,
1000
0000
0010
0100
,
0001
0000
1000
0001
,
0100
0000
0010
1000
,
0010
0000
0100
0001
,
0100
0000
0001
0011
,
0001
0000
1000
1100
,
2000
0002
3003
0000
;
