#TITLE:Fog City;
#SUBTITLE:;
#ARTIST:Novasonic;
#TITLETRANSLIT:;
#SUBTITLETRANSLIT:;
#ARTISTTRANSLIT:;
#CRChallenge:;
#BANNER:;
#BACKGROUND:;
#LYRICSPATH:;
#CDTITLE:;
#MUSIC:fog.ogg;
#OFFSET:0.000;
#SAMPLESTART:27.349;
#SAMPLELENGTH:12.000;
#SELECTABLE:YES;
#BPMS:0.000=70.000,32.000=140.000;
#STOPS:;
#BGCHANGES:;
#NOTES:
     dance-single:
     Renard:
     Challenge:
     13:
     1.000,1.000,0.860,0.955,0.917:
0000
0000
0000
0000
,
0000
0000
0000
0000
,
1000
0000
0001
0000
,
0100
0000
0000
0000
0010
0000
1000
0100
0000
0010
0000
0010
0011
0110
1100
1001
,
0101
0111
1100
1110
,
1001
0000
0000
0000
1011
0000
1000
0001
0100
0000
0000
0000
0010
1000
0010
0000
,
1001
0000
1011
0000
1100
0010
1111
0000
,
0101
0000
0000
0000
0000
0000
0000
0000
1111
0000
0000
0000
0001
0000
1000
0000
0100
0000
0000
0000
1000
0000
0000
0000
0001
1000
0100
0010
0001
0010
0100
0000
,
1100
0010
0001
0100
0101
0010
1000
1010
,
1000
0100
0110
0010
0011
0001
1001
0000
,
0010
0100
0001
0010
0011
0100
1000
1100
,
1000
0001
0101
0100
1010
0100
1001
0010
,
0011
0100
1000
0010
1010
0100
0001
0101
,
0001
0010
0110
0100
1100
1000
1001
0000
,
0100
0010
1000
0100
1100
0010
0001
0011
,
0001
1000
1010
0010
0101
0010
1001
0100
,
0001
0100
0100
0100
0001
0100
0100
0001
,
0100
0001
0100
0100
0001
0100
0100
0010
,
0100
0001
0001
0001
0100
0001
0001
0100
,
0001
0100
0001
0100
0010
1000
0100
0000
,
1000
1100
0011
0000
0001
0101
1010
0000
,
1000
0000
1100
0000
0011
0000
0000
0000
0001
0100
0101
0000
0101
0000
0000
0001
,
0100
0001
1010
0000
0100
1000
0011
0000
,
1000
0001
0110
0000
1001
0100
1010
0000
,
0000
0000
0000
0000
0001
0000
1000
0000
0001
0000
0100
0001
1000
0100
0010
0000
,
0001
0000
0010
0001
0010
0100
1000
0001
0100
0000
0000
0000
0010
1000
0001
0010
,
0001
0000
1000
0000
0100
0101
1001
0000
,
0100
0000
0000
0000
0000
0000
0000
0000
0000
0000
0000
0000
0000
0000
0000
0000
0000
0000
0000
0000
0000
0000
0000
0000
0000
0000
0000
0000
0000
0000
0000
0000
0000
0000
0000
0000
0000
0000
0000
0000
0000
0000
0000
0000
0000
0000
0000
0000
0010
0000
0000
0000
0000
0000
0000
0000
0000
0000
0000
0000
0000
0000
0000
0000
0000
0000
0000
0000
0000
0000
0000
0000
0000
0000
0000
0000
0000
0000
0000
0000
0000
0000
0000
0000
0000
0000
0000
0000
0000
0000
0000
0000
0000
0000
0000
0000
0001
0000
0000
0000
0000
0000
0000
0000
0000
0000
0000
0000
0000
0000
0000
0000
0000
0000
0000
0000
0000
0000
0000
0000
0000
0000
0000
0000
0000
0000
0000
0000
0000
0000
0000
0000
0000
0000
0000
0000
0000
0000
0000
0000
0000
0000
0000
0000
2200
0000
0000
3300
0000
0000
0000
0000
0000
0000
0000
0000
0000
0000
0000
0000
0100
0000
0000
0000
0000
0000
0000
0000
0000
0000
0000
0000
0000
0000
0000
0000
0010
0000
0000
0000
0000
0000
0000
0000
0000
0000
0000
0000
0000
0000
0000
0000
,
0220
0000
0000
0330
0000
0000
0000
0000
0000
0000
0000
0000
0000
0000
0000
0000
0010
0000
0000
0000
0000
0000
0000
0000
0000
0000
0000
0000
0000
0000
0000
0000
0001
0000
0000
0000
0000
0000
0000
0000
0000
0000
0000
0000
0000
0000
0000
0000
0022
0000
0000
0033
0000
0000
0000
0000
0000
0000
0000
0000
0000
0000
0000
0000
0001
0000
0000
0000
0000
0000
0000
0000
0000
0000
0000
0000
0000
0000
0000
0000
0100
0000
0000
0000
0000
0000
0000
0000
0000
0000
0000
0000
0000
0000
0000
0000
0202
0000
0000
0303
0000
0000
0000
0000
0000
0000
0000
0000
0000
0000
0000
0000
0100
0000
0000
0000
0000
0000
0000
0000
0000
0000
0000
0000
0000
0000
0000
0000
0010
0000
0000
0000
0000
0000
0000
0000
0000
0000
0000
0000
0000
0000
0000
0000
0220
0000
0000
0330
0000
0000
0000
0000
0000
0000
0000
0000
0000
0000
0000
0000
0010
0000
0000
0000
0000
0000
0000
0000
0000
0000
0000
0000
0000
0000
0000
0000
1000
0000
0000
0000
0000
0000
0000
0000
0000
0000
0000
0000
0000
0000
0000
0000
,
0010
1000
0010
1000
0010
1000
0010
1000
0010
1000
0010
1000
0010
1000
0010
1000
0010
1000
0010
1000
0010
1000
0010
1000
,
0001
0100
0001
0100
0000
0000
0010
1000
0010
1000
0000
0000
0001
0100
0001
0100
0000
0000
0020
0000
0000
0000
0000
0000
,
1030
0000
0100
0010
0001
0010
0100
1000
0010
0100
0001
0010
0100
0010
0001
1000
,
0001
0000
0000
1000
0100
0010
0001
0010
0100
1000
0100
0010
0001
0010
0100
1000
0100
0010
0001
0010
0100
1000
0100
0010
,
0001
1000
0001
1000
0001
0100
0100
0100
,
0020
0030
0000
0000
2000
3000
0000
0000
0002
0003
0000
0000
0200
0300
0000
0000
0020
0030
0000
0000
0000
0000
0000
0000
2000
3000
0000
0000
0200
0300
0000
0000
0020
0030
0000
0000
0000
0000
0000
0000
0011
0000
0000
0000
0000
0000
0000
0000
1100
0000
0000
0000
0000
0000
0000
0000
0000
0000
0000
0000
0000
0000
0000
0000
,
1000
0100
1000
0100
1000
0100
0010
0100
0010
0100
0010
0100
0010
0001
0010
0001
0010
0001
1000
0001
1000
0001
1000
0001
,
0100
0001
0100
0001
0100
0001
1000
0010
1000
0010
1000
0010
0100
0010
0100
0010
0100
0010
0100
0001
0100
0001
0100
0001
,
1000
0100
0010
0001
1000
0010
1000
0010
,
0100
0001
0100
1000
0100
0001
0100
1000
,
0100
0000
0000
0000
0001
0000
0000
0000
0001
0000
1000
0001
0100
0010
1000
0000
,
0010
0001
0010
1000
0010
0001
0010
1000
,
0020
0030
0000
0000
2000
3000
0000
0000
0002
0003
0000
0000
0200
0300
0000
0000
0000
0000
0000
0000
0000
0000
0000
0000
0020
0030
0000
0000
2000
3000
0000
0000
0002
0003
0000
0000
0200
0300
0000
0000
0000
0000
0000
0000
0000
0000
0000
0000
0020
0030
0000
0000
2000
3000
0000
0000
0002
0003
0000
0000
0200
0300
0000
0000
,
0000
0000
0000
0000
0000
0000
0000
0000
0020
0030
0000
0000
2000
3000
0000
0000
0002
0003
0000
0000
0200
0300
0000
0000
0000
0000
0000
0000
0000
0000
0000
0000
0020
0030
0000
0000
2000
3000
0000
0000
0002
0003
0000
0000
0200
0300
0000
0000
0000
0000
0000
0000
0000
0000
0000
0000
0000
0000
0000
0000
0000
0000
0000
0000
,
0001
0100
0001
0100
0001
0100
0001
0100
0001
0100
0001
0100
0001
1000
0001
1000
0001
1000
0001
1000
0001
1000
0001
1000
0010
1000
0010
1000
0010
1000
0010
1000
,
0010
1000
0010
1000
0010
0100
0010
0100
0010
0100
0010
0100
0010
0100
0010
0100
0001
0100
0001
0100
0001
0100
0001
0100
0001
1000
0001
1000
0001
1000
0001
1000
,
0001
0100
0010
1000
01MM
0000
01MM
1000
0010
0100
M0M1
0000
M0M1
0010
0100
1000
,
0MM1
0000
0MM1
0100
0010
1000
01MM
0000
01MM
1000
0010
0100
0001
0010
0100
1000
,
0001
0100
0010
1000
01MM
0000
01MM
1000
0010
0100
M0M1
0000
M0M1
0010
0100
1000
,
0MM1
0000
0MM1
0100
0010
1000
0100
0010
0001
0010
0100
1000
0001
0100
0010
0000
,
2002
3003
0220
0330
2002
3003
0220
0330
2020
3030
0220
0330
2002
3003
0202
0303
,
2002
3003
0220
0330
0202
0303
2002
3003
2200
3300
2002
3003
2002
3003
0022
0033
,
0220
0330
2200
3300
2002
3003
0220
0330
2200
3300
0022
0033
0202
0303
0022
0033
,
0202
0303
2020
3030
0220
0330
0202
0303
2002
3003
2020
3030
2002
3003
0000
0000
;
