#TITLE:Florida;
#SUBTITLE:;
#ARTIST:Emotion & Kettu feat. Hex;
#TITLETRANSLIT:;
#SUBTITLETRANSLIT:;
#ARTISTTRANSLIT:;
#CRChallenge:;
#BANNER:florida.png;
#BACKGROUND:florida-bg.png;
#LYRICSPATH:;
#CDTITLE:!cdtitle.png;
#MUSIC:florida.ogg;
#OFFSET:0.000;
#SAMPLESTART:20.578;
#SAMPLELENGTH:12.000;
#SELECTABLE:YES;
#BPMS:0.000=140.089;
#STOPS:;
#BGCHANGES:;
#NOTES:
     dance-single:
     Renard:
     Hard:
     10:
     0.710,0.924,0.179,0.000,0.584:
0000
0000
0000
0000
,
0000
0000
0000
0000
,
0000
0000
0000
0000
,
0000
0000
0000
1011
,
1000
0100
0010
0001
0100
0010
1000
1000
,
0001
0100
0010
1000
0100
0010
0001
0001
,
0100
0010
1000
0010
0100
0001
1000
1000
,
0001
0010
0100
1000
0001
0000
1001
0000
,
0001
0001
1000
1000
0001
0001
1000
1000
,
0001
0001
1000
1000
0001
0001
1000
1000
,
0001
1000
0001
1000
0001
1000
0001
1000
,
0001
1000
0001
1011
,
0001
0000
0100
0000
0001
1000
0000
0001
1000
0000
0100
1000
0000
0001
1000
0000
,
0001
0000
0100
0000
0001
1000
0000
0100
1000
0000
0001
0100
0000
0001
1000
0000
,
0100
0000
1000
0000
0001
0100
0000
0001
1000
0000
0100
1000
0000
0001
0100
0000
,
0001
0000
1000
0000
0100
1000
0000
0001
0100
0000
0001
1000
0000
0100
1000
0000
,
0001
0000
0010
0000
0001
1000
0000
0010
1000
0000
0001
0010
0000
0001
1000
0000
,
0010
0000
1000
0000
0001
1000
0000
0001
0010
0000
0001
1000
0000
0010
1000
0000
,
0001
0000
0010
0000
0001
1000
0000
0010
1000
0000
0001
0010
0000
0001
1000
0000
,
0010
0000
1000
0000
0001
0010
0000
0001
1000
0000
0001
0000
1000
0000
0001
0000
,
1000
0000
0100
0000
0010
0001
0000
0001
1000
0000
1000
0100
0000
0100
1000
0000
,
0001
0000
0100
0000
0010
1000
0000
1000
0001
0000
0001
0100
0000
0100
0010
0000
,
1000
0000
0100
0000
0010
0001
0000
0001
1000
0000
1000
0100
0000
0100
1000
0000
,
0001
0100
0010
1000
0100
0010
0001
0000
,
1000
0000
0010
0000
0100
0001
0000
0001
1000
0000
1000
0100
0000
0100
0010
0000
,
0001
0000
1000
0000
0010
0100
0000
0100
0001
0000
0001
1000
0000
1000
0100
0000
,
0010
0000
0001
0000
1000
0010
0000
0010
0100
0000
0100
0001
0000
0001
0010
0000
,
0100
1000
0001
0100
0010
1000
0001
0000
,
1000
0100
0000
0100
1000
0000
1000
0000
0100
0010
0001
0010
0100
1000
0100
0010
,
0001
0010
0001
1000
0010
1000
0100
1000
,
0010
0000
0010
0000
0010
0000
0000
0000
1000
0100
1000
0000
0001
0100
0001
0000
,
1000
0100
0010
0001
1000
0010
0100
0000
,
0010
1000
0000
0001
0100
0000
0010
0000
1000
0100
0010
0001
0010
0100
1000
0001
,
0100
0010
1000
0001
0100
0010
1000
0100
,
0010
0000
0001
0000
1000
0000
0000
0000
0001
0100
0001
0000
1000
0100
1000
0000
,
0001
0100
0010
1000
0100
0010
1001
0000
,
0001
0010
0100
1000
0001
0100
0010
1000
0100
0010
0100
1000
0001
0010
0100
0010
,
0001
1000
0010
0100
0001
0010
0100
1000
0100
0010
0001
0100
0010
1000
0100
0010
,
0001
0010
0100
1000
0001
0100
0010
1000
0100
0010
0001
0010
0100
1000
0001
0100
,
0010
1001
0010
1001
,
1000
0100
0010
0001
1000
0010
0100
0001
0010
0100
0010
0001
1000
0100
0010
0100
,
1000
0001
0100
0010
1000
0100
0010
0001
0010
0100
1000
0010
0100
0001
0010
0100
,
1000
0100
0010
0001
1000
0010
0100
0001
0010
0100
1000
0100
0010
0001
1000
0010
,
0100
1001
0100
1001
,
0100
0000
1010
0000
0000
1000
0100
0010
,
0000
0000
0001
0000
0010
0000
0100
0000
1000
0001
0100
0000
0010
0000
1000
0000
,
0001
0000
0101
0000
0001
0100
0010
1010
,
0000
1000
0100
0010
0011
0100
1001
0010
,
0101
0000
1010
0000
1000
0100
0010
0011
,
0000
0000
0010
0000
0100
0000
1000
0000
0001
0100
0001
0000
0100
0000
0010
0000
,
1010
0100
0011
0000
0100
0010
1000
0101
,
0000
0000
0100
0000
0010
0000
1000
0000
0100
0000
0010
0001
0010
0000
0100
0000
,
1000
0100
0001
1000
0010
0001
0010
0100
,
1000
0010
0001
1000
0100
0001
0100
0010
,
1000
0100
0001
1000
0010
0001
0010
0100
,
1000
0001
0100
0010
1000
0010
0100
0001
,
0010
1000
0001
0100
1000
0100
0010
0001
,
1000
0010
0001
1000
0100
0001
0010
0100
,
1000
0100
0001
1000
0010
0001
0010
0100
,
1000
0000
1000
0001
0100
0010
1000
0000
0000
0000
0000
0000
;
#NOTES:
     dance-single:
     Renard:
     Medium:
     9:
     0.564,0.591,0.160,0.094,0.339:
0000
0000
0000
0000
,
0000
0000
0000
0000
,
0000
0000
0000
0000
,
0000
0000
0000
1001
,
0001
0100
1000
1000
0100
0001
0001
0100
,
1000
1000
0100
0001
0001
0100
0001
0100
,
0001
0001
0010
1000
1000
0010
0001
0001
,
0010
1000
1000
0010
0001
1000
0010
0000
,
1000
1000
0001
0001
1000
1000
0001
0001
,
1000
1000
0001
0001
1000
1000
0001
0001
,
1000
0001
1000
0001
1000
0001
1000
0001
,
1000
0010
0100
0001
1000
0000
1010
0000
,
1000
0000
0010
0000
0100
0001
0000
0100
0001
0000
0100
0001
0000
0100
0001
0000
,
0010
0000
0100
0000
1000
0001
0000
1000
0001
0000
1000
0001
0000
1000
0001
0000
,
0100
0000
0010
0000
1000
0001
0000
1000
0001
0000
1000
0001
0000
1000
0001
0000
,
1000
0010
0100
0001
0010
0100
1000
0100
,
0010
0000
0001
0000
1000
0100
0000
1000
0100
0000
1000
0100
0000
1000
0100
0000
,
1000
0000
0010
0000
0100
0001
0000
0100
0001
0000
0100
0001
0000
0100
0001
0000
,
0010
0000
0001
0000
1000
0100
0000
1000
0100
0000
1000
0100
0000
1000
0100
0000
,
1000
0010
0100
0001
1000
0100
0010
0001
,
1000
0000
0010
0000
0100
0001
0000
0100
0001
0000
0100
0001
0000
0100
0001
0000
,
0010
0000
0001
0000
1000
0100
0000
1000
0100
0000
1000
0100
0000
1000
0100
0000
,
1000
0000
0010
0000
0100
0001
0000
0100
0001
0000
0100
0001
0000
0100
0001
0000
,
0010
0100
1000
0001
0100
0010
1000
0100
,
0010
0000
0001
0000
1000
0010
0000
1000
0010
0000
1000
0010
0000
1000
0010
0000
,
0100
0000
0001
0000
1000
0100
0000
1000
0100
0000
1000
0100
0000
1000
0100
0000
,
0010
0000
0001
0000
1000
0010
0000
1000
0010
0000
1000
0010
0000
1000
0010
0000
,
0100
0001
1000
0100
0010
0001
1000
0000
,
0010
0000
0010
0000
0100
0001
1000
1100
,
0000
1000
0001
0100
0010
1000
0001
0010
,
0100
1000
0001
0000
0100
0001
1000
1001
,
0000
0000
1000
0000
0100
0000
0010
0000
0010
0000
0001
1000
0001
0000
1000
0000
,
0010
0100
0001
0000
0100
0010
1000
1010
,
0000
1000
0010
0100
0001
0001
1000
0100
,
0010
0001
1001
0000
0001
0100
0010
0110
,
0000
0010
1000
0100
0010
0001
1000
0000
,
0001
0000
0000
0001
0100
0000
0000
0100
0010
0000
0000
0010
1000
0000
0000
1000
,
0100
0010
0001
0010
0100
1000
0010
0100
,
0001
0000
0000
0001
1000
0000
0000
1000
0100
0000
0000
0100
0010
0000
0000
0010
,
0001
0000
0000
1000
0010
0000
0000
0000
0100
0000
0000
0001
1000
0000
0000
0000
,
0100
0000
0000
1000
0001
0000
0000
0001
0010
0000
0000
0010
0100
0000
0000
0100
,
1000
0000
0000
1000
0001
0000
0000
0001
0100
0000
0010
0000
1000
0000
0100
0000
,
0010
0000
0000
0010
0001
0000
0000
0001
1000
0000
0000
1000
0010
0000
0000
0000
,
1000
0000
0000
0001
0100
0000
0000
0000
0001
0000
0000
1000
0100
0000
0000
0000
,
0010
0001
1001
0000
0001
0100
0010
0110
,
0000
0010
1000
0100
1100
1000
0001
0100
,
0101
0000
1001
0000
0010
1000
0100
1100
,
0000
1000
0010
0100
0001
0010
0001
1000
,
0100
0000
1001
0000
1000
0001
0100
0101
,
0000
0000
0100
0000
0001
0000
0010
0000
0100
1000
0001
0000
1000
0000
0010
0000
,
0100
0000
0110
0000
0010
1000
0001
0101
,
0000
0000
0001
0000
1000
0000
0100
0000
0010
0000
0001
1000
0001
0000
1000
0000
,
0020
0000
0000
0000
,
0230
0000
0302
0000
,
2003
0000
0000
0000
,
0200
0000
0000
3000
,
0020
0000
0000
0300
,
0002
0000
0000
0000
0000
0030
0000
0000
2000
0000
0000
0000
0000
0003
0000
0000
,
0020
0000
0000
3000
,
0200
0000
0000
0330
;
#NOTES:
     dance-single:
     Renard:
     Easy:
     6:
     0.424,0.478,0.282,0.188,0.000:
0000
0000
0000
0000
,
0000
0000
0000
0000
,
0000
0000
0000
0000
,
0000
0000
0000
1001
,
0001
0100
0001
0100
0001
0100
0001
0000
,
1000
0100
1000
0100
1000
0100
1000
0000
,
0001
0010
0001
0010
0001
0010
0001
0000
,
1000
0010
1000
0010
1000
0010
1000
0000
,
0001
1000
0001
1000
0001
1000
0001
1000
,
0001
1000
0001
1000
0001
1000
0001
1000
,
0001
0001
0001
0001
0001
0001
0001
0001
,
0002
0000
0000
1003
,
1000
0000
1001
0000
0001
0100
0010
1000
,
0001
0000
1001
0000
0001
0100
0010
1000
,
0001
0000
1001
0000
0001
0100
0010
1000
,
0001
1001
1000
1001
,
0001
0000
1001
0000
1000
0010
0100
0001
,
1000
0000
1001
0000
1000
0010
0100
0001
,
1000
0000
1001
0000
1000
0010
0100
0001
,
1000
1001
0001
1001
,
1000
0000
1001
0000
1000
0100
0010
0001
,
1000
0000
1001
0000
1000
0100
0010
0001
,
1000
0000
1001
0000
1000
0100
0010
0001
,
1000
1001
0001
1001
,
1000
0000
1001
0000
0001
0010
0100
1000
,
0001
0000
1001
0000
0001
0010
0100
1000
,
0001
0000
1001
0000
0001
0010
0100
1000
,
0001
1001
1000
1001
,
0001
1000
0100
0000
1000
0001
0200
0000
,
0000
0010
1000
0001
,
0310
1000
0001
0000
0010
0001
2000
0000
,
0000
0010
0100
3001
,
0001
1000
0100
0000
1000
0001
0200
0000
,
0000
1000
0010
0001
,
0301
1000
0100
0000
1000
0001
0200
0000
,
0000
0001
0010
0301
,
0101
0000
0100
0010
0100
0000
0000
0000
,
1010
0000
0101
0000
,
1001
0000
0010
0100
0010
0000
1000
0000
,
0001
0000
0100
0000
0010
1000
0001
1000
,
0100
0000
1100
0000
1000
0100
1000
0000
,
1001
0000
0101
0000
,
1010
0000
0100
0001
0100
0000
0000
0000
,
0001
1000
0100
0000
1000
0001
0100
0000
,
0002
0000
1003
0000
0000
0001
1000
0100
,
0000
0000
1000
0001
0100
0001
1000
0000
,
0002
0000
1003
0000
0000
1000
0001
0010
,
0000
0001
1000
0010
1000
0001
0100
0001
,
1000
0100
2000
0000
0000
3001
0100
0002
,
0000
0000
0000
1003
0100
1000
0001
0100
,
0001
0000
1001
0000
0000
0001
1000
0200
,
0000
0000
0000
1300
0001
0100
0001
0000
,
2000
0000
0000
0000
,
3020
0000
0230
0000
,
0302
0000
0000
0000
,
2003
0000
0000
0000
,
3200
0000
0000
0000
,
0320
0000
0032
0000
,
0203
0000
0000
0000
,
0020
0000
0000
0330
;
#NOTES:
     dance-single:
     Renard:
     Beginner:
     3:
     0.284,0.394,0.188,0.217,0.000:
0000
0000
0000
0000
,
0000
0000
0000
0000
,
0000
0000
0000
0000
,
0000
0000
0000
0000
,
1000
1000
0001
0001
,
0100
0100
0001
0001
,
1000
1000
0001
0001
,
0100
0100
0001
0001
,
2000
0000
0000
0000
,
0000
0000
0000
0000
,
0100
0001
0100
0001
,
0001
0000
0000
3001
,
1000
0001
1000
0001
,
0100
0100
0010
0010
,
1000
0001
1000
0001
,
0200
0310
0200
0310
,
1000
0001
1000
0001
,
0100
0100
0010
0010
,
1000
0001
1000
0001
,
0200
0310
0200
0310
,
1000
1010
0001
0101
,
1000
1010
0001
0101
,
1000
1100
0001
0011
,
1000
1100
0001
0011
,
1000
1010
0001
0101
,
1000
1010
0001
0101
,
1000
1100
0001
0011
,
1000
1010
0001
0101
,
1002
0100
0000
0100
,
0000
0100
0000
0103
,
2001
0100
0000
0100
,
0000
0100
0000
3100
,
1002
0010
0000
0010
,
0000
0010
0000
0013
,
2001
0010
0000
0010
,
0000
0010
0000
3010
,
2000
3010
0000
0010
,
0100
0001
0010
0100
,
2000
3010
0000
0000
,
0100
0001
1000
0000
,
0100
0010
0000
0001
,
2000
3010
0200
0301
,
2000
3100
0000
0000
,
1000
0001
0100
0000
,
0001
1000
0000
0001
,
1000
0100
0010
0001
,
1000
0001
0000
1000
,
0010
0100
0001
1000
,
0100
1000
0000
0001
,
0010
0100
1000
0001
,
0100
0010
0000
1000
,
0010
0100
0001
0001
,
2000
0000
0000
0000
,
3200
0000
0320
0000
,
0032
0000
0000
0000
,
0000
0000
0000
0000
,
2003
0000
0000
0000
,
3020
0000
0230
0000
,
0302
0000
0000
0000
,
2000
0000
0000
3003
;
