#TITLE:Flatline;
#SUBTITLE:;
#ARTIST:TC;
#TITLETRANSLIT:;
#SUBTITLETRANSLIT:;
#ARTISTTRANSLIT:;
#CRChallenge:;
#BANNER:flatline.png;
#BACKGROUND:flatline-bg.png;
#LYRICSPATH:;
#CDTITLE:!cdtitle.png;
#MUSIC:flatline.ogg;
#OFFSET:0.000;
#SAMPLESTART:33.141;
#SAMPLELENGTH:12.000;
#SELECTABLE:YES;
#BPMS:0.000=172.730,94.000=345.460,96.000=172.730,185.000=345.460,189.000=172.730,249.000=86.365,250.000=172.730;
#STOPS:94.000=0.087
,94.500=0.087
,95.000=0.087
,95.500=0.087
,156.000=1.042
,185.000=0.174
,186.000=0.087
,186.500=0.174
,187.500=0.087
,188.000=0.174
,249.000=0.347
;
#BGCHANGES:;
#NOTES:
     dance-single:
     Renard:
     Hard:
     9:
     0.608,0.598,0.161,0.705,0.000:
0000
0000
0000
0000
,
0000
0000
0000
0000
,
0000
0000
0000
0000
,
0000
0000
0000
0000
,
0000
0000
0000
0000
,
0000
0000
0000
0000
,
0000
0000
0000
0000
,
0000
0000
0000
0000
,
2200
0000
0000
0010
,
3301
0000
0000
0010
,
0202
0000
0000
0010
,
1303
0000
0000
0010
,
1000
0010
1000
0010
1000
0010
1000
0010
,
0100
0001
0100
0001
0100
0001
0100
0001
,
1000
0100
0010
0001
0100
0010
1000
0100
,
0010
0001
0100
0010
1000
0100
0010
0001
,
2000
0000
0010
0000
3100
1000
0100
0010
,
0002
0000
0010
0000
0103
0001
0010
0100
,
2000
0000
0010
0000
3100
1000
0100
0010
,
0002
0000
0010
0000
0103
0010
1000
0100
,
0020
0000
0001
0000
0130
1000
0010
0100
,
0002
0000
0010
0000
0103
0001
0010
0100
,
2000
0000
0010
0000
3100
1000
0001
0010
,
0100
1000
0100
1000
0001
0001
0001
0001
,
2000
0000
3010
0000
1000
0001
1000
0000
,
0001
0000
1100
0000
1000
0001
1000
0002
,
0100
0000
0013
0200
1000
0000
0310
0002
,
1000
0000
1003
0200
1000
0000
0310
0000
,
0002
0000
0103
0000
0001
1000
0001
0000
,
1000
0000
0011
0000
0001
1000
0001
2000
,
0010
0000
3100
0020
0001
0000
0130
2000
,
0001
0000
3001
0010
0000
0010
0001
0000
,
1000
0100
0010
0001
1000
0000
1001
0000
,
0001
0000
1100
0000
1000
0001
1000
0002
,
0100
0000
0013
0200
0000
1000
0000
0320
,
0000
0001
0000
0230
0000
0010
0010
0000
,
1300
0000
1100
0000
1000
0100
0010
0000
,
0001
0000
0011
0000
0001
0010
0100
0000
,
1000
0100
0000
1001
0000
0010
0000
1001
,
0000
0000
2000
0000
3100
0000
2000
0200
,
3310
0000
0002
0000
0103
0000
0002
0200
,
0313
0000
2000
0000
3001
0000
2000
0002
,
3013
0000
0002
0000
1003
0000
0002
2000
,
3013
0100
1001
0010
,
1001
0100
1001
0010
,
1001
0100
1010
0100
,
0011
0000
0000
0000
0200
0300
0000
0000
0100
0000
0200
0300
0000
0000
0100
0000
,
0200
0300
0000
0000
0002
0000
0000
0000
0103
0000
1000
0000
0100
0000
0000
0000
,
0001
0000
0002
0000
0013
1000
0010
0000
,
0001
0000
0002
0000
0103
1000
0100
0000
,
0001
0010
1000
0000
0010
1000
0010
0100
,
1000
0000
2000
0000
3100
0001
0100
0000
,
1000
0000
2000
0000
3010
0001
0010
0000
,
1000
0000
2000
0000
3100
0001
0100
0000
,
1000
0010
0001
0000
0010
0001
0010
0100
,
0001
0000
2000
0000
3010
0001
0010
0000
,
1000
0000
2000
0000
3100
0001
0100
0000
,
1000
0000
2000
0000
3010
0001
0010
0000
,
1000
0100
0001
0000
0100
0001
0100
0010
,
0001
0000
0002
0000
0013
1000
0010
0000
,
0001
0000
0002
0000
0103
1000
0100
0000
,
0001
0000
0002
0000
0013
1000
0010
0000
,
0001
0000
2002
3003
1000
0000
0002
0000
,
0103
0000
0002
0200
0313
0000
2000
0000
,
3100
0000
2000
0200
3310
0000
2000
0000
,
3001
0000
2000
0002
3013
0000
0002
0000
,
1003
0000
0002
2000
3013
0000
0001
0100
,
0001
0100
1000
0100
1000
0100
0010
0100
,
0010
0100
0001
0010
0001
0010
0100
0010
,
1000
0010
0100
0010
0001
0100
0010
0000
,
0010
0010
0000
0010
0010
0000
1000
0000
,
0100
0010
0002
0000
0023
0000
0230
0000
,
2300
0000
3020
0000
0130
0001
0100
0000
,
0010
1000
0100
0010
0001
0000
0020
0000
,
0230
2300
3001
0010
,
0100
1000
0020
0000
0230
0000
0302
0000
,
0203
0000
0320
0000
1030
0100
0010
0000
,
0001
0010
0100
1000
0001
0000
0011
0000
,
0010
0100
0000
1000
0020
0000
0030
0000
;
#NOTES:
     dance-single:
     Renard:
     Easy:
     6:
     0.321,0.456,0.009,0.000,0.000:
0000
0000
0000
0000
,
0000
0000
0000
0000
,
0000
0000
0000
0000
,
0000
0000
0000
0000
,
0000
0000
0000
0000
,
0000
0000
0000
0000
,
0000
0000
0000
0000
,
0000
0000
0000
0000
,
1000
0000
0000
0001
,
1000
0000
0000
0001
,
0100
0000
0000
0100
,
0010
0000
0010
0000
,
1000
0010
1000
0010
,
0100
0001
0100
0001
,
1000
0100
0010
0001
,
1000
0001
1000
0001
1000
0001
1000
0001
,
1000
0000
0001
0000
0000
0100
0001
0000
,
0010
0000
0001
0000
0000
1000
0001
0000
,
1000
0000
0100
0000
0000
1000
0010
0000
,
1000
0000
0001
0000
0000
1000
0100
0000
,
1000
0001
0100
0001
,
1000
0010
1000
0100
,
1000
0001
0100
0001
,
1000
0000
0001
0000
0010
0001
0010
0001
,
0010
0000
0001
0000
,
1000
0000
0000
0000
0100
1000
0000
0001
,
0000
1000
0000
0001
0000
0100
0000
0010
,
0000
0000
1000
0010
0000
0100
0000
0001
,
0000
0000
1000
0000
,
0100
0000
0010
0001
,
1000
0001
0000
0100
0000
0010
0000
1000
,
0000
0001
0000
1000
0000
0100
0000
0010
,
0001
0000
0010
0000
,
0100
0000
1000
0001
,
0100
0000
0001
1000
0000
0100
0000
1000
,
0000
0001
0000
0010
0000
0001
0000
1000
,
0000
0000
0001
0000
,
0100
0000
0010
1000
,
0001
0100
0001
1000
,
0100
1000
0000
0100
,
0010
0001
0000
1000
,
0001
0100
0001
0000
0000
0000
0100
0000
,
0010
1000
0000
0001
,
0000
0010
0000
0010
,
0100
1000
0000
1000
,
0001
0100
0010
1000
,
0001
0000
1000
0000
0000
0001
0000
0000
,
1000
0000
0001
0000
0100
0000
0000
0100
,
0010
0000
1000
0000
0010
0000
0000
0100
,
0010
1000
0001
1000
,
0001
0000
0100
0000
0000
0010
0000
0000
,
1000
0000
0001
0000
1000
0000
0000
0100
,
1000
0000
0001
0000
1000
0000
0000
0100
,
1000
0001
0001
1000
,
1000
0000
0010
0000
0000
1000
0000
0000
,
0001
0000
0100
0000
0001
0000
0000
1000
,
0001
0000
0010
0000
0001
0000
0000
1000
,
0001
1000
0100
0010
,
0001
0000
1000
0000
1000
0001
0000
0001
,
1000
0000
0001
0000
0100
0000
0000
0001
,
1000
0000
0001
0000
1000
0000
0000
0100
,
1000
0001
0100
0001
,
1000
0100
1100
0000
,
0100
0000
0000
1000
0100
0000
0000
0000
,
1000
0000
0000
0001
1000
0000
0000
0000
,
0001
0000
0000
0100
0001
0000
0000
0000
,
0010
0000
0000
0001
0010
0000
0100
0000
,
1000
0001
0100
0010
,
1000
0100
0010
0001
,
1000
0001
0100
0010
,
1000
0010
0000
1000
0010
0000
1000
0000
,
0000
0001
0100
0010
,
1000
0100
0000
0000
,
0010
0001
0010
0100
,
1000
1000
0000
0000
,
0000
1000
0010
0100
,
0001
0010
0000
0000
,
0010
0001
0100
0010
,
1000
0100
0010
0000
;
#NOTES:
     dance-single:
     pyroko:
     Beginner:
     3:
     0.245,0.000,0.054,0.205,0.000:
0000
0000
0000
0000
,
0000
0000
0000
0000
,
0000
0000
0000
0000
,
0000
0000
0000
0000
,
0000
0000
0000
0000
,
0000
0000
0000
0000
,
0000
0000
0000
0000
,
0000
0000
0000
0000
,
2000
0000
0000
0000
,
0100
0000
0000
3000
,
0020
0000
0000
0030
,
1000
0000
0001
0000
,
2000
0000
0000
0000
,
0000
0000
0000
0000
,
0200
0000
0000
0000
,
0000
0000
3300
0000
,
0110
0000
0010
0000
,
1000
0000
0100
0000
,
0110
0000
0100
0000
,
1000
0000
0001
0000
,
1001
0000
1001
0000
,
1001
0000
1001
0000
,
0001
0001
1000
1000
,
0010
0010
0100
0000
,
0010
1000
0100
0000
,
0010
0000
0100
0000
,
1000
0100
0010
0100
,
1000
0001
0010
0000
,
0001
0000
1000
0000
,
0010
0000
0100
0000
,
0010
0100
0010
0100
,
0001
1000
0001
1000
,
0001
0000
0010
0000
,
0100
0000
1000
0000
,
0100
1000
0100
1000
,
0100
0010
0100
0010
,
0001
0000
1000
0000
,
0001
0000
1000
0000
,
0010
1000
0010
1000
,
0010
0200
0000
0001
,
0000
0001
0000
0001
,
0300
0020
0000
0000
,
0030
1000
0000
0001
,
0000
0020
0000
0000
,
0000
0000
0000
0000
,
0000
0200
0000
0000
,
0000
0330
0000
0000
,
0000
0100
0000
1000
,
0000
0100
0000
0010
,
0000
0001
1000
0001
,
1000
0010
1000
0010
,
1000
0010
0000
0100
,
0000
0001
0000
1000
,
0000
0100
1000
0100
,
1000
0100
0010
0100
,
0010
0001
0000
1000
,
0000
0010
0000
0100
,
0000
0010
0100
0010
,
0100
0001
0100
0001
,
0100
0001
0000
0010
,
0000
0100
0000
1000
,
0000
0100
1000
0100
,
1000
0000
0000
2000
,
3020
0230
0000
0320
,
0000
2030
3200
0320
,
0000
0032
0000
2003
,
0000
3020
0000
0230
,
0000
0302
0000
0023
,
0000
0230
0000
2000
,
0000
0000
0000
3300
,
0000
0000
0000
0010
,
0000
0100
0000
0010
,
0000
1000
0000
0100
,
1000
0100
1000
0001
,
1000
0001
1000
0001
,
0000
0100
0000
0010
,
0000
0100
0000
0010
,
1000
0010
1000
0001
,
1000
0001
1000
0000
;
#NOTES:
     dance-single:
     Renard:
     Medium:
     8:
     0.543,0.598,0.509,0.339,0.000:
0000
0000
0000
0000
,
0000
0000
0000
0000
,
0000
0000
0000
0000
,
0000
0000
0000
0000
,
0000
0000
0000
0000
,
0000
0000
0000
0000
,
0000
0000
0000
0000
,
0000
0000
0000
0000
,
2200
0000
0000
0010
,
3301
0000
0000
0010
,
0202
0000
0000
0010
,
1303
0000
0000
0010
,
1000
0010
1000
0010
1000
0010
1000
0010
,
0100
0001
0100
0001
0100
0001
0100
0001
,
1000
0100
0010
0001
0100
0010
1000
0100
,
0010
0001
0100
0010
1000
0100
0010
0001
,
2000
0000
0010
0000
3100
1000
0100
0010
,
0002
0000
0010
0000
0103
0001
0010
0100
,
2000
0000
0010
0000
3100
1000
0100
0010
,
0002
0000
0010
0000
0103
0010
1000
0100
,
0020
0000
0001
0000
0130
1000
0010
0100
,
0002
0000
0010
0000
0103
0001
0010
0100
,
2000
0000
0010
0000
3100
1000
0001
0010
,
0100
1000
0100
1000
0001
0001
0001
0000
,
1001
M00M
0110
0MM0
,
1001
M00M
0110
0MM0
,
2010
3001
0012
1003
,
0001
0100
1000
0100
0001
0000
1000
0000
,
1001
M00M
0110
0MM0
,
1001
M00M
0110
0MM0
,
0102
1003
2100
3001
,
1000
0010
0001
0010
1000
0000
0001
0000
,
0110
0MM0
1001
M00M
,
0110
0MM0
1001
M00M
,
0021
0130
0201
0310
,
0100
1000
0010
1000
0100
0000
0010
0000
,
0110
0MM0
1001
M00M
,
0110
0MM0
1001
M00M
,
1200
0310
1020
0130
,
0001
0000
1000
0000
1100
0000
1000
0100
,
0010
0000
0001
0000
0101
0000
0001
0100
,
0010
0000
1000
0000
1001
0000
1000
0001
,
0010
0000
0001
0000
1001
0000
0001
1000
,
0010
0100
1001
0010
,
1001
0100
1001
0010
,
1001
0100
1010
0100
,
0011
0000
0000
0000
0200
0300
0000
0000
0100
0000
0200
0300
0000
0000
0100
0000
,
0200
0300
0000
0000
1001
0000
0000
0000
MMMM
0000
0010
0000
0100
0000
0000
0000
,
MMMM
1000
0001
0000
MMMM
0010
0100
0000
,
MMMM
1000
0101
0010
,
0101
0000
0001
0100
0010
1000
0001
0000
,
1001
0000
1001
0000
MMMM
0100
0010
0000
,
MMMM
0001
1000
0000
MMMM
0100
0010
0000
,
MMMM
0001
1010
0100
,
1010
0000
1000
0010
0100
0001
1000
0000
,
1001
0000
0110
0000
MMMM
1000
0001
0000
,
MMMM
0100
0010
0000
MMMM
1000
0001
0000
,
MMMM
0100
0011
1000
,
0011
0000
0010
0001
1000
0100
0010
0000
,
0110
0000
0110
0000
MMMM
0001
1000
0000
,
MMMM
0010
0100
0000
MMMM
0001
1000
0000
,
MMMM
0010
1100
0001
,
1100
0000
2002
3003
1000
0000
0001
0000
,
0101
0000
0001
0100
0010
0000
1000
0000
,
1100
0000
1000
0100
0010
0000
1000
0000
,
1001
0000
1000
0001
0010
0000
0001
0000
,
1001
0000
0001
1000
0010
0000
0001
0100
,
0001
0100
1000
0100
1000
0100
0010
0100
,
0010
0100
0001
0010
0001
0010
0100
0010
,
1000
0010
0100
0010
0001
0100
0010
0000
,
0010
0010
0000
0010
0010
0000
1000
0000
,
0100
0010
0002
0000
0023
0000
0230
0000
,
2300
0000
3020
0000
0130
0001
0100
0000
,
0010
1000
0100
0010
0001
0000
0020
0000
,
0230
2300
3001
0010
,
0100
1000
0020
0000
0230
0000
0302
0000
,
0203
0000
0320
0000
1030
0100
0010
0000
,
0001
0010
0100
1000
0001
0000
0011
0000
,
0010
0100
0000
1000
0020
0000
0030
0000
;
