#TITLE:Firebird;
#SUBTITLE:;
#ARTIST:Kitsune?;
#TITLETRANSLIT:;
#SUBTITLETRANSLIT:;
#ARTISTTRANSLIT:;
#CRChallenge:;
#BANNER:firebird.jpg;
#BACKGROUND:firebird-bg.jpg;
#LYRICSPATH:;
#CDTITLE:;
#MUSIC:firebird.ogg;
#OFFSET:0.000;
#SAMPLESTART:20.380;
#SAMPLELENGTH:12.000;
#SELECTABLE:YES;
#BPMS:0.000=200.000;
#STOPS:;
#BGCHANGES:;
#NOTES:
     dance-single:
     Renard:
     Hard:
     11:
     0.789,1.000,0.163,0.020,0.417:
0000
0000
0000
0000
,
0000
0000
0000
0000
,
0000
0000
0000
0000
,
0000
0000
0000
0000
,
1000
0000
0100
1000
0001
0010
0100
1000
,
0001
0100
0110
0000
,
0010
0000
1000
0001
0100
0010
1000
0100
,
0010
0001
1001
0000
,
0001
0000
0100
0010
1000
0000
0100
0010
,
0001
0011
0110
1100
,
0100
0000
1000
0001
0100
0000
0010
1000
,
0100
0000
0010
0001
0010
0000
0100
1000
,
0001
0000
0100
0010
1000
0000
0010
0100
,
0001
0011
0110
1100
,
1000
0001
1000
0001
0100
0001
0100
0010
,
1000
0100
0010
0001
,
1000
1000
1000
0101
,
0001
0000
0000
0100
0000
0000
0010
0000
1000
0000
0000
0010
0000
0000
0100
0000
,
0001
0000
0000
0100
0000
0000
0010
0000
1000
0000
0000
0000
0010
0000
0000
0000
,
1000
0000
0000
0100
0000
0000
0010
0000
0001
0000
0000
0010
0000
0000
0100
0000
,
1000
0000
0000
0001
0000
0000
0010
0000
0100
0000
1000
0000
0001
0000
0100
0000
,
0010
0000
0000
1000
0000
0000
0010
0000
0100
0000
0000
0001
0000
0000
0010
0000
,
0100
0000
0000
1000
0000
0000
0100
0000
0010
0000
0001
0000
1000
0000
0010
0000
,
0100
0000
0000
0001
0000
0000
0100
0000
0001
0000
0000
1000
0000
0000
0100
0000
,
1000
0000
0000
0000
0001
0000
0000
0000
1000
0100
0010
0001
0010
0100
1000
0001
,
1000
0000
0000
0010
0000
0000
0100
0000
0001
0000
0000
0100
0000
0000
0010
0000
,
1000
0000
0000
0010
0000
0000
0100
0000
0001
0000
0000
0000
0100
0000
0000
0000
,
0001
0000
0000
0010
0000
0000
0100
0000
1000
0000
0000
0100
0000
0000
0010
0000
,
0001
0000
0000
1000
0000
0000
0100
0000
0010
0000
0001
0000
1000
0000
0010
0000
,
0100
0000
0000
0001
0000
0000
0100
0000
0010
0000
0000
1000
0000
0000
0100
0000
,
0010
0000
0000
0001
0000
0000
0010
0000
0100
0000
1000
0000
0001
0000
0100
0000
,
0010
0000
0000
1000
0000
0000
0010
0000
1000
0000
0000
0001
0000
0000
0010
0000
,
0001
0000
0000
0000
1000
0000
0000
0000
0001
0010
0100
1000
0100
0010
0001
1000
,
0100
1000
0100
1000
0100
0010
0100
0010
,
0001
0010
0001
0010
0001
0100
0100
0000
,
0001
0100
0010
0100
1000
0100
0010
0100
,
0100
0000
0001
0010
0010
0000
0100
1000
,
0100
0010
0100
0001
0100
0010
0100
1000
,
0010
0100
0001
0100
0010
1000
0100
0010
,
0001
0000
0001
0010
0100
0000
0100
1000
,
0010
0100
0001
0010
0010
0000
0001
0010
,
0100
0000
0100
1000
0010
0100
0001
0010
,
0100
1000
0001
0100
0010
0010
1000
0000
,
0010
1000
0100
1000
0001
0000
1001
0000
,
1000
0100
0010
0001
1000
0000
1001
0000
,
0001
0100
0010
1000
0001
0000
1000
0100
,
0010
0000
0001
0010
0100
0000
1000
0100
,
0010
0000
0010
0001
0010
0100
1000
0001
,
0100
0101
1001
0011
,
1001
0000
1000
0100
1000
0010
1000
0000
,
1001
0000
1000
0100
0010
0000
0010
0001
,
0010
0000
0010
0000
0010
0000
0100
1000
,
0010
0000
0100
0001
0010
0000
0010
0000
,
0001
0000
1000
0010
0100
0000
0001
0000
,
0010
0000
0100
0000
1000
0000
0001
0100
,
0010
0000
1000
0010
0100
0000
0001
0010
,
0100
0000
1000
0100
0010
0000
0001
0010
,
0100
0000
1000
0010
0100
0000
0001
0100
,
0010
0010
1000
1000
,
0100
0000
0010
0001
0010
0000
0100
1000
,
0001
0100
0100
0010
,
1000
0000
0001
0100
0010
0000
1000
0000
,
0100
0000
0100
0000
0100
0000
0010
0001
,
2000
0000
0000
3000
,
0001
0000
0100
0000
0001
0100
0001
0000
1000
0000
0100
0000
1000
0100
1000
0000
,
0001
0000
0010
0000
0001
0010
0001
0000
1000
0000
0010
0000
1000
0010
1000
0000
,
0001
0000
0001
0100
0000
0001
0100
0000
0001
0000
1000
0001
0000
1000
0001
0000
,
1000
0000
0100
1000
0000
0100
1000
0000
0001
0000
1000
0000
0001
0000
0100
0000
,
0010
0000
1000
0000
0010
1000
0010
0000
0100
0000
0001
0000
0100
0001
0100
0000
,
0001
0000
0010
0000
0001
0010
0001
0000
0010
0000
0100
0000
1000
0100
1000
0000
,
0100
0000
0100
1000
0000
1000
0001
0000
0010
0000
0010
0001
0000
0001
1000
0000
,
0100
0010
0001
1000
0100
0010
0100
1000
0001
0010
0100
0010
0001
1000
0100
0010
,
0001
0000
0001
0010
0000
0010
0001
0000
1000
0000
0000
0100
0000
0000
1000
0000
,
0010
0000
0010
1000
0000
1000
0010
0000
0100
0000
0001
0000
0100
0000
0001
0000
,
0010
0000
0001
0010
0000
0001
0010
0000
0100
0000
0000
1000
0000
0000
0100
0000
,
1000
0000
0001
1000
0000
0001
1000
0000
0001
0000
0100
0000
0010
0000
1000
0000
,
0010
0000
1000
0000
0010
1000
0010
0000
0100
0000
0001
0000
0100
0001
0100
0000
,
0001
0000
0010
0000
0001
0010
0001
0000
1000
0000
0100
0000
1000
0100
1000
0000
,
0001
0000
0100
0000
0010
1000
0010
1000
0010
0000
0100
0000
0001
0010
0001
0010
,
0100
1000
0001
0010
0001
1000
0100
1000
0001
0010
0100
1000
0001
0010
0100
1000
,
0002
0000
0000
0000
,
0003
0000
0000
0000
;
#NOTES:
     dance-single:
     Renard:
     Medium:
     9:
     0.652,0.696,0.275,0.031,0.239:
0000
0000
0000
0000
,
0000
0000
0000
0000
,
0000
0000
0000
0000
,
0000
0000
0000
0000
,
1000
0000
0100
0000
0010
0001
0010
0100
,
1000
0000
1001
0000
,
1000
0000
0001
0000
0100
0010
0100
0010
,
1000
0000
1001
0000
,
1000
0000
0100
0000
0010
0000
0001
0010
,
0100
1100
1001
1010
,
1000
0000
0001
0100
0010
0000
1000
0010
,
0100
0100
0110
0000
,
0010
0000
1000
0001
0100
0000
0001
1000
,
0100
1100
0011
1001
,
0001
0000
0100
0010
1000
0000
0010
1000
,
0001
0100
0010
1000
0100
0010
0001
0010
,
0100
0100
0100
1001
,
1000
0000
0000
0100
0000
0000
0010
0000
0001
0000
0000
0010
0000
0000
0100
0000
,
1000
0000
0000
0010
0000
0000
0100
0000
0001
0000
0000
0000
0100
0000
0000
0000
,
0010
0000
0000
1000
0000
0000
0100
0000
0010
0000
0000
0001
0000
0000
1000
0000
,
0100
0000
0000
1000
0000
0000
0001
0000
0010
0000
0100
0000
1000
0000
0001
0000
,
0010
0000
0000
0001
0000
0000
1000
0000
0100
0000
0000
1000
0000
0000
0001
0000
,
0100
0000
0000
0001
0000
0000
1000
0000
0010
0000
1000
0000
0010
0000
1000
0000
,
0001
0000
0000
0010
0000
0000
0100
0000
1000
0000
0000
0100
0000
0000
0010
0000
,
0001
0100
0010
1000
0100
0010
0001
1000
,
0001
0000
0000
0010
0000
0000
0100
0000
1000
0000
0000
0100
0000
0000
0010
0000
,
0001
0000
0000
0100
0000
0000
0010
0000
1000
0000
0000
0000
0010
0000
0000
0000
,
0100
0000
0000
0001
0000
0000
0010
0000
0100
0000
0000
1000
0000
0000
0001
0000
,
0010
0000
0000
0001
0000
0000
1000
0000
0100
0000
0010
0000
0001
0000
1000
0000
,
0100
0000
0000
1000
0000
0000
0001
0000
0010
0000
0000
0001
0000
0000
1000
0000
,
0010
0000
0000
1000
0000
0000
0001
0000
0100
0000
0001
0000
0100
0000
0001
0000
,
1000
0000
0000
0100
0000
0000
0010
0000
0001
0000
0000
0010
0000
0000
0100
0000
,
1000
0010
0100
0001
0010
0100
1000
0001
,
1000
0100
1000
0100
1000
0100
1000
0100
,
1000
0100
1000
0100
1000
0100
0100
0000
,
1100
0000
0110
0000
0101
0000
0001
0100
,
0010
0000
0010
0100
1000
0000
1000
0000
,
1010
0000
0010
0100
0001
0000
0010
0000
,
0011
0110
0110
0010
,
0100
0000
1000
0010
0100
0000
0001
0100
,
0010
0000
1000
0100
0010
0000
0001
0010
,
0001
0000
1000
0100
1000
0001
1000
0010
,
1000
1001
0110
0010
,
1000
0000
1000
0010
0100
0000
0001
0010
,
0100
0110
0011
1100
,
1001
0000
1000
0010
0100
0000
0001
0000
,
0010
0000
0010
0001
1000
0000
0010
1000
,
0001
0000
0001
0100
0010
0000
0010
1000
,
0100
0110
0011
0110
,
0110
0000
0100
1000
0001
0000
0100
0000
,
0010
0000
1000
0010
1000
0000
0001
0000
,
0100
0000
0100
0000
0001
0000
1000
0100
,
0010
0000
0001
0010
0100
0000
0100
0000
,
1000
0000
0001
0100
0010
0000
1000
0000
,
0010
0000
0100
0000
0001
0000
1000
0100
,
0010
0000
0001
0000
0010
0000
0001
0010
,
0100
0000
1000
0100
1000
0000
0001
0000
,
0100
0000
0010
1000
0001
0000
0100
0000
,
0010
1000
0100
0010
,
0001
0000
1000
0100
0010
0000
0100
0000
,
1000
0001
0010
0001
,
1000
0000
0100
0010
0001
0000
0010
0000
,
0200
0000
0000
0000
,
2300
0000
0000
0000
0000
0000
0000
3000
,
0001
0000
0000
0100
0000
0000
0010
0000
1000
0000
0000
0010
0000
0000
0100
0000
,
0001
0000
0000
0010
0000
0000
0100
0000
1000
0000
0000
0000
0001
0000
0000
0000
,
0010
0000
0000
0100
0000
0000
1000
0000
0001
0000
0000
0100
0000
0000
0010
0000
,
1000
0000
0000
0010
0000
0000
0100
0000
0001
0000
0000
0000
0010
0000
0000
0000
,
0100
0000
0000
1000
0000
0000
0001
0000
0010
0000
0000
0001
0000
0000
1000
0000
,
0010
0000
0000
0100
0000
0000
0001
0000
0100
0000
0000
0000
0010
0000
0000
0000
,
1000
0000
0000
0100
0000
0000
0010
0000
0001
0000
0000
0010
0000
0000
0100
0000
,
1000
0000
0000
0000
0001
0000
0000
0000
0010
0000
0000
0000
0001
0000
1000
0001
,
1000
0000
0000
0001
0000
0000
0100
0000
0001
0000
0000
1000
0000
0000
0100
0000
,
0010
0000
0000
0001
0000
0000
0010
0000
0100
0000
1000
0000
0100
0000
0010
0000
,
0001
0000
0000
1000
0000
0000
0010
0000
0100
0000
0000
0001
0000
0000
0010
0000
,
0001
1000
0100
0010
0001
1000
0001
0010
,
0100
0000
0000
1000
0000
0000
0100
0000
0010
0000
0000
0001
0000
0000
0010
0000
,
0001
0000
0000
0100
0000
0000
0001
0000
1000
0000
0000
0000
0010
0000
1000
0010
,
0100
0000
0000
0001
0000
0000
0010
0000
0100
0000
0000
1000
0000
0000
0100
0000
,
0010
0000
0001
0010
0001
0000
0010
0000
0100
0000
1000
0100
1000
0000
0001
0000
,
0200
0000
0300
0000
;
#NOTES:
     dance-single:
     Renard:
     Easy:
     6:
     0.466,0.529,0.020,0.041,0.000:
0000
0000
0000
0000
,
0000
0000
0000
0000
,
0000
0000
0000
0000
,
0000
0000
0000
0000
,
1000
0100
0010
0001
,
1000
0000
1001
0000
,
0001
0010
0100
1000
,
0001
0000
1001
0000
,
1000
0000
0100
1000
0100
0000
1000
0001
,
1000
0001
0100
0001
,
0010
0000
0100
0000
,
1000
1000
0001
0100
,
0010
0000
1000
0010
1000
0000
0001
0100
,
0001
1000
0100
0010
,
0001
1000
0001
0100
,
0010
0000
1000
0000
0001
0100
0001
0000
,
1000
1000
1000
0002
,
1003
0000
0100
1000
0100
0000
1000
0001
,
1000
0001
0100
0000
,
0001
0000
0010
0000
0001
0000
1000
0001
,
1000
0000
0001
0100
0001
0000
0100
0000
,
0010
0000
1000
0000
0100
0000
1000
0001
,
1000
0000
0001
0010
0001
0000
1000
0000
,
0010
0100
0010
1000
,
0001
0000
0100
0001
0100
0000
0001
1000
,
0001
1000
0100
0010
,
0001
0000
1000
0001
1000
0000
0001
0100
,
0001
1000
0100
0010
,
0001
0000
1000
0010
1000
0000
0001
0100
,
0001
1000
0100
0010
,
0001
0000
1000
0001
1000
0000
0001
0100
,
0001
0100
0010
1000
,
0100
0010
0001
0010
,
0100
1000
0100
1000
0100
1000
0100
1000
,
0100
1000
0100
1000
0100
1000
0100
0000
,
1000
0100
1000
0001
,
0100
0001
1000
0100
,
1000
0001
0010
0001
,
1000
0010
0200
0000
,
0301
1000
0100
1000
,
0001
0010
0001
1000
,
0010
1000
0001
0100
,
0010
1000
0200
0000
,
1300
1000
0100
0100
,
0010
0010
0001
0001
,
1000
1000
0010
0010
,
0100
0100
0001
0000
,
0100
0100
0001
0001
,
1000
1000
0010
0010
,
1000
0000
0100
1000
0100
0000
1000
0000
,
0001
0010
0001
1000
,
0001
0000
0000
0000
0100
0000
0010
1000
,
0010
0000
1000
0000
,
0100
0000
0010
0000
,
0001
0000
1000
0000
0001
0000
0100
0001
,
0100
0000
0000
0000
0001
0000
0000
1000
,
0100
0000
0000
1000
0001
0000
0000
0000
,
0010
0000
0000
0000
0001
0000
0000
1000
,
0010
0100
0001
0100
,
0010
0000
0000
0000
1000
0000
0000
0001
,
0100
0001
1000
0100
,
0010
0000
0000
0001
0010
0000
0000
0100
,
1000
0000
1000
0000
,
0002
0000
0000
0000
0000
0000
0000
0003
,
1000
0000
0001
0000
0100
0001
0100
0000
,
0001
0000
1000
0000
0100
1000
0100
0000
,
1000
0000
0001
0000
0010
0001
0010
0000
,
0001
1000
0010
0000
,
0100
0000
0001
0000
1000
0000
0100
1000
,
0100
1000
0001
0000
,
0010
0000
0001
0000
1000
0000
0010
1000
,
0010
1000
0001
0100
,
0010
0000
1000
0000
0001
0000
0100
0001
,
0100
0001
1000
0000
,
0100
0000
1000
0000
0001
0000
0010
0001
,
0010
0001
1000
0010
,
0100
0000
0000
0000
0001
0000
0100
0001
,
1000
0000
0001
1000
,
0100
0010
0001
1000
,
0010
0000
0100
0000
0001
1000
0001
1000
,
0001
0000
0000
0000
;
#NOTES:
     dance-single:
     Renard:
     Beginner:
     3:
     0.410,0.610,0.061,0.020,0.000:
0000
0000
0000
0000
,
0000
0000
0000
0000
,
0000
0000
0000
0000
,
0000
0000
0000
0000
,
0000
0000
0000
0000
,
0000
0000
0000
0000
,
0000
0000
0000
0000
,
0000
0000
0000
0000
,
0001
1000
0100
1000
,
0001
0001
0100
0100
,
0010
0000
0010
0000
,
1000
0000
0000
0000
,
0100
0100
0010
0001
,
0001
1000
0010
0010
,
0100
0000
0001
0000
,
1000
0100
1000
0000
,
0001
0001
0001
1000
,
0001
0100
0010
1000
,
0001
0100
0010
1000
,
0010
0100
0001
1000
,
0010
0100
0001
1000
,
0001
0010
0100
1000
,
0001
0010
0100
1000
,
0001
0010
0001
1000
,
0100
1000
0001
0000
,
1000
0010
1000
0010
,
0100
0001
0100
0001
,
1000
0100
1000
0100
,
0010
0001
0010
0001
,
1000
0010
0100
0001
,
1000
0100
0010
0001
,
1000
0010
1000
0010
,
0100
0001
0100
0001
,
1000
1000
1000
1000
,
1000
0000
1000
0000
1000
0001
1000
0000
,
0001
0000
0100
0010
,
1000
0000
0010
0100
,
0001
0010
0100
1000
,
0100
0010
0001
1000
,
0001
0000
0000
0000
0100
0000
0010
1000
,
0010
0100
0001
0010
,
0001
1000
0100
1000
,
0001
0010
0001
1000
,
0010
0000
0100
0010
0100
0000
0001
0000
,
1000
1000
1000
0000
,
0001
0000
0010
0100
0010
0000
0100
0000
,
1000
0001
0100
0000
,
0010
0000
1000
0010
1000
0000
0001
0100
,
0001
1000
0100
0010
,
0001
0000
1000
0001
1000
0000
0001
0000
,
0100
0010
1000
0010
,
0100
0100
0001
0001
,
0010
0010
0100
1000
,
0001
0001
0100
0010
,
1000
1000
0010
0100
,
0001
0001
0010
0010
,
0001
0001
1000
1000
,
0100
1000
0001
0010
,
0100
0100
0100
0000
,
1000
0010
0100
0001
,
0010
0010
0010
0000
,
0001
1000
0100
0010
,
0002
0000
0000
0000
,
2000
0000
0000
0000
0000
0000
0000
3003
,
1000
0001
0100
0010
,
1000
0001
0100
0010
,
1000
0001
0100
0010
,
1000
0001
0100
0010
,
1000
0100
0010
0001
,
1000
0100
0010
0001
,
1000
0100
0010
0001
,
1000
0100
0010
0001
,
1000
0010
1000
0010
,
0100
0001
0100
0001
,
1000
0100
1000
0100
,
0010
0001
0010
0001
,
1000
0010
0100
0001
,
1000
0100
1000
0100
,
0010
0011
0001
0101
,
0100
0101
1010
1100
,
0011
0000
0000
0000
;
