#TITLE:Filth In The Beauty;
#SUBTITLE:;
#ARTIST:The GazettE;
#TITLETRANSLIT:;
#SUBTITLETRANSLIT:;
#ARTISTTRANSLIT:;
#CRChallenge:;
#BANNER:filth.png;
#BACKGROUND:filth-bg.png;
#LYRICSPATH:;
#CDTITLE:;
#MUSIC:filth.ogg;
#OFFSET:0.000;
#SAMPLESTART:65.951;
#SAMPLELENGTH:14.520;
#SELECTABLE:YES;
#BPMS:0.000=120.000,32.000=240.000,102.000=120.000,166.000=240.000,301.000=260.000,303.000=240.000,335.000=120.000;
#STOPS:166.000=0.125
,166.500=0.145
;
#BGCHANGES:;
#NOTES:
     dance-single:
     Renard:
     Medium:
     9:
     0.693,0.808,0.211,0.101,0.124:
0000
0000
0000
0000
,
0000
0000
0000
0000
,
0000
0000
0000
0000
,
0000
0000
0000
0000
,
0001
0000
0001
1000
0000
1000
0100
0000
0010
0000
0010
0000
0001
0000
0001
0000
,
0000
0000
1000
0010
1000
0000
0010
0000
0100
0000
0100
0000
0001
0000
0001
0000
,
0000
0000
1000
0000
1000
0000
0100
0010
0000
0010
0001
0000
0010
0000
0100
0000
,
1000
0000
0001
0100
0001
0000
1000
0000
0001
0000
0000
0000
1001
0000
0000
0000
,
0001
1000
0100
1000
0000
0001
0000
1000
,
0100
0010
0001
0000
0010
0000
0001
0000
,
1000
0001
0100
0010
0000
1000
0000
0010
,
1000
0001
1000
0000
1100
0000
0000
0000
,
1000
0100
0010
0000
0001
0000
1000
0000
,
0010
0100
0001
0000
0101
0000
1001
0000
,
1000
0010
0100
0001
1000
0000
0001
1000
,
0010
1000
0100
0000
1100
0000
1010
0000
,
1001
0000
1000
0001
0100
0000
0001
1000
,
0100
0000
1001
0000
0101
0000
1000
0010
,
0100
0000
0001
0010
0001
0000
1000
0010
,
1000
0001
0100
0000
0101
0000
1001
0000
,
1100
0000
1000
0100
0010
0001
0010
0000
,
0100
1000
0001
0100
0010
0000
1000
0000
,
0010
0100
0001
0100
0010
0000
1000
0010
,
0100
0001
0100
0000
0010
1000
0001
1000
,
0001
0100
0010
1000
0000
1000
0010
0100
,
0001
0000
0000
0000
0001
0000
0000
0000
1001
0000
0000
0000
0001
0000
0001
0100
,
0000
0100
0010
0000
1000
0000
1000
0000
0010
0000
0010
0000
1000
0000
1000
0100
,
0000
0100
0010
0000
0001
0000
0001
0000
0010
0000
0010
0000
0001
0000
0001
0100
,
0000
0100
0001
0000
0100
0000
0100
0000
0010
0000
0010
0000
1000
0000
0100
0000
,
0010
0000
0001
0000
2000
0000
0000
0000
0001
0000
0000
0000
3010
0000
0010
1000
,
0000
1000
0010
0000
0100
0000
0100
0000
0001
0000
0001
0000
0010
0000
0010
0001
,
0000
0001
0100
0000
0001
0000
0001
0000
1000
0000
1000
0000
0100
0000
0100
0010
,
0000
0010
0001
0000
1000
0000
0010
0000
0100
0000
0002
0000
1000
0000
0000
0000
,
0100
0000
1000
0000
2003
0000
0000
0000
0010
0000
0001
0000
3010
0000
1000
0010
,
1000
0000
0001
0000
0100
0000
0010
0000
0010
0000
0000
0000
1000
0000
0001
0100
,
0001
0000
0100
0000
0010
0000
1000
0000
1000
0000
0000
0000
0100
0000
1000
0001
,
0010
0000
0001
0000
1000
0000
0100
0000
0100
0000
1000
0000
0010
0000
0100
0001
,
0100
0000
0001
1000
0001
0000
1000
0100
1000
0000
0001
0010
0001
0000
1000
0000
,
0010
0000
0100
0000
0002
0000
1000
0000
1003
0000
0000
0000
1000
0000
0010
0100
,
0010
0000
0100
0000
0020
0000
1000
0000
1030
0000
0000
0000
1000
0000
0100
1000
,
0100
0020
0000
0001
0031
2000
0000
3100
,
0010
0002
0000
1003
1001
0110
1001
0000
,
0000
0102
0000
0010
,
1000
0000
0103
0000
0000
0000
0001
0100
,
0001
1000
0001
0000
0000
0000
1000
0100
,
1000
0001
1000
0000
0010
0000
1001
0000
,
0000
2010
0000
0100
,
0001
0000
3010
0000
0000
0000
1000
0010
,
1000
0001
1000
0000
0000
0000
0001
0010
,
0001
1000
0001
0000
0100
0000
1001
0000
,
0000
0000
0100
0001
0010
0001
0100
0000
,
0001
0000
0100
0000
0010
0000
1000
0100
,
1000
0100
1000
0000
0001
0100
0001
0100
,
0001
1000
0010
1001
,
0000
0000
0010
1000
0100
1000
0010
0000
,
1000
0000
0010
0000
0100
0000
0001
0010
,
0001
0010
0001
0000
1000
0010
1000
0010
,
1000
0000
0001
0000
0100
0000
0001
0100
,
0001
0100
0001
0000
0100
0010
0100
0010
,
0100
0000
0010
1000
0010
0000
1000
0100
,
1000
0100
1000
0000
0100
0010
0100
0010
,
0100
0000
0010
0001
0010
0000
0001
0100
,
0001
0100
0001
0000
0100
0010
0100
0010
,
0100
0000
0010
1000
0010
0000
1000
0100
,
1000
0100
1000
0000
0100
0010
0100
0010
,
0100
0000
0010
0001
0010
0000
0001
0010
,
0100
1000
0100
0000
1000
0100
0010
0001
,
0010
0000
0001
0010
0100
0000
1000
0010
,
0100
0001
0100
0000
0001
0100
0010
1000
,
0010
0000
1000
0010
0100
0000
0001
0010
,
0100
1000
0100
0000
0010
0001
0010
0100
,
1000
0000
0100
0010
0001
0000
1000
0010
,
0100
0001
0100
0000
0010
1000
0001
0100
,
0010
0000
1000
0010
0100
0000
0002
0000
,
1000
0100
0010
1000
,
0103
0000
0011
0000
0000
0000
0001
0010
,
0001
0100
0000
0010
0000
1000
0100
0000
,
1000
0000
0010
0000
0100
0000
0001
1000
,
0100
1000
0000
0001
0000
0100
0010
0000
,
1000
0000
0001
0000
0010
0000
0100
1000
,
0100
0010
0000
0001
1000
0000
0010
0000
,
0100
0000
0001
0000
0010
0000
0100
1000
,
0100
0010
0000
0010
0100
0010
0001
0010
,
0000
0100
1000
0100
0010
0000
1001
0000
;
#NOTES:
     dance-single:
     Renard:
     Easy:
     7:
     0.449,0.577,0.018,0.175,0.000:
0000
0000
0000
0000
,
0000
0000
0000
0000
,
0000
0000
0000
0000
,
0000
0000
0000
0000
,
0001
0000
0001
1000
0100
0000
0100
0000
,
1000
0000
1000
0001
0100
0000
0100
0000
,
0001
0000
0001
1000
0100
0000
0100
0010
,
0002
2003
3020
0230
,
0301
0100
0010
0100
,
0001
0000
0100
0000
0010
0100
0010
0000
,
1000
0010
0100
0010
,
1000
0000
0010
0000
0100
0010
0100
0000
,
0010
1000
0100
1000
,
0010
0000
1000
0000
0100
1000
0100
0000
,
1000
0001
0100
0001
,
1000
0000
0001
0000
0100
0001
0100
0000
,
0001
0001
1000
1000
,
0100
0100
1000
0000
,
0001
0001
1000
1000
,
0100
0100
0010
0000
,
0001
0001
1000
1000
,
0010
0010
0100
0000
,
0001
1000
0100
1000
,
0001
0000
0100
0000
0001
1000
0001
0000
,
1000
0000
1000
0000
,
0001
0100
0001
0000
0100
0000
0001
0000
,
0001
0000
1000
0100
1000
0000
0001
0000
,
0001
0000
1000
0010
1000
0000
0001
0000
,
0001
0000
1000
0100
1000
0000
0020
0000
,
0000
0230
0000
0301
,
0001
0000
1000
0100
1000
0000
0001
0000
,
0001
0000
0010
0001
0010
0000
0001
0000
,
0001
0000
1000
0100
1000
0000
0020
0000
,
0230
0320
0230
0310
,
0010
0100
0000
0100
0001
1000
0100
0000
,
0100
1000
0000
1000
0001
0010
0100
0000
,
0100
0010
0000
0010
0001
1000
0010
0000
,
0010
1000
0000
1000
0001
0100
0010
0000
,
0010
1000
0000
1000
0010
0100
0001
0000
,
0001
1000
0000
1000
0100
1000
0010
0000
,
0010
0100
0000
0100
0001
0010
0001
0000
,
0001
0000
1000
0000
0001
0001
1000
0000
,
0000
0100
1000
0001
,
0100
0001
0000
1000
,
0000
0000
0001
0000
0100
0000
0001
1000
,
0001
0000
1000
0001
1000
0000
0001
0000
,
0000
1000
0010
0100
,
0001
1000
0100
0020
,
0000
0032
0000
2003
,
0000
3020
0000
0130
,
0000
0100
0001
1000
,
0100
0000
1000
0001
1000
0000
0001
0000
,
0000
0100
0010
1000
,
0001
0000
1000
0001
1000
0000
0200
0000
,
0000
1300
0010
0100
,
0001
0010
0001
2000
,
0000
3002
0000
0203
,
0000
0320
0000
1030
,
0000
1000
0010
0000
,
0010
0100
0001
1000
,
0000
1000
0001
0000
,
0001
0010
0100
1000
,
0000
1000
0100
0000
,
0100
0010
0001
1000
,
0000
1000
0010
0000
,
0010
0100
0001
1000
,
0000
1000
0001
0000
,
0001
0100
0001
0010
,
0000
0010
0001
0000
,
0001
1000
0010
0100
,
0000
0100
0010
0000
,
0010
0100
0001
1000
,
0100
1000
0100
0000
1000
0001
1000
0000
,
0001
0100
0001
0000
1000
0001
1000
0000
,
0000
0100
0010
0001
,
0000
1001
0000
1000
,
0000
1000
0001
0100
,
0000
0100
0010
1000
,
0000
1000
0001
0010
,
0010
0001
0000
1000
,
1000
0010
0010
0100
,
0100
0000
0001
0000
0001
0000
1000
0001
,
1000
0001
1000
0000
0001
1000
0001
1000
,
0001
0000
1000
0001
1000
0000
0110
0000
;
#NOTES:
     dance-single:
     Renard:
     Beginner:
     4:
     0.310,0.423,0.009,0.349,0.000:
0000
0000
0000
0000
,
0000
0000
0000
0000
,
0000
0000
0000
0000
,
0000
0000
0000
0000
,
0001
0001
1000
1000
,
0010
0010
0100
0100
,
0001
1000
1000
0000
,
0001
1000
1000
0000
,
0010
0000
0100
0000
,
0001
1000
0001
0000
,
1000
0000
0100
0000
,
1000
0000
1000
0000
,
0001
0000
0100
0000
,
0001
1000
0001
0000
,
0100
0000
0100
0000
,
0010
0000
0010
0000
,
1000
0000
1000
0000
,
0001
0100
0001
0000
,
1000
0000
1000
0000
,
0001
0000
0010
0000
,
0001
0000
0001
0000
,
1000
0100
1000
0000
,
0010
0000
0010
0000
,
0100
0000
0001
0000
,
2000
0000
0000
3200
,
0000
0000
0310
0010
,
0000
0001
1000
0010
,
0000
0100
0001
1000
,
0000
0100
1000
0010
,
0000
0020
0000
0130
,
0000
0100
0001
1000
,
0000
1000
0001
0010
,
0000
0010
0001
1000
,
1000
0001
0001
2000
,
0000
3020
0000
0230
,
0000
0302
0000
1000
,
0000
0100
0000
0010
,
0010
0010
0010
2003
,
0000
0001
0000
0010
,
0000
0100
0000
0001
,
3002
1000
2003
0001
,
3002
1000
1003
1000
,
0000
0001
0000
1000
,
0001
1000
0000
0010
,
0000
0100
0000
0010
,
0100
0010
0000
1000
,
0000
0010
0000
1000
,
0010
1000
0000
0001
,
0000
0001
0000
0100
,
0001
0100
0000
0001
,
0000
0001
0000
1000
,
0001
1000
0000
0100
,
0000
0100
0000
1000
,
0100
1000
0000
0010
,
0000
0010
0000
1000
,
0001
1000
0000
0001
,
0000
0001
0000
0010
,
0001
0010
0000
0002
,
0000
0000
2003
0000
,
0000
3020
0000
0230
,
0000
0302
0000
2003
,
0000
3200
0000
0320
,
0000
0000
0032
0000
,
0000
2003
0000
3020
,
0000
0230
0000
0302
,
0000
2003
0000
3200
,
0000
0000
2300
0000
,
0000
3002
0000
0203
,
0000
0302
0000
2003
,
0000
3200
0000
0320
,
0000
0000
0032
0000
,
0000
2003
0000
3020
,
0000
0000
0000
0230
,
0000
0000
0000
0302
,
0000
1000
1000
1000
,
0000
1003
0000
1000
,
0000
0001
0000
1000
,
0001
1000
0000
0001
,
0000
1000
0000
0001
,
1000
0001
0000
0100
,
0010
0100
0010
0100
,
0010
0100
0010
1000
,
1000
1000
0001
0001
,
0001
1000
1000
1001
;
#NOTES:
     dance-single:
     Renard:
     Hard:
     10:
     0.958,1.000,0.147,0.055,0.478:
0000
0000
0000
0000
,
0000
0000
0000
0000
,
0000
0000
0000
0000
,
0000
0000
0000
0000
,
0001
1000
0100
1000
0001
0000
1000
0001
0100
0001
1000
0000
0001
1000
0100
1000
,
0001
0000
1000
0001
0100
0001
1000
0000
0010
0000
0010
0000
0100
0000
0100
0000
,
0001
1000
0100
1000
0001
0000
1000
0001
0100
0001
1000
0000
1001
0000
0001
0000
,
0110
0010
1001
0010
0101
0010
1001
0000
,
0001
0100
0001
1000
0100
1000
0001
0100
,
0001
1000
0100
1000
0001
0100
0010
1000
,
0100
1000
0100
1000
0001
1000
0001
1000
,
0001
0100
0001
0100
0001
1000
0001
1000
,
0001
0010
0001
1000
0010
1000
0001
0010
,
0001
1000
0010
1000
0010
0100
0001
0010
,
0001
1000
0001
1000
0010
1000
0100
0010
,
0001
0010
0100
1000
0001
0100
0001
1000
,
0100
0010
0001
0010
0100
1000
0001
0010
,
0100
1000
0100
0010
0001
1000
0100
0010
,
0001
0100
0010
1000
0010
0100
0001
0100
,
0010
1000
0010
0100
0001
0100
0010
1000
,
0100
0010
0001
0010
0100
1000
0001
0010
,
0100
1000
0100
0010
0001
1000
0100
0010
,
0001
1000
0010
0100
0001
0100
0010
1000
,
0001
0100
0010
1000
0100
0010
0001
0000
,
2001
0001
0001
3001
0000
2001
0001
0001
,
0001
0000
0000
0000
3001
0000
0000
0000
1001
0000
0000
0000
0001
0000
1000
0100
,
0010
0000
0001
0010
0100
0000
1000
0100
0010
0000
0001
0000
1000
0000
0010
0100
,
0001
0000
0000
0000
0000
0000
0100
0000
0001
0000
0100
0000
0001
0000
0000
0000
0000
0000
1000
0000
0001
0000
1000
0000
0001
0000
0000
0000
0000
0000
1000
0000
0000
0000
0000
0000
0100
0000
0000
0000
0000
0000
0010
0000
0000
0001
0000
0000
,
0010
0000
0000
0000
0000
0000
0100
0000
0000
1000
0000
0000
0100
0000
0000
0000
0000
0000
1000
0000
0000
0010
0000
0000
1000
0000
0000
0000
0000
0000
0001
0000
0100
0000
0001
0000
0100
0000
0000
0000
0000
0000
0010
0000
1000
0000
0010
0000
,
1000
0000
0000
0000
0000
0000
0001
0000
1000
0000
0001
0000
1000
0000
0000
0100
0000
0000
0010
0000
0000
0001
0000
0000
0010
0000
0000
0100
0000
0000
1000
0000
0000
0001
0000
0000
1000
0000
0000
0000
0000
0000
0001
0000
0000
0010
0000
0000
,
0100
0000
1000
0100
0010
0000
0001
0010
0100
0000
1000
0000
0001
0000
0100
0010
,
1000
0000
0000
0000
0000
0000
0010
0000
1000
0000
0010
0000
1000
0000
0000
0000
0000
0000
0001
0000
1000
0000
0001
0000
1000
0000
0000
0000
0000
0000
0001
0000
0000
0000
0000
0000
0010
0000
0000
0000
0000
0000
0100
0000
0000
1000
0000
0000
,
0100
0000
0000
0000
0000
0000
0010
0000
0000
0001
0000
0000
0010
0000
0000
0000
0000
0000
0001
0000
0000
0100
0000
0000
0001
0000
0000
0000
0000
0000
1000
0000
0010
0000
1000
0000
0010
0000
0000
0000
0000
0000
0100
0000
0001
0000
0100
0000
,
0001
0000
0000
0000
0000
0000
1000
0000
0001
0000
1000
0000
0001
0000
0000
0010
0000
0000
0100
0000
0000
1000
0000
0000
0100
0000
0000
0010
0000
0000
0001
0000
0000
1000
0000
0000
0001
0000
0000
0100
0000
0000
0001
0000
0000
0100
0000
0000
,
0001
0000
0100
0010
0100
0010
0100
0000
0010
1000
0010
1000
0010
0000
1000
0100
,
1000
0100
1000
0000
0001
0010
0100
1000
0100
0010
0001
1000
0010
0100
0001
0100
,
0001
0000
1000
0010
1000
0010
1000
0000
0100
1000
0100
1000
0100
0000
0010
0100
,
0010
0100
0010
0000
0001
0010
0100
1000
0001
0100
0010
1000
0100
0010
0100
0010
,
0100
0000
0010
0001
0010
0001
0010
0000
0100
1000
0100
1000
0100
0000
1000
0001
,
1000
0001
1000
0000
0001
0100
0010
1000
0100
0010
0001
0010
0100
1000
0100
1000
,
0100
0000
0010
0001
0010
0001
0010
0000
0001
1000
0010
0100
0001
0010
0100
1000
,
0001
0100
0010
1000
0001
0000
0000
0000
2002
0000
3013
0000
00M1
0000
1000
0000
,
01M0
1000
00M1
1000
01M0
1000
00M1
1000
,
01M0
1000
00M1
1000
01M0
1000
00M1
0100
,
00M1
1000
00M1
0100
00M1
1000
00M1
0100
,
00M1
1000
00M1
0100
00M1
1000
00M1
0100
,
M010
0100
M001
0100
M010
0100
M001
0100
,
M010
0100
M001
0100
M010
0100
M001
1000
,
010M
0010
010M
1000
010M
0010
010M
1000
,
010M
0010
010M
1000
010M
0010
010M
1000
,
00M1
0100
00M1
1000
010M
0010
M001
0010
,
010M
1000
00M1
0100
00M1
1000
010M
1000
,
0M01
0010
0M01
1000
0M10
1000
00M1
0100
,
001M
1000
010M
0010
0M01
1000
01M0
1000
,
00M1
0100
00M1
1000
0M10
1000
0M01
0010
,
M001
0010
010M
1000
010M
0010
M001
0100
,
001M
1000
010M
0010
M001
0010
010M
1000
,
00M1
0100
001M
1000
0M01
0000
10M0
0100
,
100M
0100
10M0
0000
0M01
1000
00M1
1000
,
0M01
0000
01M0
0001
1M00
0000
010M
1000
,
0M01
0010
M100
0000
0M10
0001
M010
0100
,
100M
0000
00M1
0100
M001
0000
0M10
0001
,
M010
0001
0M10
0000
M100
0010
010M
0010
,
M100
0000
100M
0100
10M0
0000
M001
0100
,
001M
1000
010M
0010
M001
0010
010M
1000
,
00M1
0100
001M
1000
010M
0010
M001
0010
,
0M01
0010
M001
0000
1M00
0010
100M
0010
,
1M00
0000
00M1
0100
M001
0100
001M
1000
,
010M
0010
M001
0000
001M
0100
10M0
0001
,
01M0
0000
M010
0100
M001
0100
001M
1000
,
010M
0010
M001
0000
001M
0100
10M0
0001
,
M100
0000
001M
1000
010M
0010
M001
0010
,
010M
1000
00M1
0100
001M
1000
010M
0010
,
M001
0010
010M
1000
0M01
0000
1MM1
0000
,
M11M
1M1M
M11M
M1M1
,
2MM2
0000
3M13
0000
0000
0000
0001
1000
,
0001
1000
0001
0100
0001
0100
0001
0010
,
0001
0000
0010
0000
0001
0000
1000
0001
1000
0000
0001
0000
0100
0000
0001
0000
,
0100
0000
0001
0000
0010
0000
0001
0000
0010
0000
0001
0000
1000
0000
0001
1000
,
0001
1000
0100
0010
0001
0000
1000
0001
,
1000
0001
1000
0010
1000
0010
1000
0100
,
1000
0000
0100
0000
1000
0000
0001
1000
0001
0000
1000
0000
0010
0000
1000
0000
,
0010
0000
1000
0000
0100
0000
1000
0000
0100
1000
0100
0000
1000
0000
0100
0000
,
0000
0010
0001
0010
0100
0000
1011
0000
;
